osu file format v14

[General]
AudioFilename: audio.ogg
AudioLeadIn: 0
PreviewTime: 90087
Countdown: 0
SampleSet: Soft
StackLeniency: 0.9
Mode: 3
LetterboxInBreaks: 0
SpecialStyle: 0
WidescreenStoryboard: 1

[Editor]
DistanceSpacing: 0.7
BeatDivisor: 4
GridSize: 4
TimelineZoom: 1.8

[Metadata]
Title:ARES
TitleUnicode:ARES
Artist:Nor
ArtistUnicode:Nor
Creator:Revv-
Version:Normal
Source:ブルーアーカイブ -Blue Archive-
Tags:Video game original soundtrack Vol.1 ~Longing for the memorable days~ yostar electronic instrumental ost bgm ainer famoss buruaka buru aka nexon ブルアカ ブル アカ
BeatmapID:3094167
BeatmapSetID:1511008

[Difficulty]
HPDrainRate:7.5
CircleSize:4
OverallDifficulty:7.5
ApproachRate:5
SliderMultiplier:1.4
SliderTickRate:1

[Events]
//Background and Video events
0,0,"lomba.jpg",0,0
//Break Periods
//Storyboard Layer 0 (Background)
//Storyboard Layer 1 (Fail)
//Storyboard Layer 2 (Pass)
//Storyboard Layer 3 (Foreground)
//Storyboard Layer 4 (Overlay)
//Storyboard Sound Samples

[TimingPoints]
87,352.941176470588,4,2,1,60,1,0
22675,-100,4,2,1,60,0,1
45263,-100,4,2,1,60,0,0
90439,-100,4,2,1,60,0,1
98910,-100,4,2,1,60,0,0
101734,-100,4,2,1,60,0,1
112675,-100,4,2,1,60,0,0

[HitObjects]
64,192,87,5,2,0:0:0:0:
448,192,87,1,4,0:0:0:0:
192,192,263,128,0,439:0:0:0:0:
320,192,439,1,2,0:0:0:0:
64,192,616,128,0,792:0:0:0:0:
448,192,792,1,2,0:0:0:0:
320,192,969,128,0,1145:0:0:0:0:
192,192,1145,1,2,0:0:0:0:
64,192,1322,128,0,1498:0:0:0:0:
320,192,1498,1,2,0:0:0:0:
448,192,1675,128,0,1851:0:0:0:0:
192,192,1851,1,2,0:0:0:0:
320,192,2028,128,0,2204:0:0:0:0:
448,192,2204,1,2,0:0:0:0:
64,192,2381,128,0,2557:0:0:0:0:
320,192,2557,1,2,0:0:0:0:
448,192,2734,128,0,2910:0:0:0:0:
192,192,2910,1,2,0:0:0:0:
320,192,3086,128,0,3263:0:0:0:0:
64,192,3263,1,2,0:0:0:0:
192,192,3439,128,0,3616:0:0:0:0:
320,192,3616,1,2,0:0:0:0:
448,192,3792,128,0,3969:0:0:0:0:
320,192,3969,1,2,0:0:0:0:
192,192,4145,128,0,4322:0:0:0:0:
64,192,4322,1,0,0:0:0:100:D7H.wav
448,192,4322,128,2,4675:0:0:0:0:
320,192,4675,1,0,0:0:0:100:C#7H_Db7H.wav
64,192,4675,128,2,5028:0:0:0:0:
192,192,5028,1,0,0:0:0:100:A6H.wav
448,192,5028,128,2,5381:0:0:0:0:
64,192,5381,1,0,0:0:0:100:E6H.wav
320,192,5381,128,2,5734:0:0:0:0:
192,192,5734,1,6,0:0:0:0:
448,192,5734,1,0,0:0:0:100:F#6H_Gb6H.wav
64,192,5910,128,0,6086:0:0:0:0:
192,192,6086,1,2,0:0:0:0:
320,192,6263,128,0,6439:0:0:0:0:
64,192,6439,1,2,0:0:0:0:
192,192,6616,128,0,6792:0:0:0:0:
320,192,6792,1,2,0:0:0:0:
448,192,6969,128,0,7145:0:0:0:0:
192,192,7145,1,2,0:0:0:0:
64,192,7322,128,0,7498:0:0:0:0:
320,192,7498,1,2,0:0:0:0:
448,192,7675,128,0,7851:0:0:0:0:
320,192,7851,1,2,0:0:0:0:
192,192,8028,128,0,8204:0:0:0:0:
320,192,8204,1,2,0:0:0:0:
64,192,8381,128,0,8557:0:0:0:0:
448,192,8557,1,2,0:0:0:0:
320,192,8734,128,0,8910:0:0:0:0:
192,192,8910,1,2,0:0:0:0:
448,192,9086,128,0,9263:0:0:0:0:
64,192,9263,1,2,0:0:0:0:
192,192,9439,128,0,9616:0:0:0:0:
320,192,9616,1,2,0:0:0:0:
448,192,9792,128,0,9969:0:0:0:0:
192,192,9969,1,0,0:0:0:100:D7H.wav
64,192,9969,128,2,10322:0:0:0:0:
320,192,10322,1,0,0:0:0:100:C#7H_Db7H.wav
192,192,10322,128,2,10675:0:0:0:0:
448,192,10675,1,0,0:0:0:100:A6H.wav
320,192,10675,128,2,11028:0:0:0:0:
192,192,11028,1,0,0:0:0:100:E6H.wav
64,192,11028,128,2,11381:0:0:0:0:
448,192,11381,1,6,0:0:0:0:
192,192,11381,1,0,0:0:0:100:F#6H_Gb6H.wav
320,192,11557,128,0,11734:0:0:0:0:
64,192,11734,1,2,0:0:0:0:
192,192,11734,1,8,0:0:0:0:
448,192,11910,128,0,12086:0:0:0:0:
192,192,12086,1,2,0:0:0:0:
64,192,12263,128,0,12439:0:0:0:0:
320,192,12439,1,2,0:0:0:0:
448,192,12439,1,8,0:0:0:0:
192,192,12616,128,0,12792:0:0:0:0:
320,192,12792,1,2,0:0:0:0:
448,192,12969,128,0,13145:0:0:0:0:
64,192,13145,1,2,0:0:0:0:
192,192,13145,1,8,0:0:0:0:
320,192,13322,128,0,13498:0:0:0:0:
192,192,13498,1,2,0:0:0:0:
64,192,13675,128,0,13851:0:0:0:0:
448,192,13851,1,8,0:0:0:0:
192,192,13851,1,2,0:0:0:0:
320,192,14028,128,0,14204:0:0:0:0:
64,192,14204,1,2,0:0:0:0:
192,192,14381,128,0,14557:0:0:0:0:
448,192,14557,1,8,0:0:0:0:
64,192,14557,1,2,0:0:0:0:
320,192,14734,128,0,14910:0:0:0:0:
192,192,14910,1,2,0:0:0:0:
448,192,15086,128,0,15263:0:0:0:0:
64,192,15263,1,2,0:0:0:0:
320,192,15263,1,8,0:0:0:0:
192,192,15439,128,0,15616:0:0:0:0:
448,192,15616,1,2,0:0:0:0:
64,192,15616,128,0,15969:0:0:0:70:D7H.wav
320,192,15969,1,0,0:0:0:100:C#7H_Db7H.wav
192,192,15969,128,10,16322:0:0:0:0:
64,192,16322,1,2,0:0:0:0:
448,192,16322,128,0,16675:0:0:0:70:A6H.wav
192,192,16675,1,0,0:0:0:100:E6H.wav
320,192,16675,128,10,17028:0:0:0:0:
64,192,17028,1,14,0:0:0:0:
448,192,17028,1,0,0:0:0:100:F#6H_Gb6H.wav
192,192,17204,1,0,0:0:0:0:
320,192,17381,1,10,0:0:0:0:
192,192,17557,1,0,0:0:0:0:
64,192,17734,1,10,0:0:0:0:
320,192,17910,1,0,0:0:0:0:
192,192,18086,1,10,0:0:0:0:
320,192,18263,1,0,0:0:0:0:
448,192,18439,1,10,0:0:0:0:
64,192,18439,1,4,0:0:0:0:
192,192,18616,1,0,0:0:0:0:
64,192,18792,1,10,0:0:0:0:
448,192,18969,1,0,0:0:0:0:
320,192,19145,1,10,0:0:0:0:
64,192,19322,1,0,0:0:0:0:
192,192,19498,1,10,0:0:0:0:
320,192,19675,1,0,0:0:0:0:
64,192,19851,1,10,0:0:0:0:
448,192,19851,1,4,0:0:0:0:
64,192,20028,1,8,0:0:0:0:
320,192,20204,1,10,0:0:0:0:
320,192,20381,1,8,0:0:0:0:
448,192,20557,1,4,0:0:0:0:
64,192,20557,1,10,0:0:0:0:
64,192,20734,1,8,0:0:0:0:
320,192,20910,1,10,0:0:0:0:
320,192,21086,1,8,0:0:0:0:
448,192,21263,1,0,0:0:0:70:VEC3 Snares 018.wav
192,192,21263,128,4,21616:0:0:0:0:
320,192,21616,128,0,21969:0:0:0:0:
64,192,21969,128,0,22675:0:0:0:70:Cymatics - Kick 2.wav
192,192,22322,128,0,22675:0:0:0:70:Clap Drum.wav
448,192,22322,1,0,0:0:0:0:
448,192,22675,1,4,0:0:0:0:
320,192,22675,128,2,23028:0:0:0:0:
64,192,23028,1,4,0:0:0:0:
192,192,23028,128,2,23381:0:0:0:0:
320,192,23381,1,0,0:0:0:70:Cymatics - Trap Snare 8 - A#.wav
448,192,23381,1,0,0:0:0:0:
64,192,23557,128,0,23734:0:0:0:0:
448,192,23734,128,0,23910:0:0:0:0:
192,192,23910,128,2,24439:0:0:0:0:
320,192,23910,1,4,0:0:0:0:
64,192,24439,1,4,0:0:0:0:
448,192,24439,1,2,0:0:0:0:
192,192,24792,1,0,0:0:0:70:Cymatics - Trap Snare 8 - A#.wav
320,192,24792,1,0,0:0:0:0:
64,192,24969,128,2,25498:0:0:0:0:
448,192,24969,1,4,0:0:0:0:
448,192,25498,1,4,0:0:0:0:
320,192,25498,128,2,25851:0:0:0:0:
64,192,25851,128,4,26204:0:0:0:0:
192,192,25851,1,2,0:0:0:0:
448,192,26204,1,0,0:0:0:70:Cymatics - Trap Snare 8 - A#.wav
320,192,26204,1,0,0:0:0:0:
192,192,26381,128,0,26734:0:0:0:0:
64,192,26734,1,4,0:0:0:0:
448,192,26734,1,2,0:0:0:0:
320,192,27086,1,0,0:0:0:0:
64,192,27263,1,2,0:0:0:0:
192,192,27263,1,4,0:0:0:0:
64,192,27616,128,0,27792:0:0:0:70:Cymatics - Trap Snare 8 - A#.wav
320,192,27616,1,0,0:0:0:0:
192,192,27792,1,0,0:0:0:0:
448,192,27792,128,2,27969:0:0:0:0:
64,192,27969,128,0,28145:0:0:0:0:
320,192,28145,128,0,28322:0:0:0:0:
448,192,28322,1,2,0:0:0:0:
192,192,28322,128,4,28675:0:0:0:0:
64,192,28675,1,4,0:0:0:0:
448,192,28675,128,2,29028:0:0:0:0:
64,192,29028,1,0,0:0:0:70:Cymatics - Trap Snare 8 - A#.wav
192,192,29028,1,0,0:0:0:0:
448,192,29204,128,0,29381:0:0:0:0:
192,192,29381,128,0,29557:0:0:0:0:
320,192,29557,128,4,30086:0:0:0:0:
448,192,29557,1,2,0:0:0:0:
64,192,30086,1,4,0:0:0:0:
192,192,30086,1,2,0:0:0:0:
192,192,30439,1,0,0:0:0:0:
64,192,30439,1,0,0:0:0:70:Cymatics - Trap Snare 8 - A#.wav
448,192,30616,128,4,30792:0:0:0:0:
320,192,30616,1,2,0:0:0:0:
192,192,30792,128,0,30969:0:0:0:0:
320,192,30969,128,0,31145:0:0:0:0:
64,192,31145,128,4,31498:0:0:0:0:
448,192,31145,1,2,0:0:0:0:
320,192,31498,128,2,31851:0:0:0:0:
192,192,31498,1,4,0:0:0:0:
64,192,31851,1,0,0:0:0:70:Cymatics - Trap Snare 8 - A#.wav
448,192,31851,1,0,0:0:0:0:
192,192,32028,128,0,32204:0:0:0:0:
320,192,32204,128,0,32381:0:0:0:0:
64,192,32381,1,2,0:0:0:0:
448,192,32381,1,4,0:0:0:0:
192,192,32557,128,0,32734:0:0:0:0:
64,192,32734,1,0,0:0:0:0:
448,192,32910,128,0,33086:0:0:0:70:Clap.wav
320,192,32910,1,6,0:0:0:0:
64,192,33086,1,0,0:0:0:70:Clap.wav
448,192,33263,1,4,0:0:0:0:
320,192,33263,1,0,0:0:0:70:TOM_1.wav
64,192,33439,1,2,0:0:0:0:
192,192,33528,1,0,0:0:0:70:TOM_3.wav
320,192,33616,128,4,33969:0:0:0:0:
64,192,33792,1,0,0:0:0:70:TOM_3.wav
448,192,33969,1,4,0:0:0:0:
192,192,33969,128,2,34322:0:0:0:0:
64,192,34322,1,4,0:0:0:0:
448,192,34322,128,2,34675:0:0:0:0:
64,192,34675,1,0,0:0:0:70:Cymatics - Trap Snare 8 - A#.wav
192,192,34675,1,0,0:0:0:0:
320,192,34851,128,0,35028:0:0:0:0:
64,192,35028,128,0,35204:0:0:0:0:
448,192,35204,128,2,35734:0:0:0:0:
320,192,35204,1,4,0:0:0:0:
64,192,35734,1,4,0:0:0:0:
320,192,35734,1,2,0:0:0:0:
64,192,36086,1,0,0:0:0:70:Cymatics - Trap Snare 8 - A#.wav
192,192,36086,1,0,0:0:0:0:
320,192,36263,128,2,36616:0:0:0:0:
448,192,36263,1,4,0:0:0:0:
64,192,36792,128,2,37145:0:0:0:0:
448,192,36792,1,4,0:0:0:0:
320,192,37145,128,2,37498:0:0:0:0:
192,192,37145,1,4,0:0:0:0:
64,192,37498,1,0,0:0:0:70:Cymatics - Trap Snare 8 - A#.wav
192,192,37498,1,0,0:0:0:0:
448,192,37675,128,0,38028:0:0:0:0:
64,192,38028,1,4,0:0:0:0:
192,192,38028,128,2,38557:0:0:0:0:
320,192,38557,1,2,0:0:0:0:
448,192,38557,1,4,0:0:0:0:
64,192,38910,1,0,0:0:0:70:Cymatics - Trap Snare 8 - A#.wav
192,192,38910,1,0,0:0:0:0:
320,192,39086,128,2,39616:0:0:0:0:
64,192,39616,128,4,39969:0:0:0:0:
448,192,39616,1,2,0:0:0:0:
320,192,39969,1,4,0:0:0:0:
192,192,39969,128,2,40322:0:0:0:0:
320,192,40322,1,0,0:0:0:70:Cymatics - Trap Snare 8 - A#.wav
448,192,40322,1,0,0:0:0:0:
64,192,40498,128,0,40675:0:0:0:0:
448,192,40675,128,0,40851:0:0:0:0:
192,192,40851,128,4,41381:0:0:0:0:
320,192,40851,1,2,0:0:0:0:
64,192,41381,1,2,0:0:0:0:
448,192,41381,1,4,0:0:0:0:
64,192,41734,1,0,0:0:0:70:Cymatics - Trap Snare 8 - A#.wav
192,192,41734,1,0,0:0:0:0:
448,192,41910,128,4,42439:0:0:0:0:
320,192,41910,1,2,0:0:0:0:
192,192,42439,1,2,0:0:0:0:
64,192,42439,1,4,0:0:0:0:
192,192,42792,1,2,0:0:0:0:
64,192,42792,1,4,0:0:0:0:
320,192,43145,1,2,0:0:0:0:
448,192,43145,1,4,0:0:0:0:
320,192,43498,1,4,0:0:0:0:
448,192,43498,1,2,0:0:0:0:
64,192,43851,128,4,44028:0:0:0:0:
448,192,43851,1,0,0:0:0:0:
192,192,44028,128,0,44204:0:0:0:70:Clap.wav
320,192,44204,128,4,44381:0:0:0:0:
448,192,44381,128,0,44557:0:0:0:70:Clap.wav
192,192,44557,128,4,44734:0:0:0:0:
64,192,44557,1,0,0:0:0:70:Cymatics - Trap Snare 8 - A#.wav
320,192,44734,128,0,44910:0:0:0:0:
64,192,44910,1,0,0:0:0:70:h03+kick.wav
448,192,44910,1,0,0:0:0:0:
64,192,45263,1,2,0:0:0:0:
192,192,45263,128,4,45616:0:0:0:0:
320,192,45616,1,2,0:0:0:0:
64,192,45792,1,0,0:0:0:0:
448,192,45969,128,2,46234:0:0:0:0:
64,192,46234,128,2,46498:0:0:0:0:
320,192,46498,128,2,46675:0:0:0:0:
192,192,46675,1,2,0:0:0:0:
320,192,47028,1,2,0:0:0:0:
448,192,47204,1,0,0:0:0:0:
64,192,47381,128,2,47645:0:0:0:0:
320,192,47645,128,2,47910:0:0:0:0:
192,192,47910,128,2,48086:0:0:0:0:
448,192,48086,1,2,0:0:0:0:
192,192,48439,1,2,0:0:0:0:
320,192,48616,1,0,0:0:0:0:
448,192,48792,128,2,49057:0:0:0:0:
192,192,49057,128,2,49322:0:0:0:0:
320,192,49322,128,2,49498:0:0:0:0:
64,192,49498,1,2,0:0:0:0:
320,192,49851,1,2,0:0:0:0:
192,192,50028,1,0,0:0:0:0:
64,192,50204,128,2,50469:0:0:0:0:
320,192,50469,128,2,50734:0:0:0:0:
192,192,50734,128,2,50910:0:0:0:0:
64,192,50910,1,2,0:0:0:0:
448,192,50910,1,4,0:0:0:0:
192,192,51263,1,2,0:0:0:0:
64,192,51439,1,0,0:0:0:0:
448,192,51616,128,2,51881:0:0:0:0:
192,192,51881,128,2,52145:0:0:0:0:
320,192,52145,128,2,52322:0:0:0:0:
64,192,52322,1,2,0:0:0:0:
320,192,52675,1,2,0:0:0:0:
448,192,52851,1,0,0:0:0:0:
64,192,53028,128,2,53292:0:0:0:0:
320,192,53292,128,2,53557:0:0:0:0:
192,192,53557,128,2,53734:0:0:0:0:
448,192,53734,1,2,0:0:0:0:
64,192,54086,1,2,0:0:0:0:
192,192,54263,1,0,0:0:0:0:
320,192,54439,128,2,54704:0:0:0:0:
64,192,54704,128,2,54969:0:0:0:0:
448,192,54969,128,0,55145:0:0:0:0:
192,192,55145,1,2,0:0:0:0:
320,192,55498,1,2,0:0:0:0:
448,192,55675,1,0,0:0:0:0:
64,192,55851,128,2,56116:0:0:0:0:
320,192,56116,128,2,56381:0:0:0:0:
192,192,56381,128,2,56557:0:0:0:0:
64,192,56557,1,4,0:0:0:0:
448,192,56557,1,2,0:0:0:0:
320,192,56910,1,2,0:0:0:0:
64,192,57086,1,0,0:0:0:0:
448,192,57263,1,0,0:0:0:70:Cymatics - Trap Snare 8 - A#.wav
192,192,57263,128,0,57528:0:0:0:0:
64,192,57528,128,2,57792:0:0:0:0:
448,192,57792,128,2,57969:0:0:0:0:
320,192,57969,1,2,0:0:0:0:
64,192,58322,1,2,0:0:0:0:
192,192,58498,1,0,0:0:0:0:
448,192,58675,1,0,0:0:0:70:Cymatics - Trap Snare 8 - A#.wav
320,192,58675,128,2,58939:0:0:0:0:
192,192,58939,128,2,59204:0:0:0:0:
448,192,59204,128,2,59381:0:0:0:0:
64,192,59381,1,2,0:0:0:0:
320,192,59734,1,2,0:0:0:0:
448,192,59910,1,0,0:0:0:0:
192,192,60086,1,0,0:0:0:70:Cymatics - Trap Snare 8 - A#.wav
64,192,60086,128,2,60351:0:0:0:0:
320,192,60351,128,2,60616:0:0:0:0:
192,192,60616,128,2,60792:0:0:0:0:
448,192,60792,1,2,0:0:0:0:
192,192,61145,1,2,0:0:0:0:
320,192,61322,1,0,0:0:0:0:
448,192,61498,1,0,0:0:0:70:Cymatics - Trap Snare 8 - A#.wav
64,192,61498,128,2,61763:0:0:0:0:
320,192,61763,128,2,62028:0:0:0:0:
448,192,62028,128,2,62204:0:0:0:0:
64,192,62204,1,2,0:0:0:0:
192,192,62204,1,4,0:0:0:0:
448,192,62557,1,2,0:0:0:0:
64,192,62734,1,0,0:0:0:0:
320,192,62910,1,0,0:0:0:70:Cymatics - Trap Snare 8 - A#.wav
192,192,62910,128,2,63175:0:0:0:0:
64,192,63175,128,2,63439:0:0:0:0:
448,192,63439,128,2,63616:0:0:0:0:
192,192,63616,1,2,0:0:0:0:
64,192,63969,1,2,0:0:0:0:
320,192,64145,1,0,0:0:0:0:
192,192,64322,1,0,0:0:0:70:Cymatics - Trap Snare 8 - A#.wav
64,192,64322,128,2,64586:0:0:0:0:
320,192,64586,128,2,64851:0:0:0:0:
192,192,64851,128,2,65028:0:0:0:0:
448,192,65028,1,2,0:0:0:0:
320,192,65381,1,2,0:0:0:0:
192,192,65557,1,0,0:0:0:0:
448,192,65734,1,0,0:0:0:70:Cymatics - Trap Snare 8 - A#.wav
64,192,65734,128,2,65998:0:0:0:0:
192,192,65998,128,2,66263:0:0:0:0:
320,192,66263,128,2,66439:0:0:0:0:
64,192,66439,128,2,66616:0:0:0:0:
320,192,66616,1,0,0:0:0:0:
448,192,66792,128,2,66969:0:0:0:0:
64,192,66969,1,0,0:0:0:0:
192,192,67145,1,2,0:0:0:0:
448,192,67145,1,0,0:0:0:70:Cymatics - Trap Snare 8 - A#.wav
320,192,67322,128,0,67498:0:0:0:0:
64,192,67498,1,0,0:0:0:70:h03+kick.wav
448,192,67498,1,0,0:0:0:0:
448,192,67851,1,2,0:0:0:0:
192,192,67851,1,4,0:0:0:0:
320,192,68204,1,0,0:0:0:70:Clap.wav
64,192,68557,1,0,0:0:0:70:Clap.wav
192,192,68734,1,0,0:0:0:0:
320,192,68910,1,0,0:0:0:70:Clap.wav
192,192,69086,1,0,0:0:0:0:
448,192,69263,1,0,0:0:0:70:Clap.wav
448,192,69616,1,0,0:0:0:70:Clap.wav
64,192,69969,1,0,0:0:0:70:Clap.wav
320,192,70145,1,0,0:0:0:0:
192,192,70322,1,0,0:0:0:70:Clap.wav
320,192,70498,1,0,0:0:0:0:
448,192,70675,1,0,0:0:0:70:Clap.wav
448,192,71028,1,0,0:0:0:70:Clap.wav
192,192,71381,1,0,0:0:0:70:Clap.wav
320,192,71557,1,0,0:0:0:0:
448,192,71734,1,0,0:0:0:70:Clap.wav
64,192,71910,1,0,0:0:0:0:
320,192,72086,1,0,0:0:0:70:Clap.wav
192,192,72263,1,0,0:0:0:0:
320,192,72439,1,0,0:0:0:70:Clap.wav
448,192,72616,1,0,0:0:0:0:
192,192,72792,1,0,0:0:0:70:Clap.wav
320,192,72969,1,0,0:0:0:0:
64,192,73145,1,0,0:0:0:70:Clap.wav
320,192,73322,1,0,0:0:0:0:
192,192,73498,1,2,0:0:0:0:
448,192,73498,1,4,0:0:0:0:
192,192,73851,1,0,0:0:0:70:Clap.wav
64,192,74204,1,0,0:0:0:70:Clap.wav
192,192,74381,1,0,0:0:0:0:
448,192,74557,1,0,0:0:0:70:Clap.wav
320,192,74734,1,0,0:0:0:0:
192,192,74910,1,0,0:0:0:70:Clap.wav
192,192,75263,1,0,0:0:0:70:Clap.wav
64,192,75616,1,0,0:0:0:70:Clap.wav
320,192,75792,1,0,0:0:0:0:
192,192,75969,1,0,0:0:0:70:Clap.wav
320,192,76145,1,0,0:0:0:0:
448,192,76322,1,0,0:0:0:70:Clap.wav
448,192,76675,1,0,0:0:0:70:Clap.wav
64,192,77028,1,0,0:0:0:70:Clap.wav
448,192,77204,1,0,0:0:0:0:
192,192,77381,1,0,0:0:0:70:Clap.wav
320,192,77557,1,0,0:0:0:0:
192,192,77734,1,0,0:0:0:70:Clap.wav
448,192,77910,1,0,0:0:0:0:
64,192,78086,1,0,0:0:0:70:Clap.wav
320,192,78263,1,0,0:0:0:0:
192,192,78439,1,0,0:0:0:70:Clap.wav
448,192,78616,1,0,0:0:0:0:
64,192,78792,1,0,0:0:0:70:Clap.wav
320,192,78969,1,0,0:0:0:0:
64,192,79145,1,6,0:0:0:0:
448,192,79145,1,8,0:0:0:0:
320,192,79498,1,8,0:0:0:0:
448,192,79498,1,2,0:0:0:0:
64,192,79851,1,8,0:0:0:0:
192,192,79851,1,2,0:0:0:0:
320,192,80116,1,2,0:0:0:0:
192,192,80204,1,8,0:0:0:0:
64,192,80381,1,2,0:0:0:0:
320,192,80557,1,8,0:0:0:0:
448,192,80557,1,2,0:0:0:0:
64,192,80910,1,2,0:0:0:0:
192,192,80910,1,8,0:0:0:0:
320,192,81263,1,2,0:0:0:0:
448,192,81263,1,8,0:0:0:0:
192,192,81528,1,2,0:0:0:0:
320,192,81616,1,8,0:0:0:0:
448,192,81792,1,2,0:0:0:0:
64,192,81969,1,2,0:0:0:0:
192,192,81969,1,8,0:0:0:0:
64,192,82322,1,8,0:0:0:0:
448,192,82322,1,2,0:0:0:0:
192,192,82675,1,8,0:0:0:0:
320,192,82675,1,2,0:0:0:0:
320,192,82939,1,2,0:0:0:0:
192,192,83028,1,8,0:0:0:0:
448,192,83204,1,2,0:0:0:0:
64,192,83381,1,8,0:0:0:0:
320,192,83381,1,2,0:0:0:0:
192,192,83734,1,2,0:0:0:0:
448,192,83734,1,8,0:0:0:0:
320,192,84086,1,2,0:0:0:0:
448,192,84086,1,8,0:0:0:0:
64,192,84351,1,2,0:0:0:0:
320,192,84439,1,8,0:0:0:0:
192,192,84616,1,2,0:0:0:0:
320,192,84792,1,10,0:0:0:0:
448,192,84792,1,4,0:0:0:0:
192,192,84969,1,8,0:0:0:0:
64,192,85145,1,8,0:0:0:0:
448,192,85145,1,2,0:0:0:0:
320,192,85322,1,8,0:0:0:0:
64,192,85498,1,2,0:0:0:0:
192,192,85498,1,8,0:0:0:0:
320,192,85675,128,8,85851:0:0:0:0:
64,192,85851,1,8,0:0:0:0:
448,192,85851,1,0,0:0:0:0:
320,192,86028,1,10,0:0:0:0:
64,192,86204,1,8,0:0:0:0:
192,192,86204,1,2,0:0:0:0:
448,192,86381,1,8,0:0:0:0:
64,192,86557,1,2,0:0:0:0:
320,192,86557,1,8,0:0:0:0:
192,192,86734,1,8,0:0:0:0:
320,192,86910,1,8,0:0:0:0:
448,192,86910,1,2,0:0:0:0:
192,192,87086,128,8,87263:0:0:0:0:
64,192,87263,1,8,0:0:0:0:
448,192,87263,1,0,0:0:0:0:
320,192,87439,1,10,0:0:0:0:
64,192,87616,128,10,87792:0:0:0:0:
320,192,87792,128,8,87969:0:0:0:0:
192,192,87969,128,10,88145:0:0:0:0:
448,192,88145,128,8,88322:0:0:0:0:
320,192,88322,128,10,88498:0:0:0:0:
64,192,88498,128,8,88675:0:0:0:0:
192,192,88675,128,8,88851:0:0:0:0:
448,192,88851,128,10,89028:0:0:0:0:
64,192,89028,128,0,89204:0:0:0:70:VEC3 Snares 018.wav
320,192,89204,128,0,89381:0:0:0:70:VEC3 Snares 018 D.wav
64,192,89381,128,0,89557:0:0:0:70:VEC3 Snares 018 D.wav
320,192,89557,128,0,89734:0:0:0:70:VEC3 Snares 018 D.wav
64,192,89734,128,0,90439:0:0:0:70:Cymatics - Kick 2.wav
192,192,89734,128,0,90439:0:0:0:0:
320,192,90439,1,2,0:0:0:0:
448,192,90439,1,4,0:0:0:0:
192,192,90792,1,2,0:0:0:0:
64,192,90792,1,8,0:0:0:0:
320,192,90969,1,0,0:0:0:0:
64,192,91145,1,2,0:0:0:0:
448,192,91145,1,0,0:0:0:0:
192,192,91322,1,0,0:0:0:0:
320,192,91498,1,8,0:0:0:0:
448,192,91498,1,2,0:0:0:0:
64,192,91675,1,0,0:0:0:0:
320,192,91851,1,0,0:0:0:0:
192,192,91851,1,2,0:0:0:0:
448,192,92028,1,0,0:0:0:0:
64,192,92204,1,8,0:0:0:0:
192,192,92204,1,2,0:0:0:0:
320,192,92381,1,0,0:0:0:0:
64,192,92557,128,2,92734:0:0:0:0:
448,192,92557,1,0,0:0:0:0:
192,192,92734,128,0,92910:0:0:0:0:
320,192,92910,128,8,93086:0:0:0:0:
448,192,92910,1,2,0:0:0:0:
192,192,93086,128,0,93263:0:0:0:0:
64,192,93263,1,2,0:0:0:0:
448,192,93263,1,4,0:0:0:0:
192,192,93616,1,8,0:0:0:0:
320,192,93616,1,2,0:0:0:0:
64,192,93792,1,0,0:0:0:0:
320,192,93969,1,2,0:0:0:0:
448,192,93969,1,0,0:0:0:0:
192,192,94145,128,0,94322:0:0:0:0:
64,192,94322,1,8,0:0:0:0:
448,192,94322,1,2,0:0:0:0:
320,192,94498,1,0,0:0:0:0:
192,192,94675,1,2,0:0:0:0:
64,192,94675,1,0,0:0:0:0:
448,192,94851,1,0,0:0:0:0:
192,192,95028,1,8,0:0:0:0:
320,192,95028,1,2,0:0:0:0:
64,192,95204,1,0,0:0:0:0:
320,192,95381,128,2,95557:0:0:0:0:
192,192,95381,1,0,0:0:0:0:
448,192,95557,128,0,95734:0:0:0:0:
64,192,95734,128,8,95910:0:0:0:0:
192,192,95734,1,2,0:0:0:0:
320,192,95910,128,0,96086:0:0:0:0:
192,192,96086,1,4,0:0:0:0:
448,192,96086,1,2,0:0:0:0:
64,192,96439,1,2,0:0:0:0:
448,192,96439,1,8,0:0:0:0:
192,192,96616,1,0,0:0:0:0:
448,192,96792,1,0,0:0:0:0:
320,192,96792,1,2,0:0:0:0:
192,192,96969,128,0,97145:0:0:0:0:
64,192,97145,128,2,97322:0:0:0:0:
448,192,97145,1,8,0:0:0:0:
320,192,97322,1,0,0:0:0:0:
192,192,97498,1,0,0:0:0:0:
64,192,97498,1,2,0:0:0:0:
448,192,97675,1,0,0:0:0:0:
192,192,97851,1,2,0:0:0:0:
320,192,97851,1,8,0:0:0:0:
448,192,98028,1,0,0:0:0:0:
64,192,98204,1,2,0:0:0:0:
192,192,98204,1,0,0:0:0:0:
448,192,98381,128,0,98557:0:0:0:0:
320,192,98557,128,8,98734:0:0:0:0:
64,192,98557,1,2,0:0:0:0:
192,192,98734,128,0,98910:0:0:0:0:
320,192,98910,1,4,0:0:0:0:
448,192,98910,1,2,0:0:0:0:
320,192,99263,1,2,0:0:0:0:
448,192,99263,1,4,0:0:0:0:
192,192,99616,1,0,0:0:0:70:Cymatics - Trap Snare 8 - A#.wav
448,192,99616,1,0,0:0:0:0:
64,192,99792,128,0,99969:0:0:0:0:
320,192,99969,128,0,100145:0:0:0:0:
64,192,100145,1,4,0:0:0:0:
448,192,100145,1,2,0:0:0:0:
192,192,100322,128,0,100498:0:0:0:0:
320,192,100498,1,0,0:0:0:0:
448,192,100675,128,0,100851:0:0:0:70:Clap.wav
320,192,100851,1,0,0:0:0:70:Clap.wav
64,192,101028,1,0,0:0:0:70:TOM_1.wav
192,192,101028,1,0,0:0:0:70:Cymatics - Trap Snare 8 - A#.wav
448,192,101204,1,0,0:0:0:0:
320,192,101204,128,0,101734:0:0:0:70:TOM_2.wav
192,192,101381,1,0,0:0:0:70:Clap Drum.wav
64,192,101557,1,0,0:0:0:0:
192,192,101734,1,2,0:0:0:0:
448,192,101734,1,4,0:0:0:0:
320,192,102086,1,8,0:0:0:0:
448,192,102086,1,2,0:0:0:0:
64,192,102263,1,0,0:0:0:0:
320,192,102439,1,2,0:0:0:0:
192,192,102439,1,0,0:0:0:0:
448,192,102616,128,0,102792:0:0:0:0:
192,192,102792,1,2,0:0:0:0:
64,192,102792,1,8,0:0:0:0:
320,192,102969,1,0,0:0:0:0:
448,192,103145,1,0,0:0:0:0:
192,192,103145,1,2,0:0:0:0:
64,192,103322,1,0,0:0:0:0:
320,192,103498,1,2,0:0:0:0:
192,192,103498,1,8,0:0:0:0:
448,192,103675,1,0,0:0:0:0:
192,192,103851,1,2,0:0:0:0:
64,192,103851,1,0,0:0:0:0:
320,192,104028,128,0,104204:0:0:0:0:
64,192,104204,1,8,0:0:0:0:
448,192,104204,1,2,0:0:0:0:
448,192,104557,1,4,0:0:0:0:
64,192,104557,1,2,0:0:0:0:
320,192,104734,1,0,0:0:0:0:
192,192,104910,1,8,0:0:0:0:
448,192,104910,1,2,0:0:0:0:
64,192,105086,1,0,0:0:0:0:
448,192,105263,1,0,0:0:0:0:
320,192,105263,1,2,0:0:0:0:
192,192,105439,128,0,105616:0:0:0:0:
320,192,105616,128,2,105792:0:0:0:0:
64,192,105616,1,8,0:0:0:0:
448,192,105792,1,0,0:0:0:0:
64,192,105969,1,2,0:0:0:0:
192,192,105969,1,0,0:0:0:0:
320,192,106145,1,0,0:0:0:0:
64,192,106322,1,8,0:0:0:0:
448,192,106322,1,2,0:0:0:0:
192,192,106498,1,0,0:0:0:0:
320,192,106675,1,2,0:0:0:0:
448,192,106675,1,0,0:0:0:0:
64,192,106851,128,0,107204:0:0:0:0:
448,192,107028,1,10,0:0:0:0:
320,192,107204,128,0,107381:0:0:0:0:
64,192,107381,1,4,0:0:0:0:
192,192,107381,1,2,0:0:0:0:
192,192,107734,1,2,0:0:0:0:
320,192,107734,1,8,0:0:0:0:
448,192,107910,1,0,0:0:0:0:
192,192,108086,128,2,108263:0:0:0:0:
64,192,108086,1,0,0:0:0:0:
448,192,108263,128,0,108439:0:0:0:0:
64,192,108439,1,2,0:0:0:0:
320,192,108439,128,8,108616:0:0:0:0:
192,192,108616,128,0,108792:0:0:0:0:
448,192,108792,1,2,0:0:0:0:
320,192,108792,1,0,0:0:0:0:
192,192,108969,1,0,0:0:0:0:
64,192,109145,1,8,0:0:0:0:
320,192,109145,1,2,0:0:0:0:
448,192,109322,1,0,0:0:0:0:
192,192,109498,1,0,0:0:0:0:
64,192,109498,1,2,0:0:0:0:
320,192,109675,1,0,0:0:0:0:
192,192,109851,1,8,0:0:0:0:
448,192,109851,1,2,0:0:0:0:
320,192,110204,1,4,0:0:0:0:
192,192,110204,1,2,0:0:0:0:
192,192,110557,1,2,0:0:0:0:
320,192,110557,1,4,0:0:0:0:
320,192,110910,1,0,0:0:0:70:Cymatics - Trap Snare 8 - A#.wav
64,192,110910,1,6,0:0:0:0:
64,192,111263,1,2,0:0:0:0:
448,192,111263,1,4,0:0:0:0:
320,192,111616,128,2,111792:0:0:0:0:
192,192,111616,1,4,0:0:0:0:
448,192,111792,128,0,111969:0:0:0:0:
64,192,111969,128,0,112145:0:0:0:0:
192,192,112145,128,0,112322:0:0:0:0:
448,192,112322,1,0,0:0:0:70:Cymatics - Trap Snare 8 - A#.wav
320,192,112322,128,0,112498:0:0:0:0:
192,192,112498,128,0,112675:0:0:0:0:
64,192,112675,1,0,0:0:0:70:h03+kick.wav
448,192,112675,1,0,0:0:0:0:
