osu file format v14

[General]
AudioFilename: audio.ogg
AudioLeadIn: 0
PreviewTime: 90087
Countdown: 0
SampleSet: Soft
StackLeniency: 0.7
Mode: 3
LetterboxInBreaks: 0
SpecialStyle: 0
WidescreenStoryboard: 0

[Editor]
DistanceSpacing: 0.7
BeatDivisor: 4
GridSize: 4
TimelineZoom: 1.5

[Metadata]
Title:ARES
TitleUnicode:ARES
Artist:Nor
ArtistUnicode:Nor
Creator:Revv-
Version:Easy
Source:ブルーアーカイブ -Blue Archive-
Tags:Video game original soundtrack Vol.1 ~Longing for the memorable days~ yostar electronic instrumental ost bgm ainer famoss buruaka buru aka nexon ブルアカ ブル アカ
BeatmapID:3094082
BeatmapSetID:1511008

[Difficulty]
HPDrainRate:7
CircleSize:4
OverallDifficulty:7
ApproachRate:5
SliderMultiplier:1.4
SliderTickRate:1

[Events]
//Background and Video events
0,0,"lomba.jpg",0,0
//Break Periods
//Storyboard Layer 0 (Background)
//Storyboard Layer 1 (Fail)
//Storyboard Layer 2 (Pass)
//Storyboard Layer 3 (Foreground)
//Storyboard Layer 4 (Overlay)
//Storyboard Sound Samples

[TimingPoints]
87,352.941176470588,4,2,1,60,1,0
22675,-100,4,2,1,60,0,1
45263,-100,4,2,1,60,0,0
90439,-100,4,2,1,60,0,1
98910,-100,4,2,1,60,0,0
101734,-100,4,2,1,60,0,1
112675,-100,4,2,1,60,0,0

[HitObjects]
64,192,87,5,2,0:0:0:0:
320,192,87,1,4,0:0:0:0:
448,192,439,1,2,0:0:0:0:
192,192,792,1,2,0:0:0:0:
320,192,1145,1,2,0:0:0:0:
64,192,1498,1,2,0:0:0:0:
192,192,1851,1,2,0:0:0:0:
448,192,2204,1,2,0:0:0:0:
192,192,2557,1,2,0:0:0:0:
64,192,2910,1,2,0:0:0:0:
320,192,3263,1,2,0:0:0:0:
192,192,3616,1,2,0:0:0:0:
448,192,3969,1,2,0:0:0:0:
64,192,4322,128,2,4675:0:0:0:0:
320,192,4675,128,2,5028:0:0:0:0:
192,192,5028,128,2,5381:0:0:0:0:
448,192,5381,128,2,5734:0:0:0:0:
64,192,5734,1,2,0:0:0:0:
192,192,5734,1,4,0:0:0:0:
320,192,6086,1,2,0:0:0:0:
64,192,6439,1,2,0:0:0:0:
448,192,6792,1,2,0:0:0:0:
320,192,7145,1,2,0:0:0:0:
192,192,7498,1,2,0:0:0:0:
448,192,7851,1,2,0:0:0:0:
64,192,8204,1,2,0:0:0:0:
320,192,8557,1,2,0:0:0:0:
192,192,8910,1,2,0:0:0:0:
448,192,9263,1,2,0:0:0:0:
64,192,9616,1,2,0:0:0:0:
192,192,9969,128,2,10322:0:0:0:0:
320,192,10322,128,2,10675:0:0:0:0:
64,192,10675,128,2,11028:0:0:0:0:
448,192,11028,128,2,11381:0:0:0:0:
64,192,11381,1,2,0:0:0:0:
320,192,11381,1,4,0:0:0:0:
192,192,11734,1,2,0:0:0:0:
448,192,11734,1,8,0:0:0:0:
320,192,12086,1,2,0:0:0:0:
64,192,12439,1,2,0:0:0:0:
192,192,12439,1,8,0:0:0:0:
448,192,12792,1,2,0:0:0:0:
64,192,13145,1,2,0:0:0:0:
320,192,13145,1,8,0:0:0:0:
448,192,13498,1,2,0:0:0:0:
64,192,13851,1,2,0:0:0:0:
192,192,13851,1,8,0:0:0:0:
320,192,14204,1,2,0:0:0:0:
64,192,14557,1,2,0:0:0:0:
448,192,14557,1,8,0:0:0:0:
192,192,14910,1,2,0:0:0:0:
448,192,15263,1,2,0:0:0:0:
320,192,15263,1,8,0:0:0:0:
64,192,15616,128,2,15969:0:0:0:0:
192,192,15969,128,2,16322:0:0:0:0:
448,192,15969,1,8,0:0:0:0:
320,192,16322,128,2,16675:0:0:0:0:
64,192,16675,128,2,17028:0:0:0:0:
192,192,16675,1,8,0:0:0:0:
320,192,17028,1,10,0:0:0:0:
448,192,17028,1,4,0:0:0:0:
320,192,17381,1,10,0:0:0:0:
64,192,17734,1,10,0:0:0:0:
64,192,18086,1,10,0:0:0:0:
192,192,18439,1,10,0:0:0:0:
448,192,18439,1,4,0:0:0:0:
448,192,18792,1,10,0:0:0:0:
192,192,19145,1,10,0:0:0:0:
192,192,19498,1,10,0:0:0:0:
64,192,19851,1,14,0:0:0:0:
320,192,20028,1,8,0:0:0:0:
192,192,20204,1,10,0:0:0:0:
448,192,20557,1,14,0:0:0:0:
192,192,20734,1,8,0:0:0:0:
320,192,20910,1,10,0:0:0:0:
64,192,21263,128,4,21969:0:0:0:0:
448,192,21969,128,0,22675:0:0:0:70:Cymatics - Kick 2.wav
192,192,22322,1,0,0:0:0:70:Clap Drum.wav
64,192,22675,1,2,0:0:0:0:
320,192,22675,1,4,0:0:0:0:
192,192,23028,1,4,0:0:0:0:
448,192,23028,1,2,0:0:0:0:
64,192,23381,1,0,0:0:0:70:Cymatics - Trap Snare 8 - A#.wav
448,192,23381,1,0,0:0:0:0:
320,192,23557,128,0,23910:0:0:0:0:
192,192,23910,1,2,0:0:0:0:
64,192,23910,1,4,0:0:0:0:
64,192,24439,1,6,0:0:0:0:
320,192,24792,1,0,0:0:0:70:Cymatics - Trap Snare 8 - A#.wav
448,192,24792,1,0,0:0:0:0:
192,192,24969,128,6,25498:0:0:0:0:
64,192,25498,1,2,0:0:0:0:
448,192,25498,1,4,0:0:0:0:
192,192,25851,1,4,0:0:0:0:
320,192,25851,1,2,0:0:0:0:
64,192,26204,1,0,0:0:0:70:Cymatics - Trap Snare 8 - A#.wav
192,192,26204,1,0,0:0:0:0:
448,192,26381,1,0,0:0:0:0:
320,192,26734,1,2,0:0:0:0:
64,192,26734,128,4,27263:0:0:0:0:
448,192,27263,1,6,0:0:0:0:
64,192,27616,1,0,0:0:0:70:Cymatics - Trap Snare 8 - A#.wav
192,192,27616,1,0,0:0:0:0:
320,192,27792,1,2,0:0:0:0:
192,192,28322,1,4,0:0:0:0:
448,192,28322,1,2,0:0:0:0:
64,192,28675,1,2,0:0:0:0:
320,192,28675,1,4,0:0:0:0:
320,192,29028,1,0,0:0:0:70:Cymatics - Trap Snare 8 - A#.wav
448,192,29028,1,0,0:0:0:0:
192,192,29204,128,0,29557:0:0:0:0:
64,192,29557,1,4,0:0:0:0:
448,192,29557,1,2,0:0:0:0:
64,192,30086,1,6,0:0:0:0:
320,192,30439,1,0,0:0:0:70:Cymatics - Trap Snare 8 - A#.wav
448,192,30439,1,0,0:0:0:0:
192,192,30616,1,6,0:0:0:0:
64,192,31145,1,4,0:0:0:0:
448,192,31145,1,2,0:0:0:0:
192,192,31498,1,2,0:0:0:0:
320,192,31498,1,4,0:0:0:0:
64,192,31851,1,0,0:0:0:70:Cymatics - Trap Snare 8 - A#.wav
192,192,31851,1,0,0:0:0:0:
320,192,32028,1,4,0:0:0:0:
192,192,32381,1,2,0:0:0:0:
448,192,32381,1,4,0:0:0:0:
320,192,32557,128,0,32910:0:0:0:0:
64,192,32910,128,6,33263:0:0:0:0:
320,192,33263,1,4,0:0:0:0:
448,192,33263,1,0,0:0:0:70:TOM_1.wav
192,192,33616,128,4,33969:0:0:0:0:
320,192,33616,1,0,0:0:0:70:TOM_4.wav
64,192,33969,1,2,0:0:0:0:
448,192,33969,1,4,0:0:0:0:
192,192,34322,1,4,0:0:0:0:
320,192,34322,1,2,0:0:0:0:
64,192,34675,1,0,0:0:0:70:Cymatics - Trap Snare 8 - A#.wav
192,192,34675,1,0,0:0:0:0:
320,192,34851,128,0,35204:0:0:0:0:
64,192,35204,1,2,0:0:0:0:
448,192,35204,1,4,0:0:0:0:
64,192,35734,1,4,0:0:0:0:
192,192,35734,1,2,0:0:0:0:
320,192,36086,1,0,0:0:0:70:Cymatics - Trap Snare 8 - A#.wav
448,192,36086,1,0,0:0:0:0:
192,192,36263,1,6,0:0:0:0:
64,192,36792,1,2,0:0:0:0:
320,192,36792,1,4,0:0:0:0:
448,192,37145,1,4,0:0:0:0:
192,192,37145,1,2,0:0:0:0:
320,192,37498,1,0,0:0:0:70:Cymatics - Trap Snare 8 - A#.wav
448,192,37498,1,0,0:0:0:0:
192,192,37675,1,0,0:0:0:0:
320,192,38028,1,2,0:0:0:0:
64,192,38028,128,4,38557:0:0:0:0:
448,192,38557,1,6,0:0:0:0:
64,192,38910,1,0,0:0:0:70:Cymatics - Trap Snare 8 - A#.wav
192,192,38910,1,0,0:0:0:0:
320,192,39086,1,2,0:0:0:0:
64,192,39616,1,4,0:0:0:0:
192,192,39616,1,2,0:0:0:0:
320,192,39969,1,2,0:0:0:0:
448,192,39969,1,4,0:0:0:0:
64,192,40322,1,0,0:0:0:70:Cymatics - Trap Snare 8 - A#.wav
448,192,40322,1,0,0:0:0:0:
320,192,40498,128,0,40851:0:0:0:0:
64,192,40851,1,4,0:0:0:0:
192,192,40851,1,2,0:0:0:0:
64,192,41381,1,2,0:0:0:0:
448,192,41381,1,4,0:0:0:0:
192,192,41734,1,0,0:0:0:70:Cymatics - Trap Snare 8 - A#.wav
320,192,41734,1,0,0:0:0:0:
448,192,41910,1,6,0:0:0:0:
64,192,42439,1,4,0:0:0:0:
192,192,42439,1,2,0:0:0:0:
64,192,42792,1,4,0:0:0:0:
192,192,42792,1,2,0:0:0:0:
320,192,43145,1,2,0:0:0:0:
448,192,43145,1,4,0:0:0:0:
320,192,43498,1,4,0:0:0:0:
448,192,43498,1,2,0:0:0:0:
64,192,43851,128,4,44204:0:0:0:0:
448,192,44204,128,4,44557:0:0:0:0:
192,192,44557,128,4,44910:0:0:0:0:
64,192,44557,1,0,0:0:0:70:Cymatics - Trap Snare 8 - A#.wav
448,192,44910,1,0,0:0:0:70:h03+kick.wav
320,192,44910,1,0,0:0:0:0:
448,192,45263,1,4,0:0:0:0:
64,192,45263,1,2,0:0:0:0:
320,192,45616,1,2,0:0:0:0:
64,192,45969,1,2,0:0:0:0:
448,192,46234,1,2,0:0:0:0:
192,192,46498,1,2,0:0:0:0:
320,192,46675,1,2,0:0:0:0:
448,192,47028,1,2,0:0:0:0:
64,192,47381,1,2,0:0:0:0:
320,192,47645,1,2,0:0:0:0:
448,192,47910,1,2,0:0:0:0:
192,192,48086,1,2,0:0:0:0:
64,192,48439,1,2,0:0:0:0:
320,192,48792,1,2,0:0:0:0:
192,192,49057,1,2,0:0:0:0:
320,192,49322,1,2,0:0:0:0:
448,192,49498,1,2,0:0:0:0:
64,192,49851,1,2,0:0:0:0:
192,192,50204,1,2,0:0:0:0:
448,192,50469,1,2,0:0:0:0:
192,192,50734,1,2,0:0:0:0:
64,192,50910,1,2,0:0:0:0:
448,192,50910,1,4,0:0:0:0:
192,192,51263,1,2,0:0:0:0:
320,192,51616,1,2,0:0:0:0:
448,192,51881,1,2,0:0:0:0:
64,192,52145,1,2,0:0:0:0:
192,192,52322,1,2,0:0:0:0:
448,192,52675,1,2,0:0:0:0:
192,192,53028,1,2,0:0:0:0:
320,192,53292,1,2,0:0:0:0:
192,192,53557,1,2,0:0:0:0:
64,192,53734,1,2,0:0:0:0:
448,192,54086,1,2,0:0:0:0:
192,192,54439,1,2,0:0:0:0:
64,192,54704,1,2,0:0:0:0:
448,192,54969,1,2,0:0:0:0:
320,192,55145,1,2,0:0:0:0:
64,192,55498,1,2,0:0:0:0:
320,192,55851,1,2,0:0:0:0:
192,192,56116,1,2,0:0:0:0:
320,192,56381,1,2,0:0:0:0:
64,192,56557,1,4,0:0:0:0:
448,192,56557,1,2,0:0:0:0:
192,192,56910,1,2,0:0:0:0:
320,192,57263,1,2,0:0:0:0:
448,192,57263,1,0,0:0:0:70:Cymatics - Trap Snare 8 - A#.wav
192,192,57528,1,2,0:0:0:0:
448,192,57792,1,2,0:0:0:0:
64,192,57969,1,2,0:0:0:0:
320,192,58322,1,2,0:0:0:0:
192,192,58675,1,2,0:0:0:0:
448,192,58675,1,0,0:0:0:70:Cymatics - Trap Snare 8 - A#.wav
64,192,58939,1,2,0:0:0:0:
448,192,59204,1,2,0:0:0:0:
192,192,59381,1,2,0:0:0:0:
64,192,59734,1,2,0:0:0:0:
192,192,60086,1,2,0:0:0:0:
448,192,60086,1,0,0:0:0:70:Cymatics - Trap Snare 8 - A#.wav
320,192,60351,1,2,0:0:0:0:
192,192,60616,1,2,0:0:0:0:
448,192,60792,1,2,0:0:0:0:
320,192,61145,1,2,0:0:0:0:
64,192,61498,1,2,0:0:0:0:
192,192,61498,1,0,0:0:0:70:Cymatics - Trap Snare 8 - A#.wav
320,192,61763,1,2,0:0:0:0:
64,192,62028,1,2,0:0:0:0:
192,192,62204,1,2,0:0:0:0:
448,192,62204,1,4,0:0:0:0:
320,192,62557,1,2,0:0:0:0:
64,192,62910,1,2,0:0:0:0:
448,192,62910,1,0,0:0:0:70:Cymatics - Trap Snare 8 - A#.wav
320,192,63175,1,2,0:0:0:0:
64,192,63439,1,2,0:0:0:0:
448,192,63616,1,2,0:0:0:0:
64,192,63969,1,2,0:0:0:0:
192,192,64322,1,2,0:0:0:0:
320,192,64322,1,0,0:0:0:70:Cymatics - Trap Snare 8 - A#.wav
448,192,64586,1,2,0:0:0:0:
192,192,64851,1,2,0:0:0:0:
320,192,65028,1,2,0:0:0:0:
192,192,65381,1,2,0:0:0:0:
64,192,65734,1,2,0:0:0:0:
448,192,65734,1,0,0:0:0:70:Cymatics - Trap Snare 8 - A#.wav
320,192,65998,1,2,0:0:0:0:
192,192,66263,1,2,0:0:0:0:
320,192,66439,128,2,66792:0:0:0:0:
64,192,66792,128,2,67145:0:0:0:0:
448,192,67145,128,2,67498:0:0:0:0:
320,192,67145,1,0,0:0:0:70:Cymatics - Trap Snare 8 - A#.wav
64,192,67498,1,0,0:0:0:70:h03+kick.wav
192,192,67498,1,0,0:0:0:0:
192,192,67851,1,4,0:0:0:0:
448,192,67851,1,2,0:0:0:0:
320,192,68204,1,0,0:0:0:70:Clap.wav
64,192,68557,1,0,0:0:0:70:Clap.wav
192,192,68910,1,0,0:0:0:70:Clap.wav
448,192,69263,1,0,0:0:0:70:Clap.wav
64,192,69616,1,0,0:0:0:70:Clap.wav
320,192,69969,1,0,0:0:0:70:Clap.wav
192,192,70322,1,0,0:0:0:70:Clap.wav
448,192,70675,1,0,0:0:0:70:Clap.wav
64,192,71028,1,0,0:0:0:70:Clap.wav
320,192,71381,1,0,0:0:0:70:Clap.wav
192,192,71734,1,0,0:0:0:70:Clap.wav
448,192,72086,1,0,0:0:0:70:Clap.wav
64,192,72439,1,0,0:0:0:70:Clap.wav
320,192,72792,1,0,0:0:0:70:Clap.wav
64,192,73145,1,0,0:0:0:70:Clap.wav
192,192,73498,1,2,0:0:0:0:
448,192,73498,1,4,0:0:0:0:
320,192,73851,1,0,0:0:0:70:Clap.wav
448,192,74204,1,0,0:0:0:70:Clap.wav
64,192,74557,1,0,0:0:0:70:Clap.wav
320,192,74910,1,0,0:0:0:70:Clap.wav
192,192,75263,1,0,0:0:0:70:Clap.wav
320,192,75616,1,0,0:0:0:70:Clap.wav
64,192,75969,1,0,0:0:0:70:Clap.wav
448,192,76322,1,0,0:0:0:70:Clap.wav
192,192,76675,1,0,0:0:0:70:Clap.wav
320,192,77028,1,0,0:0:0:70:Clap.wav
64,192,77381,1,0,0:0:0:70:Clap.wav
192,192,77734,1,0,0:0:0:70:Clap.wav
448,192,78086,1,0,0:0:0:70:Clap.wav
192,192,78439,1,0,0:0:0:70:Clap.wav
320,192,78792,1,0,0:0:0:70:Clap.wav
64,192,79145,1,6,0:0:0:0:
192,192,79145,1,8,0:0:0:0:
448,192,79498,1,10,0:0:0:0:
192,192,79851,1,10,0:0:0:0:
320,192,80204,1,8,0:0:0:0:
448,192,80381,1,2,0:0:0:0:
192,192,80557,1,10,0:0:0:0:
192,192,80910,1,10,0:0:0:0:
320,192,81263,1,10,0:0:0:0:
64,192,81616,1,8,0:0:0:0:
192,192,81792,1,2,0:0:0:0:
320,192,81969,1,10,0:0:0:0:
320,192,82322,1,10,0:0:0:0:
192,192,82675,1,10,0:0:0:0:
448,192,83028,1,8,0:0:0:0:
64,192,83204,1,2,0:0:0:0:
192,192,83381,1,10,0:0:0:0:
192,192,83734,1,10,0:0:0:0:
448,192,84086,1,10,0:0:0:0:
192,192,84439,1,8,0:0:0:0:
320,192,84616,1,2,0:0:0:0:
64,192,84792,1,10,0:0:0:0:
448,192,84792,1,4,0:0:0:0:
64,192,85145,1,10,0:0:0:0:
320,192,85498,1,10,0:0:0:0:
320,192,85851,1,8,0:0:0:0:
448,192,86028,1,10,0:0:0:0:
192,192,86204,1,10,0:0:0:0:
192,192,86557,1,10,0:0:0:0:
320,192,86910,1,10,0:0:0:0:
320,192,87263,1,8,0:0:0:0:
448,192,87439,1,10,0:0:0:0:
64,192,87616,128,10,87969:0:0:0:0:
320,192,87969,128,10,88322:0:0:0:0:
192,192,88322,128,10,88675:0:0:0:0:
448,192,88675,128,8,89028:0:0:0:0:
64,192,89028,128,4,89381:0:0:0:0:
320,192,89381,128,0,89734:0:0:0:70:VEC3 Snares 018 D.wav
192,192,89734,128,0,90439:0:0:0:70:Cymatics - Kick 2.wav
64,192,90439,1,2,0:0:0:0:
448,192,90439,1,4,0:0:0:0:
192,192,90792,1,8,0:0:0:0:
320,192,90792,1,2,0:0:0:0:
64,192,91145,1,2,0:0:0:0:
192,192,91498,1,8,0:0:0:0:
448,192,91498,1,2,0:0:0:0:
320,192,91851,1,2,0:0:0:0:
64,192,92204,1,8,0:0:0:0:
192,192,92204,1,2,0:0:0:0:
448,192,92557,128,2,92910:0:0:0:0:
192,192,92910,128,8,93263:0:0:0:0:
320,192,92910,1,0,0:0:0:0:
64,192,93263,1,2,0:0:0:0:
448,192,93263,1,4,0:0:0:0:
192,192,93616,1,8,0:0:0:0:
320,192,93616,1,2,0:0:0:0:
448,192,93969,1,2,0:0:0:0:
64,192,94322,1,8,0:0:0:0:
192,192,94322,1,2,0:0:0:0:
320,192,94675,1,2,0:0:0:0:
192,192,95028,1,8,0:0:0:0:
448,192,95028,1,2,0:0:0:0:
320,192,95381,128,2,95734:0:0:0:0:
192,192,95734,1,2,0:0:0:0:
64,192,95734,128,8,96086:0:0:0:0:
320,192,96086,1,4,0:0:0:0:
448,192,96086,1,2,0:0:0:0:
64,192,96439,1,2,0:0:0:0:
192,192,96439,1,8,0:0:0:0:
448,192,96792,1,2,0:0:0:0:
64,192,97145,1,2,0:0:0:0:
320,192,97145,1,8,0:0:0:0:
192,192,97498,1,2,0:0:0:0:
320,192,97851,1,8,0:0:0:0:
448,192,97851,1,2,0:0:0:0:
64,192,98204,1,2,0:0:0:0:
192,192,98557,1,8,0:0:0:0:
448,192,98557,1,2,0:0:0:0:
64,192,98910,1,4,0:0:0:0:
192,192,98910,1,2,0:0:0:0:
320,192,99263,1,2,0:0:0:0:
448,192,99263,1,4,0:0:0:0:
192,192,99616,1,0,0:0:0:70:Cymatics - Trap Snare 8 - A#.wav
448,192,99616,1,0,0:0:0:0:
64,192,99792,1,0,0:0:0:0:
320,192,100145,1,4,0:0:0:0:
448,192,100145,1,2,0:0:0:0:
64,192,100322,128,0,100675:0:0:0:0:
320,192,100675,128,0,101028:0:0:0:70:Clap.wav
64,192,101028,1,0,0:0:0:70:TOM_1.wav
448,192,101028,1,0,0:0:0:70:Cymatics - Trap Snare 8 - A#.wav
192,192,101204,128,0,101734:0:0:0:70:TOM_2.wav
320,192,101734,1,2,0:0:0:0:
448,192,101734,1,4,0:0:0:0:
64,192,102086,1,8,0:0:0:0:
192,192,102086,1,2,0:0:0:0:
320,192,102439,1,2,0:0:0:0:
64,192,102792,1,8,0:0:0:0:
448,192,102792,1,2,0:0:0:0:
192,192,103145,1,2,0:0:0:0:
320,192,103498,1,8,0:0:0:0:
448,192,103498,1,2,0:0:0:0:
192,192,103851,1,2,0:0:0:0:
64,192,104204,1,8,0:0:0:0:
320,192,104204,1,2,0:0:0:0:
192,192,104557,1,2,0:0:0:0:
320,192,104557,1,4,0:0:0:0:
64,192,104910,1,8,0:0:0:0:
448,192,104910,1,2,0:0:0:0:
320,192,105263,1,2,0:0:0:0:
64,192,105616,1,8,0:0:0:0:
192,192,105616,1,2,0:0:0:0:
448,192,105969,1,2,0:0:0:0:
64,192,106322,1,8,0:0:0:0:
320,192,106322,1,2,0:0:0:0:
192,192,106675,1,2,0:0:0:0:
64,192,107028,1,8,0:0:0:0:
448,192,107028,1,2,0:0:0:0:
320,192,107381,1,4,0:0:0:0:
448,192,107381,1,2,0:0:0:0:
64,192,107734,1,2,0:0:0:0:
192,192,107734,1,8,0:0:0:0:
320,192,108086,128,2,108439:0:0:0:0:
448,192,108439,1,8,0:0:0:0:
64,192,108439,128,2,108792:0:0:0:0:
192,192,108792,1,2,0:0:0:0:
320,192,109145,1,8,0:0:0:0:
448,192,109145,1,2,0:0:0:0:
64,192,109498,128,2,110204:0:0:0:0:
448,192,109851,1,10,0:0:0:0:
192,192,110204,1,4,0:0:0:0:
320,192,110204,1,2,0:0:0:0:
192,192,110557,1,2,0:0:0:0:
320,192,110557,1,4,0:0:0:0:
64,192,110910,1,6,0:0:0:0:
448,192,110910,1,0,0:0:0:70:Cymatics - Trap Snare 8 - A#.wav
64,192,111263,1,2,0:0:0:0:
448,192,111263,1,4,0:0:0:0:
320,192,111616,128,6,111969:0:0:0:0:
192,192,111969,128,0,112322:0:0:0:0:
448,192,112322,128,0,112675:0:0:0:70:Cymatics - Trap Snare 8 - A#.wav
64,192,112675,1,0,0:0:0:70:h03+kick.wav
320,192,112675,1,0,0:0:0:0:
