osu file format v14

[General]
AudioFilename: audio.mp3
AudioLeadIn: 0
PreviewTime: 67381
Countdown: 0
SampleSet: Normal
StackLeniency: 0.7
Mode: 1
LetterboxInBreaks: 0
WidescreenStoryboard: 0

[Editor]
DistanceSpacing: 0.8
BeatDivisor: 4
GridSize: 16
TimelineZoom: 1

[Metadata]
Title:Mizutama
TitleUnicode:Mizutama
Artist:Nor + YUC'e
ArtistUnicode:Nor + YUC'e
Creator:Yuemiao
Version:Muzukashii
Source:
Tags:水玉 beignet Mint Comet ゆーしえ c92 Future Bass yuce HiroK eae Japanese Electronic re:new re new memory
BeatmapID:2138414
BeatmapSetID:1009290

[Difficulty]
HPDrainRate:5
CircleSize:5
OverallDifficulty:5
ApproachRate:5
SliderMultiplier:1.4
SliderTickRate:1

[Events]
//Background and Video events
0,0,"BG.jpg",0,50
//Break Periods
//Storyboard Layer 0 (Background)
//Storyboard Layer 1 (Fail)
//Storyboard Layer 2 (Pass)
//Storyboard Layer 3 (Foreground)
//Storyboard Layer 4 (Overlay)
//Storyboard Sound Samples

[TimingPoints]
181,342.857142857143,4,1,0,90,1,0
181,-100,4,1,0,90,0,0
1209,-100,4,1,0,100,0,0
1552,-100,4,1,0,85,0,0
23495,-111.111111111111,4,1,0,50,0,0
33781,-105.263157894737,4,1,0,60,0,0
34466,-100,4,1,0,65,0,0
45095,-100,4,1,0,70,0,0
45438,-100,4,1,0,85,0,0
53666,-100,4,1,0,90,0,0
67381,-90.9090909090909,4,1,0,95,0,1
88981,-90.9090909090909,4,1,0,95,0,1
89323,-100,4,1,0,85,0,0
111266,-111.111111111111,4,1,0,50,0,0
121552,-105.263157894737,4,1,0,60,0,0
122238,-100,4,1,0,65,0,0
132866,-100,4,1,0,70,0,0
133209,-100,4,1,0,75,0,0
141438,-100,4,1,0,90,0,0
155152,-105.263157894737,4,1,0,90,0,1
177095,-105.263157894737,4,1,0,90,0,0
177438,-111.111111111111,4,1,0,85,0,0
196295,-105.263157894737,4,1,0,85,0,0
197666,-100,4,1,0,90,0,0
199038,-90.9090909090909,4,1,0,95,0,1
220638,-90.9090909090909,4,1,0,95,0,1
220981,-100,4,1,0,80,0,0
242923,-100,4,1,0,20,0,0

[HitObjects]
256,192,181,5,8,0:0:0:0:
256,192,523,1,8,0:0:0:0:
256,192,695,1,8,0:0:0:0:
256,192,866,1,0,0:0:0:0:
256,192,952,1,0,0:0:0:0:
256,192,1038,1,0,0:0:0:0:
256,192,1209,1,12,0:0:0:0:
256,192,1552,1,4,0:0:0:0:
256,192,1723,1,8,0:0:0:0:
256,192,1809,1,8,0:0:0:0:
256,192,1895,1,8,0:0:0:0:
256,192,2066,1,0,0:0:0:0:
256,192,2238,1,8,0:0:0:0:
256,192,2581,1,8,0:0:0:0:
256,192,2752,1,8,0:0:0:0:
256,192,2923,1,0,0:0:0:0:
256,192,3095,1,8,0:0:0:0:
256,192,3266,1,0,0:0:0:0:
256,192,3781,1,0,0:0:0:0:
256,192,3952,1,8,0:0:0:0:
256,192,4295,1,0,0:0:0:0:
256,192,4466,1,8,0:0:0:0:
256,192,4552,1,8,0:0:0:0:
256,192,4638,1,8,0:0:0:0:
256,192,4809,1,0,0:0:0:0:
256,192,4981,1,8,0:0:0:0:
256,192,5323,1,8,0:0:0:0:
256,192,5495,1,8,0:0:0:0:
256,192,5666,1,0,0:0:0:0:
256,192,5838,1,8,0:0:0:0:
256,192,6009,1,0,0:0:0:0:
256,192,6352,1,8,0:0:0:0:
256,192,6695,1,0,0:0:0:0:
256,192,7038,1,0,0:0:0:0:
256,192,7209,1,8,0:0:0:0:
256,192,7295,1,8,0:0:0:0:
256,192,7381,1,8,0:0:0:0:
256,192,7552,1,0,0:0:0:0:
256,192,7723,1,8,0:0:0:0:
256,192,8066,1,8,0:0:0:0:
256,192,8238,1,8,0:0:0:0:
256,192,8409,1,0,0:0:0:0:
256,192,8581,1,8,0:0:0:0:
256,192,8752,1,0,0:0:0:0:
256,192,9266,1,0,0:0:0:0:
256,192,9438,1,8,0:0:0:0:
256,192,9781,1,0,0:0:0:0:
256,192,9952,1,8,0:0:0:0:
256,192,10038,1,8,0:0:0:0:
256,192,10123,1,8,0:0:0:0:
256,192,10295,1,0,0:0:0:0:
256,192,10466,1,8,0:0:0:0:
256,192,10809,1,8,0:0:0:0:
256,192,10981,1,8,0:0:0:0:
256,192,11152,1,0,0:0:0:0:
256,192,11323,1,8,0:0:0:0:
256,192,11495,1,0,0:0:0:0:
256,192,11838,1,8,0:0:0:0:
256,192,12181,1,0,0:0:0:0:
256,192,12523,1,4,0:0:0:0:
256,192,12695,1,8,0:0:0:0:
256,192,12781,1,8,0:0:0:0:
256,192,12866,1,8,0:0:0:0:
256,192,13037,1,0,0:0:0:0:
256,192,13209,1,8,0:0:0:0:
256,192,13552,1,8,0:0:0:0:
256,192,13723,1,8,0:0:0:0:
256,192,13894,1,0,0:0:0:0:
256,192,14066,1,8,0:0:0:0:
256,192,14238,1,0,0:0:0:0:
256,192,14752,1,0,0:0:0:0:
256,192,14923,1,8,0:0:0:0:
256,192,15266,1,0,0:0:0:0:
256,192,15438,1,8,0:0:0:0:
256,192,15523,1,8,0:0:0:0:
256,192,15609,1,8,0:0:0:0:
256,192,15780,1,0,0:0:0:0:
256,192,15952,1,8,0:0:0:0:
256,192,16294,1,8,0:0:0:0:
256,192,16466,1,8,0:0:0:0:
256,192,16638,1,0,0:0:0:0:
256,192,16809,1,8,0:0:0:0:
256,192,16981,1,0,0:0:0:0:
256,192,17323,1,8,0:0:0:0:
256,192,17666,1,0,0:0:0:0:
256,192,18009,1,0,0:0:0:0:
256,192,18181,1,8,0:0:0:0:
256,192,18266,1,8,0:0:0:0:
256,192,18352,1,8,0:0:0:0:
256,192,18523,1,0,0:0:0:0:
256,192,18694,1,8,0:0:0:0:
256,192,19037,1,8,0:0:0:0:
256,192,19209,1,8,0:0:0:0:
256,192,19380,1,0,0:0:0:0:
256,192,19552,1,8,0:0:0:0:
256,192,19723,1,0,0:0:0:0:
256,192,20238,1,0,0:0:0:0:
256,192,20409,1,8,0:0:0:0:
256,192,20752,1,8,0:0:0:0:
256,192,20923,1,0,0:0:0:0:
256,192,21095,1,8,0:0:0:0:
256,192,21266,1,0,0:0:0:0:
256,192,21438,1,8,0:0:0:0:
256,192,21781,1,8,0:0:0:0:
256,192,22123,1,8,0:0:0:0:
256,192,22295,1,0,0:0:0:0:
256,192,22466,1,8,0:0:0:0:
256,192,22638,1,8,0:0:0:0:
256,192,22809,1,0,0:0:0:0:
256,192,22981,1,0,0:0:0:0:
256,192,23152,1,12,0:0:0:0:
256,192,23495,1,0,0:0:0:0:
256,192,24181,1,8,0:0:0:0:
256,192,25552,1,8,0:0:0:0:
256,192,26238,1,0,0:0:0:0:
256,192,26923,1,8,0:0:0:0:
256,192,28295,1,8,0:0:0:0:
256,192,28981,1,0,0:0:0:0:
256,192,29666,1,8,0:0:0:0:
256,192,31038,1,8,0:0:0:0:
256,192,31723,1,0,0:0:0:0:
256,192,32409,1,8,0:0:0:0:
256,192,33781,1,8,0:0:0:0:
256,192,34466,1,4,0:0:0:0:
256,192,35152,1,8,0:0:0:0:
256,192,35495,1,0,0:0:0:0:
256,192,36181,1,0,0:0:0:0:
256,192,36523,1,8,0:0:0:0:
256,192,37209,1,0,0:0:0:0:
256,192,37895,1,8,0:0:0:0:
256,192,38238,1,0,0:0:0:0:
256,192,38752,1,0,0:0:0:0:
256,192,39095,1,0,0:0:0:0:
256,192,39266,1,8,0:0:0:0:
256,192,39609,1,8,0:0:0:0:
256,192,39781,1,8,0:0:0:0:
256,192,39952,1,0,0:0:0:0:
256,192,40638,1,8,0:0:0:0:
256,192,40981,1,0,0:0:0:0:
256,192,41666,1,0,0:0:0:0:
256,192,42009,1,8,0:0:0:0:
256,192,42695,1,0,0:0:0:0:
256,192,43381,1,8,0:0:0:0:
256,192,43723,1,0,0:0:0:0:
256,192,44238,1,0,0:0:0:0:
256,192,44581,1,0,0:0:0:0:
256,192,44752,1,8,0:0:0:0:
256,192,45095,1,8,0:0:0:0:
256,192,45266,1,8,0:0:0:0:
256,192,45438,1,4,0:0:0:0:
256,192,45781,1,8,0:0:0:0:
256,192,45952,1,8,0:0:0:0:
256,192,46123,1,0,0:0:0:0:
256,192,46209,1,0,0:0:0:0:
256,192,46295,1,0,0:0:0:0:
256,192,46466,1,8,0:0:0:0:
256,192,46809,1,0,0:0:0:0:
256,192,47152,1,8,0:0:0:0:
256,192,47323,1,0,0:0:0:0:
256,192,47495,1,8,0:0:0:0:
256,192,48181,1,0,0:0:0:0:
256,192,48523,1,8,0:0:0:0:
256,192,48695,1,8,0:0:0:0:
256,192,48866,1,0,0:0:0:0:
256,192,48952,1,0,0:0:0:0:
256,192,49038,1,0,0:0:0:0:
256,192,49209,1,8,0:0:0:0:
256,192,49552,1,0,0:0:0:0:
256,192,49895,1,8,0:0:0:0:
256,192,50066,1,0,0:0:0:0:
256,192,50238,1,8,0:0:0:0:
256,192,50581,1,8,0:0:0:0:
256,192,51266,1,8,0:0:0:0:
256,192,51438,1,8,0:0:0:0:
256,192,51609,1,0,0:0:0:0:
256,192,51695,1,0,0:0:0:0:
256,192,51781,1,0,0:0:0:0:
256,192,51952,1,8,0:0:0:0:
256,192,52295,1,0,0:0:0:0:
256,192,52638,1,8,0:0:0:0:
256,192,52809,1,0,0:0:0:0:
256,192,52981,1,8,0:0:0:0:
256,192,53066,1,8,0:0:0:0:
256,192,53152,1,8,0:0:0:0:
256,192,53323,1,0,0:0:0:0:
256,192,53495,1,8,0:0:0:0:
256,192,53666,1,0,0:0:0:0:
256,192,54009,1,8,0:0:0:0:
256,192,54181,1,0,0:0:0:0:
256,192,54352,1,0,0:0:0:0:
256,192,54438,1,0,0:0:0:0:
256,192,54523,1,0,0:0:0:0:
256,192,54695,1,8,0:0:0:0:
256,192,55038,1,8,0:0:0:0:
256,192,55381,1,8,0:0:0:0:
256,192,55552,1,0,0:0:0:0:
256,192,55895,1,8,0:0:0:0:
256,192,56409,1,0,0:0:0:0:
256,192,56752,1,8,0:0:0:0:
256,192,56923,1,8,0:0:0:0:
256,192,57095,1,0,0:0:0:0:
256,192,57181,1,0,0:0:0:0:
256,192,57266,1,0,0:0:0:0:
256,192,57438,1,8,0:0:0:0:
256,192,57781,1,8,0:0:0:0:
256,192,58123,1,8,0:0:0:0:
256,192,58295,1,0,0:0:0:0:
256,192,58466,1,8,0:0:0:0:
256,192,58809,1,8,0:0:0:0:
256,192,59152,1,0,0:0:0:0:
256,192,59495,1,8,0:0:0:0:
256,192,59666,1,8,0:0:0:0:
256,192,59838,1,0,0:0:0:0:
256,192,59923,1,0,0:0:0:0:
256,192,60009,1,0,0:0:0:0:
256,192,60181,1,8,0:0:0:0:
256,192,60866,1,8,0:0:0:0:
256,192,61038,1,0,0:0:0:0:
256,192,61209,1,8,0:0:0:0:
256,192,61552,1,8,0:0:0:0:
256,192,61895,1,0,0:0:0:0:
256,192,62238,1,8,0:0:0:0:
256,192,62409,1,8,0:0:0:0:
256,192,62581,1,0,0:0:0:0:
256,192,62666,1,0,0:0:0:0:
256,192,62752,1,0,0:0:0:0:
256,192,62923,1,8,0:0:0:0:
256,192,63266,1,8,0:0:0:0:
256,192,63952,1,8,0:0:0:0:
256,192,64295,1,8,0:0:0:0:
256,192,64638,1,8,0:0:0:0:
256,192,64809,1,0,0:0:0:0:
256,192,64981,1,8,0:0:0:0:
256,192,65152,1,0,0:0:0:0:
256,192,65323,1,8,0:0:0:0:
256,192,65666,1,8,0:0:0:0:
256,192,66009,1,8,0:0:0:0:
256,192,66181,1,0,0:0:0:0:
256,192,66352,1,8,0:0:0:0:
256,192,66523,1,8,0:0:0:0:
256,192,66695,1,0,0:0:0:0:
256,192,66866,1,0,0:0:0:0:
256,192,67038,1,12,0:0:0:0:
256,192,67381,1,4,0:0:0:0:
256,192,67552,1,0,0:0:0:0:
256,192,67723,1,8,0:0:0:0:
256,192,67895,1,0,0:0:0:0:
256,192,68066,1,8,0:0:0:0:
256,192,68238,1,8,0:0:0:0:
256,192,68409,1,0,0:0:0:0:
256,192,68752,1,0,0:0:0:0:
256,192,69095,1,8,0:0:0:0:
256,192,69266,1,8,0:0:0:0:
256,192,69438,1,0,0:0:0:0:
256,192,69523,1,0,0:0:0:0:
256,192,69609,1,0,0:0:0:0:
256,192,69781,1,8,0:0:0:0:
256,192,70123,1,0,0:0:0:0:
256,192,70466,1,8,0:0:0:0:
256,192,70638,1,0,0:0:0:0:
256,192,70809,1,8,0:0:0:0:
256,192,71323,1,0,0:0:0:0:
256,192,71495,1,8,0:0:0:0:
256,192,71666,1,0,0:0:0:0:
256,192,71838,1,8,0:0:0:0:
256,192,72009,1,8,0:0:0:0:
256,192,72181,1,0,0:0:0:0:
256,192,72523,1,8,0:0:0:0:
256,192,72866,1,0,0:0:0:0:
256,192,73038,1,0,0:0:0:0:
256,192,73209,1,8,0:0:0:0:
256,192,73381,1,0,0:0:0:0:
256,192,73552,1,8,0:0:0:0:
256,192,73895,1,8,0:0:0:0:
256,192,74066,1,0,0:0:0:0:
256,192,74238,1,8,0:0:0:0:
256,192,74923,1,0,0:0:0:0:
256,192,75095,1,0,0:0:0:0:
256,192,75266,1,8,0:0:0:0:
256,192,75438,1,0,0:0:0:0:
256,192,75609,1,8,0:0:0:0:
256,192,75952,1,8,0:0:0:0:
256,192,76123,1,8,0:0:0:0:
256,192,76295,1,0,0:0:0:0:
256,192,76466,1,0,0:0:0:0:
256,192,76638,1,8,0:0:0:0:
256,192,76981,1,0,0:0:0:0:
256,192,77323,1,8,0:0:0:0:
256,192,77495,1,0,0:0:0:0:
256,192,77666,1,0,0:0:0:0:
256,192,77752,1,0,0:0:0:0:
256,192,77838,1,0,0:0:0:0:
256,192,78009,1,12,0:0:0:0:
256,192,78352,1,4,0:0:0:0:
256,192,78523,1,0,0:0:0:0:
256,192,78694,1,8,0:0:0:0:
256,192,78866,1,0,0:0:0:0:
256,192,79037,1,8,0:0:0:0:
256,192,79209,1,8,0:0:0:0:
256,192,79380,1,0,0:0:0:0:
256,192,79723,1,0,0:0:0:0:
256,192,80066,1,8,0:0:0:0:
256,192,80237,1,0,0:0:0:0:
256,192,80409,1,0,0:0:0:0:
256,192,80495,1,0,0:0:0:0:
256,192,80580,1,0,0:0:0:0:
256,192,80752,1,8,0:0:0:0:
256,192,81094,1,0,0:0:0:0:
256,192,81437,1,8,0:0:0:0:
256,192,81609,1,0,0:0:0:0:
256,192,81780,1,8,0:0:0:0:
256,192,82294,1,0,0:0:0:0:
256,192,82466,1,8,0:0:0:0:
256,192,82637,1,0,0:0:0:0:
256,192,82809,1,8,0:0:0:0:
256,192,82980,1,8,0:0:0:0:
256,192,83152,1,0,0:0:0:0:
256,192,83495,1,8,0:0:0:0:
256,192,83837,1,8,0:0:0:0:
256,192,84009,1,8,0:0:0:0:
256,192,84181,1,0,0:0:0:0:
256,192,84352,1,0,0:0:0:0:
256,192,84523,1,8,0:0:0:0:
256,192,84866,1,8,0:0:0:0:
256,192,85038,1,8,0:0:0:0:
256,192,85209,1,0,0:0:0:0:
256,192,85895,1,0,0:0:0:0:
256,192,86066,1,0,0:0:0:0:
256,192,86238,1,8,0:0:0:0:
256,191,86581,1,12,0:0:0:0:
256,192,86752,1,0,0:0:0:0:
256,192,86923,1,8,0:0:0:0:
256,192,87095,1,0,0:0:0:0:
256,192,87266,1,8,0:0:0:0:
256,191,87609,1,8,0:0:0:0:
256,192,87952,1,8,0:0:0:0:
256,192,88123,1,0,0:0:0:0:
256,192,88295,1,8,0:0:0:0:
256,191,88466,1,8,0:0:0:0:
256,191,88638,1,0,0:0:0:0:
256,192,88809,1,0,0:0:0:0:
256,192,88981,1,12,0:0:0:0:
256,192,89323,1,4,0:0:0:0:
256,192,89495,1,8,0:0:0:0:
256,192,89581,1,8,0:0:0:0:
256,192,89666,1,8,0:0:0:0:
256,192,89838,1,0,0:0:0:0:
256,192,90009,1,8,0:0:0:0:
256,192,90352,1,8,0:0:0:0:
256,192,90523,1,8,0:0:0:0:
256,192,90695,1,0,0:0:0:0:
256,192,90866,1,8,0:0:0:0:
256,192,91038,1,0,0:0:0:0:
256,192,91552,1,0,0:0:0:0:
256,192,91723,1,8,0:0:0:0:
256,192,92066,1,0,0:0:0:0:
256,192,92238,1,8,0:0:0:0:
256,192,92323,1,8,0:0:0:0:
256,192,92409,1,8,0:0:0:0:
256,192,92581,1,0,0:0:0:0:
256,192,92752,1,8,0:0:0:0:
256,192,93095,1,8,0:0:0:0:
256,192,93266,1,8,0:0:0:0:
256,192,93438,1,0,0:0:0:0:
256,192,93609,1,8,0:0:0:0:
256,192,93781,1,0,0:0:0:0:
256,192,94123,1,8,0:0:0:0:
256,192,94466,1,0,0:0:0:0:
256,192,94809,1,0,0:0:0:0:
256,192,94981,1,8,0:0:0:0:
256,192,95066,1,8,0:0:0:0:
256,192,95152,1,8,0:0:0:0:
256,192,95323,1,0,0:0:0:0:
256,192,95495,1,8,0:0:0:0:
256,192,95838,1,8,0:0:0:0:
256,192,96009,1,8,0:0:0:0:
256,192,96181,1,0,0:0:0:0:
256,192,96352,1,8,0:0:0:0:
256,192,96523,1,0,0:0:0:0:
256,192,97038,1,0,0:0:0:0:
256,192,97209,1,8,0:0:0:0:
256,192,97552,1,0,0:0:0:0:
256,192,97723,1,8,0:0:0:0:
256,192,97809,1,8,0:0:0:0:
256,192,97895,1,8,0:0:0:0:
256,192,98066,1,0,0:0:0:0:
256,192,98238,1,8,0:0:0:0:
256,192,98581,1,8,0:0:0:0:
256,192,98752,1,8,0:0:0:0:
256,192,98923,1,0,0:0:0:0:
256,192,99095,1,8,0:0:0:0:
256,192,99266,1,0,0:0:0:0:
256,192,99609,1,8,0:0:0:0:
256,192,99952,1,12,0:0:0:0:
256,192,100295,1,4,0:0:0:0:
256,192,100466,1,8,0:0:0:0:
256,192,100552,1,8,0:0:0:0:
256,192,100638,1,8,0:0:0:0:
256,192,100809,1,0,0:0:0:0:
256,192,100981,1,8,0:0:0:0:
256,192,101323,1,8,0:0:0:0:
256,192,101495,1,8,0:0:0:0:
256,192,101666,1,0,0:0:0:0:
256,192,101838,1,8,0:0:0:0:
256,192,102009,1,0,0:0:0:0:
256,192,102523,1,0,0:0:0:0:
256,192,102695,1,8,0:0:0:0:
256,192,103038,1,0,0:0:0:0:
256,192,103209,1,8,0:0:0:0:
256,192,103295,1,8,0:0:0:0:
256,192,103381,1,8,0:0:0:0:
256,192,103552,1,0,0:0:0:0:
256,192,103723,1,8,0:0:0:0:
256,192,104066,1,8,0:0:0:0:
256,192,104238,1,8,0:0:0:0:
256,192,104409,1,0,0:0:0:0:
256,192,104581,1,8,0:0:0:0:
256,192,104752,1,0,0:0:0:0:
256,192,105095,1,8,0:0:0:0:
256,192,105438,1,0,0:0:0:0:
256,192,105781,1,0,0:0:0:0:
256,192,105952,1,8,0:0:0:0:
256,192,106038,1,8,0:0:0:0:
256,192,106123,1,8,0:0:0:0:
256,192,106295,1,0,0:0:0:0:
256,192,106466,1,8,0:0:0:0:
256,192,106809,1,8,0:0:0:0:
256,192,106981,1,8,0:0:0:0:
256,192,107152,1,0,0:0:0:0:
256,192,107323,1,8,0:0:0:0:
256,192,107495,1,0,0:0:0:0:
256,192,108009,1,0,0:0:0:0:
256,192,108181,1,8,0:0:0:0:
256,192,108523,1,8,0:0:0:0:
256,192,108695,1,0,0:0:0:0:
256,192,108866,1,8,0:0:0:0:
256,192,109037,1,0,0:0:0:0:
256,192,109209,1,8,0:0:0:0:
256,192,109552,1,8,0:0:0:0:
256,192,109894,1,8,0:0:0:0:
256,192,110066,1,0,0:0:0:0:
256,192,110237,1,8,0:0:0:0:
256,192,110409,1,8,0:0:0:0:
256,192,110580,1,0,0:0:0:0:
256,192,110752,1,0,0:0:0:0:
256,192,110923,1,12,0:0:0:0:
256,192,111266,1,0,0:0:0:0:
256,192,114009,1,0,0:0:0:0:
256,192,115381,1,0,0:0:0:0:
256,192,116752,1,8,0:0:0:0:
256,192,118123,1,8,0:0:0:0:
256,192,119495,1,0,0:0:0:0:
256,192,120866,1,0,0:0:0:0:
256,192,121552,1,12,0:0:0:0:
256,192,122238,1,4,0:0:0:0:
256,192,122924,1,8,0:0:0:0:
256,192,123267,1,0,0:0:0:0:
256,192,123953,1,0,0:0:0:0:
256,192,124295,1,8,0:0:0:0:
256,192,124981,1,0,0:0:0:0:
256,192,125667,1,8,0:0:0:0:
256,192,126010,1,0,0:0:0:0:
256,192,126524,1,0,0:0:0:0:
256,192,126867,1,0,0:0:0:0:
256,192,127038,1,8,0:0:0:0:
256,192,127381,1,8,0:0:0:0:
256,192,127553,1,8,0:0:0:0:
256,192,127724,1,0,0:0:0:0:
256,192,128410,1,8,0:0:0:0:
256,192,128753,1,0,0:0:0:0:
256,192,129438,1,0,0:0:0:0:
256,192,129781,1,8,0:0:0:0:
256,192,130467,1,0,0:0:0:0:
256,192,131153,1,8,0:0:0:0:
256,192,131495,1,0,0:0:0:0:
256,192,132010,1,0,0:0:0:0:
256,192,132353,1,0,0:0:0:0:
256,192,132524,1,8,0:0:0:0:
256,192,132867,1,8,0:0:0:0:
256,192,133038,1,8,0:0:0:0:
256,192,133210,1,4,0:0:0:0:
256,192,133552,1,8,0:0:0:0:
256,192,133723,1,8,0:0:0:0:
256,192,133895,1,0,0:0:0:0:
256,192,133981,1,0,0:0:0:0:
256,192,134066,1,0,0:0:0:0:
256,192,134238,1,8,0:0:0:0:
256,192,134581,1,0,0:0:0:0:
256,192,134923,1,8,0:0:0:0:
256,192,135095,1,0,0:0:0:0:
256,192,135266,1,8,0:0:0:0:
256,192,135952,1,0,0:0:0:0:
256,192,136295,1,8,0:0:0:0:
256,192,136466,1,8,0:0:0:0:
256,192,136638,1,0,0:0:0:0:
256,192,136723,1,0,0:0:0:0:
256,192,136809,1,0,0:0:0:0:
256,192,136981,1,8,0:0:0:0:
256,192,137323,1,0,0:0:0:0:
256,192,137666,1,8,0:0:0:0:
256,192,137838,1,0,0:0:0:0:
256,192,138009,1,8,0:0:0:0:
256,192,138352,1,8,0:0:0:0:
256,192,139038,1,8,0:0:0:0:
256,192,139209,1,8,0:0:0:0:
256,192,139381,1,0,0:0:0:0:
256,192,139466,1,0,0:0:0:0:
256,192,139552,1,0,0:0:0:0:
256,192,139723,1,8,0:0:0:0:
256,192,140066,1,0,0:0:0:0:
256,192,140409,1,8,0:0:0:0:
256,192,140581,1,0,0:0:0:0:
256,192,140752,1,8,0:0:0:0:
256,192,140838,1,8,0:0:0:0:
256,192,140923,1,8,0:0:0:0:
256,192,141095,1,0,0:0:0:0:
256,192,141266,1,8,0:0:0:0:
256,192,141438,1,0,0:0:0:0:
256,192,141781,1,8,0:0:0:0:
256,192,141952,1,0,0:0:0:0:
256,192,142123,1,0,0:0:0:0:
256,192,142209,1,0,0:0:0:0:
256,192,142295,1,0,0:0:0:0:
256,192,142466,1,8,0:0:0:0:
256,192,142809,1,8,0:0:0:0:
256,192,143152,1,8,0:0:0:0:
256,192,143323,1,0,0:0:0:0:
256,192,143666,1,8,0:0:0:0:
256,192,144181,1,0,0:0:0:0:
256,192,144523,1,8,0:0:0:0:
256,192,144695,1,8,0:0:0:0:
256,192,144866,1,0,0:0:0:0:
256,192,144952,1,0,0:0:0:0:
256,192,145038,1,0,0:0:0:0:
256,192,145209,1,8,0:0:0:0:
256,192,145552,1,8,0:0:0:0:
256,192,145895,1,8,0:0:0:0:
256,192,146066,1,0,0:0:0:0:
256,192,146238,1,8,0:0:0:0:
256,192,146581,1,8,0:0:0:0:
256,192,146923,1,0,0:0:0:0:
256,192,147266,1,8,0:0:0:0:
256,192,147438,1,8,0:0:0:0:
256,192,147609,1,0,0:0:0:0:
256,192,147695,1,0,0:0:0:0:
256,192,147781,1,0,0:0:0:0:
256,192,147952,1,8,0:0:0:0:
256,192,148638,1,8,0:0:0:0:
256,192,148809,1,0,0:0:0:0:
256,192,148981,1,8,0:0:0:0:
256,192,149323,1,8,0:0:0:0:
256,192,149666,1,0,0:0:0:0:
256,192,150009,1,8,0:0:0:0:
256,192,150181,1,8,0:0:0:0:
256,192,150352,1,0,0:0:0:0:
256,192,150438,1,0,0:0:0:0:
256,192,150523,1,0,0:0:0:0:
256,192,150695,1,8,0:0:0:0:
256,192,151038,1,8,0:0:0:0:
256,192,151723,1,8,0:0:0:0:
256,192,152066,1,8,0:0:0:0:
256,192,152409,1,8,0:0:0:0:
256,192,152581,1,0,0:0:0:0:
256,192,152752,1,8,0:0:0:0:
256,192,152923,1,0,0:0:0:0:
256,192,153095,1,8,0:0:0:0:
256,192,153438,1,8,0:0:0:0:
256,192,153781,1,8,0:0:0:0:
256,192,153952,1,0,0:0:0:0:
256,192,154124,1,8,0:0:0:0:
256,192,154295,1,8,0:0:0:0:
256,192,154467,1,0,0:0:0:0:
256,192,154638,1,0,0:0:0:0:
256,192,154810,1,12,0:0:0:0:
256,192,155152,1,4,0:0:0:0:
256,192,155495,1,0,0:0:0:0:
256,192,155666,1,0,0:0:0:0:
256,192,155838,1,8,0:0:0:0:
256,192,156181,1,8,0:0:0:0:
256,192,156695,1,8,0:0:0:0:
256,192,156866,1,8,0:0:0:0:
256,192,157038,1,0,0:0:0:0:
256,192,157209,1,8,0:0:0:0:
256,192,157552,1,8,0:0:0:0:
256,192,157895,1,0,0:0:0:0:
256,192,158238,1,0,0:0:0:0:
256,192,158409,1,0,0:0:0:0:
256,192,158581,1,8,0:0:0:0:
256,192,158752,1,0,0:0:0:0:
256,192,158923,1,8,0:0:0:0:
256,192,159438,1,0,0:0:0:0:
256,192,159781,1,0,0:0:0:0:
256,192,159952,1,8,0:0:0:0:
256,192,160295,1,8,0:0:0:0:
256,192,160466,1,8,0:0:0:0:
256,192,160638,1,0,0:0:0:0:
256,192,160981,1,0,0:0:0:0:
256,192,161152,1,0,0:0:0:0:
256,192,161323,1,8,0:0:0:0:
256,192,161666,1,8,0:0:0:0:
256,192,162181,1,8,0:0:0:0:
256,192,162352,1,8,0:0:0:0:
256,192,162523,1,0,0:0:0:0:
256,192,162695,1,8,0:0:0:0:
256,192,163038,1,8,0:0:0:0:
256,192,163381,1,0,0:0:0:0:
256,192,163723,1,0,0:0:0:0:
256,192,163895,1,0,0:0:0:0:
256,192,164066,1,8,0:0:0:0:
256,192,164238,1,0,0:0:0:0:
256,192,164409,1,8,0:0:0:0:
256,192,164923,1,0,0:0:0:0:
256,192,165266,1,0,0:0:0:0:
256,192,165438,1,8,0:0:0:0:
256,192,165781,1,8,0:0:0:0:
256,192,165952,1,8,0:0:0:0:
256,192,166123,1,0,0:0:0:0:
256,192,166466,1,0,0:0:0:0:
256,192,166637,1,0,0:0:0:0:
256,192,166809,1,8,0:0:0:0:
256,192,167152,1,8,0:0:0:0:
256,192,167666,1,8,0:0:0:0:
256,192,167838,1,8,0:0:0:0:
256,192,168009,1,0,0:0:0:0:
256,192,168180,1,8,0:0:0:0:
256,192,168523,1,8,0:0:0:0:
256,192,168695,1,0,0:0:0:0:
256,192,168866,1,0,0:0:0:0:
256,192,169209,1,0,0:0:0:0:
256,192,169380,1,0,0:0:0:0:
256,192,169552,1,8,0:0:0:0:
256,192,169723,1,0,0:0:0:0:
256,192,169894,1,8,0:0:0:0:
256,192,170409,1,0,0:0:0:0:
256,192,170752,1,0,0:0:0:0:
256,192,170923,1,8,0:0:0:0:
256,192,171266,1,8,0:0:0:0:
256,192,171437,1,8,0:0:0:0:
256,192,171609,1,0,0:0:0:0:
256,192,171952,1,0,0:0:0:0:
256,192,172123,1,0,0:0:0:0:
256,192,172294,1,8,0:0:0:0:
256,192,172637,1,8,0:0:0:0:
256,192,173152,1,8,0:0:0:0:
256,192,173323,1,8,0:0:0:0:
256,192,173494,1,0,0:0:0:0:
256,192,173666,1,8,0:0:0:0:
256,192,174009,1,8,0:0:0:0:
256,192,174181,1,0,0:0:0:0:
256,192,174352,1,0,0:0:0:0:
256,192,174694,1,0,0:0:0:0:
256,192,174866,1,0,0:0:0:0:
256,192,175037,1,8,0:0:0:0:
256,192,175209,1,0,0:0:0:0:
256,192,175380,1,8,0:0:0:0:
256,192,175894,1,0,0:0:0:0:
256,192,176237,1,0,0:0:0:0:
256,192,176409,1,8,0:0:0:0:
256,192,176752,1,8,0:0:0:0:
256,192,176923,1,8,0:0:0:0:
256,192,177095,1,4,0:0:0:0:
256,192,177609,1,0,0:0:0:0:
256,192,177781,1,8,0:0:0:0:
256,192,178123,1,8,0:0:0:0:
256,192,178638,1,8,0:0:0:0:
256,192,178809,1,8,0:0:0:0:
256,192,178981,1,0,0:0:0:0:
256,192,179152,1,8,0:0:0:0:
256,192,179495,1,8,0:0:0:0:
256,192,179838,1,0,0:0:0:0:
256,192,180181,1,8,0:0:0:0:
256,192,180352,1,0,0:0:0:0:
256,192,180695,1,0,0:0:0:0:
256,192,181209,1,8,0:0:0:0:
256,192,181381,1,0,0:0:0:0:
256,192,181723,1,0,0:0:0:0:
256,192,181895,1,8,0:0:0:0:
256,192,182066,1,0,0:0:0:0:
256,192,182238,1,8,0:0:0:0:
256,192,182409,1,8,0:0:0:0:
256,192,182581,1,0,0:0:0:0:
256,192,183095,1,0,0:0:0:0:
256,192,183266,1,8,0:0:0:0:
256,192,183609,1,8,0:0:0:0:
256,192,184123,1,8,0:0:0:0:
256,192,184295,1,8,0:0:0:0:
256,192,184466,1,0,0:0:0:0:
256,192,184638,1,8,0:0:0:0:
256,192,185152,1,0,0:0:0:0:
256,192,185323,1,0,0:0:0:0:
256,192,185666,1,8,0:0:0:0:
256,192,185838,1,0,0:0:0:0:
256,192,186181,1,0,0:0:0:0:
256,192,186695,1,8,0:0:0:0:
256,192,186866,1,0,0:0:0:0:
256,192,187209,1,0,0:0:0:0:
256,192,187381,1,8,0:0:0:0:
256,192,187552,1,8,0:0:0:0:
256,192,187723,1,0,0:0:0:0:
256,192,187895,1,8,0:0:0:0:
256,192,188066,1,4,0:0:0:0:
256,192,188581,1,0,0:0:0:0:
256,192,188752,1,8,0:0:0:0:
256,192,189095,1,8,0:0:0:0:
256,192,189609,1,8,0:0:0:0:
256,192,189781,1,8,0:0:0:0:
256,192,189952,1,0,0:0:0:0:
256,192,190123,1,8,0:0:0:0:
256,192,190466,1,8,0:0:0:0:
256,192,190809,1,0,0:0:0:0:
256,192,191152,1,8,0:0:0:0:
256,192,191323,1,0,0:0:0:0:
256,192,191666,1,0,0:0:0:0:
256,192,192181,1,8,0:0:0:0:
256,192,192352,1,0,0:0:0:0:
256,192,192695,1,0,0:0:0:0:
256,192,192866,1,8,0:0:0:0:
256,192,193038,1,0,0:0:0:0:
256,192,193209,1,8,0:0:0:0:
256,192,193381,1,8,0:0:0:0:
256,192,193552,1,0,0:0:0:0:
256,192,194066,1,0,0:0:0:0:
256,192,194238,1,8,0:0:0:0:
256,192,194581,1,8,0:0:0:0:
256,192,195095,1,8,0:0:0:0:
256,192,195266,1,8,0:0:0:0:
256,192,195438,1,0,0:0:0:0:
256,192,195609,1,8,0:0:0:0:
256,192,196123,1,0,0:0:0:0:
256,192,196295,1,8,0:0:0:0:
256,192,196638,1,8,0:0:0:0:
256,192,196981,1,8,0:0:0:0:
256,192,197323,1,8,0:0:0:0:
256,192,197666,1,12,0:0:0:0:
256,192,197838,1,0,0:0:0:0:
256,192,198009,1,8,0:0:0:0:
256,192,198181,1,8,0:0:0:0:
256,192,198352,1,0,0:0:0:0:
256,192,198438,1,0,0:0:0:0:
256,192,198523,1,0,0:0:0:0:
256,192,198695,1,12,0:0:0:0:
256,192,199038,1,4,0:0:0:0:
256,192,199209,1,0,0:0:0:0:
256,192,199381,1,8,0:0:0:0:
256,192,199552,1,0,0:0:0:0:
256,192,199723,1,8,0:0:0:0:
256,192,199895,1,8,0:0:0:0:
256,192,200066,1,0,0:0:0:0:
256,192,200409,1,0,0:0:0:0:
256,192,200752,1,8,0:0:0:0:
256,192,200923,1,8,0:0:0:0:
256,192,201095,1,0,0:0:0:0:
256,192,201181,1,0,0:0:0:0:
256,192,201266,1,0,0:0:0:0:
256,192,201438,1,8,0:0:0:0:
256,192,201781,1,0,0:0:0:0:
256,192,202123,1,8,0:0:0:0:
256,192,202295,1,0,0:0:0:0:
256,192,202466,1,8,0:0:0:0:
256,192,202981,1,0,0:0:0:0:
256,192,203152,1,8,0:0:0:0:
256,192,203323,1,0,0:0:0:0:
256,192,203495,1,8,0:0:0:0:
256,192,203666,1,8,0:0:0:0:
256,192,203838,1,0,0:0:0:0:
256,192,204181,1,8,0:0:0:0:
256,192,204523,1,0,0:0:0:0:
256,192,204695,1,0,0:0:0:0:
256,192,204866,1,8,0:0:0:0:
256,192,205038,1,0,0:0:0:0:
256,192,205209,1,8,0:0:0:0:
256,192,205552,1,8,0:0:0:0:
256,192,205723,1,0,0:0:0:0:
256,192,205895,1,8,0:0:0:0:
256,192,206581,1,0,0:0:0:0:
256,192,206752,1,0,0:0:0:0:
256,192,206923,1,8,0:0:0:0:
256,192,207095,1,0,0:0:0:0:
256,192,207266,1,8,0:0:0:0:
256,192,207609,1,8,0:0:0:0:
256,192,207781,1,8,0:0:0:0:
256,192,207952,1,0,0:0:0:0:
256,192,208123,1,0,0:0:0:0:
256,192,208295,1,8,0:0:0:0:
256,192,208638,1,0,0:0:0:0:
256,192,208981,1,8,0:0:0:0:
256,192,209152,1,0,0:0:0:0:
256,192,209323,1,0,0:0:0:0:
256,192,209409,1,0,0:0:0:0:
256,192,209495,1,0,0:0:0:0:
256,192,209666,1,12,0:0:0:0:
256,192,210009,1,4,0:0:0:0:
256,192,210181,1,0,0:0:0:0:
256,192,210352,1,8,0:0:0:0:
256,192,210523,1,0,0:0:0:0:
256,192,210695,1,8,0:0:0:0:
256,192,210866,1,8,0:0:0:0:
256,192,211038,1,0,0:0:0:0:
256,192,211381,1,0,0:0:0:0:
256,192,211723,1,8,0:0:0:0:
256,192,211895,1,0,0:0:0:0:
256,192,212066,1,0,0:0:0:0:
256,192,212152,1,0,0:0:0:0:
256,192,212238,1,0,0:0:0:0:
256,192,212409,1,8,0:0:0:0:
256,192,212752,1,0,0:0:0:0:
256,192,213095,1,8,0:0:0:0:
256,192,213266,1,0,0:0:0:0:
256,192,213438,1,8,0:0:0:0:
256,192,213952,1,0,0:0:0:0:
256,192,214123,1,8,0:0:0:0:
256,192,214295,1,0,0:0:0:0:
256,192,214466,1,8,0:0:0:0:
256,192,214638,1,8,0:0:0:0:
256,192,214809,1,0,0:0:0:0:
256,192,215152,1,8,0:0:0:0:
256,192,215495,1,8,0:0:0:0:
256,192,215666,1,8,0:0:0:0:
256,192,215838,1,0,0:0:0:0:
256,192,216009,1,0,0:0:0:0:
256,192,216181,1,8,0:0:0:0:
256,192,216523,1,8,0:0:0:0:
256,192,216695,1,8,0:0:0:0:
256,192,216866,1,0,0:0:0:0:
256,192,217552,1,0,0:0:0:0:
256,192,217723,1,0,0:0:0:0:
256,192,217895,1,8,0:0:0:0:
256,191,218238,1,8,0:0:0:0:
256,192,218409,1,0,0:0:0:0:
256,192,218581,1,8,0:0:0:0:
256,192,218752,1,0,0:0:0:0:
256,192,218923,1,8,0:0:0:0:
256,191,219266,1,8,0:0:0:0:
256,192,219609,1,8,0:0:0:0:
256,192,219781,1,0,0:0:0:0:
256,192,219952,1,8,0:0:0:0:
256,191,220123,1,8,0:0:0:0:
256,191,220295,1,0,0:0:0:0:
256,192,220466,1,0,0:0:0:0:
256,192,220638,1,12,0:0:0:0:
256,192,220981,1,4,0:0:0:0:
256,191,221152,1,8,0:0:0:0:
256,191,221238,1,8,0:0:0:0:
256,191,221323,1,8,0:0:0:0:
256,192,221495,1,0,0:0:0:0:
256,192,221666,1,8,0:0:0:0:
256,192,222009,1,8,0:0:0:0:
256,192,222181,1,8,0:0:0:0:
256,192,222352,1,0,0:0:0:0:
256,192,222523,1,8,0:0:0:0:
256,192,222695,1,0,0:0:0:0:
256,192,223209,1,0,0:0:0:0:
256,192,223381,1,8,0:0:0:0:
256,192,223723,1,0,0:0:0:0:
256,192,223895,1,8,0:0:0:0:
256,192,223981,1,8,0:0:0:0:
256,192,224066,1,8,0:0:0:0:
256,192,224238,1,0,0:0:0:0:
256,192,224409,1,8,0:0:0:0:
256,192,224752,1,8,0:0:0:0:
256,192,224923,1,8,0:0:0:0:
256,192,225095,1,0,0:0:0:0:
256,192,225266,1,8,0:0:0:0:
256,192,225438,1,0,0:0:0:0:
256,192,225781,1,8,0:0:0:0:
256,192,226123,1,0,0:0:0:0:
256,192,226466,1,0,0:0:0:0:
256,192,226638,1,8,0:0:0:0:
256,192,226723,1,8,0:0:0:0:
256,192,226809,1,8,0:0:0:0:
256,192,226981,1,0,0:0:0:0:
256,192,227152,1,8,0:0:0:0:
256,192,227495,1,8,0:0:0:0:
256,192,227666,1,8,0:0:0:0:
256,192,227838,1,0,0:0:0:0:
256,192,228009,1,8,0:0:0:0:
256,192,228181,1,0,0:0:0:0:
256,192,228695,1,0,0:0:0:0:
256,192,228866,1,8,0:0:0:0:
256,192,229209,1,0,0:0:0:0:
256,192,229381,1,8,0:0:0:0:
256,192,229466,1,8,0:0:0:0:
256,192,229552,1,8,0:0:0:0:
256,192,229723,1,0,0:0:0:0:
256,192,229895,1,8,0:0:0:0:
256,192,230238,1,8,0:0:0:0:
256,192,230409,1,8,0:0:0:0:
256,192,230581,1,0,0:0:0:0:
256,192,230752,1,8,0:0:0:0:
256,192,230923,1,0,0:0:0:0:
256,192,231266,1,8,0:0:0:0:
256,192,231609,1,12,0:0:0:0:
256,192,231952,1,4,0:0:0:0:
256,192,232123,1,8,0:0:0:0:
256,192,232209,1,8,0:0:0:0:
256,192,232295,1,8,0:0:0:0:
256,192,232466,1,0,0:0:0:0:
256,192,232638,1,8,0:0:0:0:
256,192,232981,1,8,0:0:0:0:
256,192,233152,1,8,0:0:0:0:
256,192,233323,1,0,0:0:0:0:
256,192,233495,1,8,0:0:0:0:
256,192,233666,1,0,0:0:0:0:
256,192,234181,1,0,0:0:0:0:
256,192,234352,1,8,0:0:0:0:
256,192,234695,1,0,0:0:0:0:
256,192,234866,1,8,0:0:0:0:
256,192,234952,1,8,0:0:0:0:
256,192,235038,1,8,0:0:0:0:
256,192,235209,1,0,0:0:0:0:
256,192,235381,1,8,0:0:0:0:
256,192,235723,1,8,0:0:0:0:
256,192,235895,1,8,0:0:0:0:
256,192,236066,1,0,0:0:0:0:
256,192,236238,1,8,0:0:0:0:
256,192,236409,1,0,0:0:0:0:
256,192,236752,1,8,0:0:0:0:
256,192,237095,1,0,0:0:0:0:
256,192,237438,1,0,0:0:0:0:
256,192,237609,1,8,0:0:0:0:
256,192,237695,1,8,0:0:0:0:
256,192,237781,1,8,0:0:0:0:
256,192,237952,1,0,0:0:0:0:
256,192,238123,1,8,0:0:0:0:
256,192,238466,1,8,0:0:0:0:
256,192,238638,1,8,0:0:0:0:
256,192,238809,1,0,0:0:0:0:
256,192,238981,1,8,0:0:0:0:
256,192,239152,1,0,0:0:0:0:
256,192,239666,1,0,0:0:0:0:
256,192,239838,1,8,0:0:0:0:
256,192,240181,1,8,0:0:0:0:
256,192,240352,1,0,0:0:0:0:
256,192,240524,1,8,0:0:0:0:
256,192,240695,1,0,0:0:0:0:
256,192,240867,1,8,0:0:0:0:
256,192,241210,1,8,0:0:0:0:
256,192,241552,1,8,0:0:0:0:
256,192,241723,1,0,0:0:0:0:
256,192,241895,1,8,0:0:0:0:
256,192,242067,1,8,0:0:0:0:
256,192,242238,1,0,0:0:0:0:
256,192,242410,1,0,0:0:0:0:
256,192,242581,1,12,0:0:0:0:
256,192,242923,12,0,248238,0:0:0:0:
