osu file format v14

[General]
AudioFilename: audio.mp3
AudioLeadIn: 0
PreviewTime: 67381
Countdown: 0
SampleSet: Normal
StackLeniency: 0.7
Mode: 1
LetterboxInBreaks: 0
WidescreenStoryboard: 0

[Editor]
Bookmarks: 23495,111266
DistanceSpacing: 0.8
BeatDivisor: 4
GridSize: 16
TimelineZoom: 2

[Metadata]
Title:Mizutama
TitleUnicode:Mizutama
Artist:Nor + YUC'e
ArtistUnicode:Nor + YUC'e
Creator:Yuemiao
Version:HiroK's Oni
Source:
Tags:水玉 beignet Mint Comet ゆーしえ c92 Future Bass yuce HiroK eae Japanese Electronic re:new re new memory
BeatmapID:2124799
BeatmapSetID:1009290

[Difficulty]
HPDrainRate:5.5
CircleSize:2
OverallDifficulty:5.5
ApproachRate:5
SliderMultiplier:1.4
SliderTickRate:1

[Events]
//Background and Video events
0,0,"BG.jpg",0,50
//Break Periods
//Storyboard Layer 0 (Background)
//Storyboard Layer 1 (Fail)
//Storyboard Layer 2 (Pass)
//Storyboard Layer 3 (Foreground)
//Storyboard Layer 4 (Overlay)
//Storyboard Sound Samples

[TimingPoints]
181,342.857142857143,4,1,0,85,1,0
181,-111.111111111111,4,1,0,85,0,0
1552,-100,4,1,0,85,0,0
23409,-117.647058823529,4,1,0,50,0,0
34381,-111.111111111111,4,1,0,65,0,0
44752,-108.695652173913,4,1,0,65,0,0
44923,-106.382978723404,4,1,0,65,0,0
45095,-104.166666666667,4,1,0,70,0,0
45266,-102.040816326531,4,1,0,70,0,0
45352,-100,4,1,0,85,0,0
67381,-90.9090909090909,4,1,0,85,0,1
88981,-90.9090909090909,4,1,0,85,0,1
89323,-100,4,1,0,85,0,0
111181,-125,4,1,0,50,0,0
122152,-111.111111111111,4,1,0,65,0,0
132523,-108.695652173913,4,1,0,65,0,0
132695,-106.382978723404,4,1,0,65,0,0
132866,-104.166666666667,4,1,0,70,0,0
133038,-102.040816326531,4,1,0,70,0,0
133123,-100,4,1,0,85,0,0
155152,-111.111111111111,4,1,0,85,0,1
177095,-105.263157894737,4,1,0,85,0,0
199038,-90.9090909090909,4,1,0,85,0,1
220638,-90.9090909090909,4,1,0,85,0,1
220981,-100,4,1,0,85,0,0
242838,-100,4,1,0,25,0,0

[HitObjects]
249,321,181,5,8,0:0:0:0:
254,265,352,1,0,0:0:0:0:
256,209,523,1,8,0:0:0:0:
249,321,695,1,8,0:0:0:0:
249,321,866,1,0,0:0:0:0:
249,321,952,1,8,0:0:0:0:
249,321,1038,1,0,0:0:0:0:
254,265,1209,1,12,0:0:0:0:
254,265,1552,1,4,0:0:0:0:
254,265,1723,1,8,0:0:0:0:
246,237,1809,1,8,0:0:0:0:
254,265,1895,1,0,0:0:0:0:
254,265,2066,1,8,0:0:0:0:
254,265,2238,1,0,0:0:0:0:
256,158,2409,1,0,0:0:0:0:
238,211,2581,1,8,0:0:0:0:
238,211,2752,1,8,0:0:0:0:
256,158,2923,1,0,0:0:0:0:
256,158,3095,1,8,0:0:0:0:
256,158,3181,1,8,0:0:0:0:
256,158,3266,1,0,0:0:0:0:
256,158,3438,1,0,0:0:0:0:
256,158,3523,1,0,0:0:0:0:
256,158,3609,1,8,0:0:0:0:
256,158,3781,1,0,0:0:0:0:
256,158,3952,1,8,0:0:0:0:
256,158,4295,1,0,0:0:0:0:
256,158,4466,1,8,0:0:0:0:
256,158,4552,1,8,0:0:0:0:
256,158,4638,1,0,0:0:0:0:
256,158,4809,1,0,0:0:0:0:
256,158,4981,1,8,0:0:0:0:
256,158,5152,1,0,0:0:0:0:
256,158,5323,1,8,0:0:0:0:
256,158,5495,1,8,0:0:0:0:
256,158,5666,1,0,0:0:0:0:
256,158,5838,1,8,0:0:0:0:
256,158,5923,1,8,0:0:0:0:
256,158,6009,1,0,0:0:0:0:
256,158,6181,1,0,0:0:0:0:
256,158,6352,1,8,0:0:0:0:
256,158,6523,1,0,0:0:0:0:
256,158,6609,1,0,0:0:0:0:
256,158,6695,1,8,0:0:0:0:
256,158,7038,1,0,0:0:0:0:
256,158,7209,1,8,0:0:0:0:
256,158,7295,1,8,0:0:0:0:
256,158,7381,1,0,0:0:0:0:
256,158,7552,1,8,0:0:0:0:
256,158,7723,1,8,0:0:0:0:
256,158,7895,1,0,0:0:0:0:
256,158,8066,1,8,0:0:0:0:
256,158,8238,1,0,0:0:0:0:
256,158,8409,1,0,0:0:0:0:
256,158,8581,1,8,0:0:0:0:
256,158,8666,1,8,0:0:0:0:
256,158,8752,1,0,0:0:0:0:
256,158,8923,1,0,0:0:0:0:
256,158,9009,1,0,0:0:0:0:
256,158,9095,1,8,0:0:0:0:
256,158,9266,1,0,0:0:0:0:
256,158,9438,1,8,0:0:0:0:
256,158,9781,1,0,0:0:0:0:
256,158,9952,1,8,0:0:0:0:
256,158,10038,1,8,0:0:0:0:
256,158,10123,1,0,0:0:0:0:
256,158,10295,1,0,0:0:0:0:
256,158,10466,1,8,0:0:0:0:
256,158,10638,1,0,0:0:0:0:
256,158,10809,1,8,0:0:0:0:
256,158,10981,1,8,0:0:0:0:
256,158,11152,1,0,0:0:0:0:
256,158,11323,1,8,0:0:0:0:
256,158,11409,1,8,0:0:0:0:
256,158,11495,1,0,0:0:0:0:
256,158,11666,1,0,0:0:0:0:
280,144,11752,1,0,0:0:0:0:
256,158,11838,1,8,0:0:0:0:
280,145,11923,1,8,0:0:0:0:
256,158,12009,1,0,0:0:0:0:
256,158,12181,1,8,0:0:0:0:
254,265,12523,1,4,0:0:0:0:
254,265,12694,1,8,0:0:0:0:
246,237,12780,1,8,0:0:0:0:
254,265,12866,1,0,0:0:0:0:
254,265,13037,1,8,0:0:0:0:
254,265,13209,1,0,0:0:0:0:
256,158,13380,1,0,0:0:0:0:
238,211,13552,1,8,0:0:0:0:
238,211,13723,1,8,0:0:0:0:
256,158,13894,1,0,0:0:0:0:
256,158,14066,1,8,0:0:0:0:
256,158,14152,1,8,0:0:0:0:
256,158,14237,1,0,0:0:0:0:
256,158,14409,1,0,0:0:0:0:
256,158,14494,1,0,0:0:0:0:
256,158,14580,1,8,0:0:0:0:
256,158,14752,1,0,0:0:0:0:
256,158,14923,1,8,0:0:0:0:
256,158,15266,1,0,0:0:0:0:
256,158,15437,1,8,0:0:0:0:
256,158,15523,1,8,0:0:0:0:
256,158,15609,1,0,0:0:0:0:
256,158,15780,1,0,0:0:0:0:
256,158,15952,1,8,0:0:0:0:
256,158,16123,1,0,0:0:0:0:
256,158,16294,1,8,0:0:0:0:
256,158,16466,1,8,0:0:0:0:
256,158,16637,1,0,0:0:0:0:
256,158,16809,1,8,0:0:0:0:
256,158,16894,1,8,0:0:0:0:
256,158,16980,1,0,0:0:0:0:
256,158,17152,1,0,0:0:0:0:
256,158,17323,1,8,0:0:0:0:
256,158,17494,1,0,0:0:0:0:
256,158,17580,1,0,0:0:0:0:
256,158,17666,1,8,0:0:0:0:
256,158,18009,1,0,0:0:0:0:
256,158,18180,1,8,0:0:0:0:
256,158,18266,1,8,0:0:0:0:
256,158,18352,1,0,0:0:0:0:
256,158,18523,1,8,0:0:0:0:
256,158,18694,1,8,0:0:0:0:
256,158,18866,1,0,0:0:0:0:
256,158,19037,1,8,0:0:0:0:
256,158,19209,1,0,0:0:0:0:
256,158,19380,1,0,0:0:0:0:
256,158,19552,1,8,0:0:0:0:
256,158,19637,1,8,0:0:0:0:
256,158,19723,1,0,0:0:0:0:
256,158,19894,1,0,0:0:0:0:
256,158,19981,1,0,0:0:0:0:
256,158,20066,1,8,0:0:0:0:
256,158,20237,1,0,0:0:0:0:
256,158,20409,1,8,0:0:0:0:
256,158,20752,1,8,0:0:0:0:
256,158,20923,1,0,0:0:0:0:
256,158,21095,1,8,0:0:0:0:
256,158,21266,1,0,0:0:0:0:
256,158,21352,1,0,0:0:0:0:
256,158,21438,1,8,0:0:0:0:
256,158,21609,1,0,0:0:0:0:
256,158,21781,1,8,0:0:0:0:
256,158,21952,1,0,0:0:0:0:
256,158,22123,1,8,0:0:0:0:
256,158,22295,1,8,0:0:0:0:
256,158,22466,1,8,0:0:0:0:
256,158,22638,1,8,0:0:0:0:
256,158,22809,1,0,0:0:0:0:
231,143,22981,1,0,0:0:0:0:
231,143,23152,1,12,0:0:0:0:
256,158,23495,5,0,0:0:0:0:
256,158,24181,1,8,0:0:0:0:
256,158,25552,1,8,0:0:0:0:
256,158,26238,1,0,0:0:0:0:
256,158,26923,1,8,0:0:0:0:
256,158,28295,1,8,0:0:0:0:
256,158,28981,1,0,0:0:0:0:
256,158,29666,1,8,0:0:0:0:
256,158,31038,1,8,0:0:0:0:
256,158,31723,1,0,0:0:0:0:
256,158,32409,1,8,0:0:0:0:
256,158,33781,1,8,0:0:0:0:
256,158,34466,1,4,0:0:0:0:
256,158,35152,1,8,0:0:0:0:
256,158,35495,1,0,0:0:0:0:
256,158,36181,1,0,0:0:0:0:
256,158,36523,1,8,0:0:0:0:
256,158,37209,1,0,0:0:0:0:
256,158,37895,1,8,0:0:0:0:
256,158,38238,1,0,0:0:0:0:
256,158,38752,1,0,0:0:0:0:
256,158,39095,1,0,0:0:0:0:
256,158,39266,1,8,0:0:0:0:
256,158,39438,1,0,0:0:0:0:
256,158,39609,1,8,0:0:0:0:
256,158,39781,1,8,0:0:0:0:
256,158,39952,1,0,0:0:0:0:
256,158,40638,1,8,0:0:0:0:
256,158,40981,1,0,0:0:0:0:
256,158,41666,1,0,0:0:0:0:
256,158,42009,1,8,0:0:0:0:
256,158,42695,1,0,0:0:0:0:
256,158,43381,1,8,0:0:0:0:
256,158,43723,1,0,0:0:0:0:
256,158,44238,1,0,0:0:0:0:
256,158,44581,1,0,0:0:0:0:
256,158,44752,1,8,0:0:0:0:
256,158,44923,1,0,0:0:0:0:
256,158,45095,1,8,0:0:0:0:
256,158,45266,1,8,0:0:0:0:
256,158,45438,1,4,0:0:0:0:
256,158,45781,1,8,0:0:0:0:
256,158,45952,1,0,0:0:0:0:
256,158,46038,1,0,0:0:0:0:
256,158,46123,1,0,0:0:0:0:
256,158,46295,1,0,0:0:0:0:
256,158,46466,1,8,0:0:0:0:
256,158,46638,1,0,0:0:0:0:
256,158,46723,1,8,0:0:0:0:
256,158,46809,1,0,0:0:0:0:
256,158,46981,1,0,0:0:0:0:
256,158,47152,1,8,0:0:0:0:
311,156,47323,1,0,0:0:0:0:
256,158,47495,1,8,0:0:0:0:
256,158,47581,1,8,0:0:0:0:
256,158,47666,1,0,0:0:0:0:
256,158,47838,1,8,0:0:0:0:
256,158,48009,1,0,0:0:0:0:
256,158,48181,1,0,0:0:0:0:
256,158,48523,1,8,0:0:0:0:
256,158,48695,1,0,0:0:0:0:
256,158,48781,1,8,0:0:0:0:
256,158,48866,1,8,0:0:0:0:
256,158,49038,1,0,0:0:0:0:
256,158,49209,1,8,0:0:0:0:
256,158,49295,1,8,0:0:0:0:
256,158,49381,1,8,0:0:0:0:
256,158,49552,1,0,0:0:0:0:
256,158,49723,1,0,0:0:0:0:
256,158,49895,1,8,0:0:0:0:
256,158,50066,1,0,0:0:0:0:
256,158,50238,1,8,0:0:0:0:
256,158,50323,1,0,0:0:0:0:
256,158,50409,1,0,0:0:0:0:
256,158,50581,1,8,0:0:0:0:
309,143,50752,1,0,0:0:0:0:
309,143,50923,1,0,0:0:0:0:
256,158,51266,1,8,0:0:0:0:
256,158,51438,1,0,0:0:0:0:
256,158,51523,1,0,0:0:0:0:
256,158,51609,1,8,0:0:0:0:
256,158,51781,1,0,0:0:0:0:
256,158,51952,1,8,0:0:0:0:
256,158,52123,1,8,0:0:0:0:
256,158,52209,1,8,0:0:0:0:
256,158,52295,1,0,0:0:0:0:
256,158,52466,1,0,0:0:0:0:
256,158,52638,1,8,0:0:0:0:
256,158,52809,1,0,0:0:0:0:
256,158,52895,1,0,0:0:0:0:
256,158,52981,1,8,0:0:0:0:
256,158,53066,1,8,0:0:0:0:
256,158,53152,1,0,0:0:0:0:
256,158,53323,1,8,0:0:0:0:
256,158,53495,1,0,0:0:0:0:
256,158,53666,1,0,0:0:0:0:
256,158,54009,1,8,0:0:0:0:
256,158,54181,1,0,0:0:0:0:
256,158,54266,1,0,0:0:0:0:
256,158,54352,1,0,0:0:0:0:
256,158,54523,1,0,0:0:0:0:
256,158,54695,1,8,0:0:0:0:
256,158,54866,1,0,0:0:0:0:
256,158,54952,1,0,0:0:0:0:
256,158,55038,1,8,0:0:0:0:
256,158,55209,1,0,0:0:0:0:
256,158,55381,1,8,0:0:0:0:
256,158,55552,1,8,0:0:0:0:
256,158,55723,1,0,0:0:0:0:
256,158,55895,1,8,0:0:0:0:
256,158,55981,1,0,0:0:0:0:
256,158,56066,1,8,0:0:0:0:
256,158,56152,1,8,0:0:0:0:
256,158,56238,1,0,0:0:0:0:
256,158,56409,1,0,0:0:0:0:
367,167,56752,1,8,0:0:0:0:
256,158,56923,1,0,0:0:0:0:
256,158,57009,1,8,0:0:0:0:
256,158,57095,1,0,0:0:0:0:
231,208,57266,1,0,0:0:0:0:
256,158,57438,1,8,0:0:0:0:
256,158,57609,1,0,0:0:0:0:
256,158,57695,1,0,0:0:0:0:
256,158,57781,1,8,0:0:0:0:
256,158,57952,1,0,0:0:0:0:
256,158,58123,1,8,0:0:0:0:
256,158,58295,1,0,0:0:0:0:
256,158,58381,1,0,0:0:0:0:
256,158,58466,1,8,0:0:0:0:
256,158,58552,1,8,0:0:0:0:
256,158,58638,1,0,0:0:0:0:
256,158,58809,1,8,0:0:0:0:
256,158,58981,1,0,0:0:0:0:
256,158,59152,1,0,0:0:0:0:
256,158,59495,1,8,0:0:0:0:
256,158,59666,1,0,0:0:0:0:
283,150,59752,1,0,0:0:0:0:
256,158,59838,1,8,0:0:0:0:
256,158,60009,1,0,0:0:0:0:
256,158,60181,1,8,0:0:0:0:
256,158,60352,1,8,0:0:0:0:
256,158,60438,1,8,0:0:0:0:
256,158,60523,1,0,0:0:0:0:
256,158,60695,1,0,0:0:0:0:
256,158,60866,1,8,0:0:0:0:
256,158,61038,1,0,0:0:0:0:
256,158,61123,1,0,0:0:0:0:
256,158,61209,1,8,0:0:0:0:
256,158,61295,1,8,0:0:0:0:
256,158,61381,1,0,0:0:0:0:
256,158,61552,1,8,0:0:0:0:
256,158,61723,1,0,0:0:0:0:
256,158,61895,1,0,0:0:0:0:
256,158,62238,1,8,0:0:0:0:
256,158,62409,1,8,0:0:0:0:
256,158,62581,1,0,0:0:0:0:
256,158,62752,1,0,0:0:0:0:
256,158,62923,1,8,0:0:0:0:
256,158,63009,1,0,0:0:0:0:
256,158,63095,1,0,0:0:0:0:
256,158,63266,1,8,0:0:0:0:
256,158,63438,1,0,0:0:0:0:
256,158,63523,1,0,0:0:0:0:
256,158,63609,1,8,0:0:0:0:
256,158,63781,1,0,0:0:0:0:
256,158,63952,1,8,0:0:0:0:
256,158,64038,1,0,0:0:0:0:
256,158,64209,1,0,0:0:0:0:
256,158,64295,1,8,0:0:0:0:
256,158,64466,1,0,0:0:0:0:
256,158,64638,1,8,0:0:0:0:
345,225,64981,1,8,0:0:0:0:
256,158,65152,1,0,0:0:0:0:
256,158,65323,1,8,0:0:0:0:
256,158,65495,1,0,0:0:0:0:
256,158,65666,1,8,0:0:0:0:
256,158,65838,1,0,0:0:0:0:
256,158,66009,1,8,0:0:0:0:
256,158,66181,1,8,0:0:0:0:
256,158,66352,1,8,0:0:0:0:
256,158,66523,1,8,0:0:0:0:
256,158,66695,1,0,0:0:0:0:
256,158,66866,1,0,0:0:0:0:
256,158,67038,1,12,0:0:0:0:
256,158,67381,1,4,0:0:0:0:
256,158,67552,1,0,0:0:0:0:
256,158,67638,1,0,0:0:0:0:
256,158,67723,1,8,0:0:0:0:
256,158,67895,1,0,0:0:0:0:
256,158,68066,1,8,0:0:0:0:
256,158,68238,1,8,0:0:0:0:
256,158,68409,1,0,0:0:0:0:
256,158,68581,1,8,0:0:0:0:
256,158,68666,1,8,0:0:0:0:
256,158,68752,1,0,0:0:0:0:
256,158,68923,1,0,0:0:0:0:
256,158,69095,1,8,0:0:0:0:
256,158,69266,1,0,0:0:0:0:
256,158,69352,1,0,0:0:0:0:
256,158,69438,1,8,0:0:0:0:
256,158,69523,1,8,0:0:0:0:
256,158,69609,1,0,0:0:0:0:
256,158,69781,1,8,0:0:0:0:
256,158,69952,1,0,0:0:0:0:
256,158,70123,1,0,0:0:0:0:
256,158,70295,1,0,0:0:0:0:
256,158,70381,1,0,0:0:0:0:
256,158,70466,1,8,0:0:0:0:
256,158,70638,1,0,0:0:0:0:
256,158,70809,1,8,0:0:0:0:
256,158,71152,1,0,0:0:0:0:
256,158,71323,1,8,0:0:0:0:
256,158,71409,1,0,0:0:0:0:
256,158,71495,1,8,0:0:0:0:
256,158,71666,1,0,0:0:0:0:
256,158,71838,1,8,0:0:0:0:
256,158,72009,1,8,0:0:0:0:
256,158,72095,1,8,0:0:0:0:
256,158,72181,1,0,0:0:0:0:
256,158,72352,1,0,0:0:0:0:
256,158,72523,1,8,0:0:0:0:
256,158,72695,1,0,0:0:0:0:
256,158,72866,1,0,0:0:0:0:
256,158,73038,1,0,0:0:0:0:
256,158,73123,1,0,0:0:0:0:
256,158,73209,1,8,0:0:0:0:
256,158,73381,1,0,0:0:0:0:
256,158,73552,1,8,0:0:0:0:
256,158,73723,1,0,0:0:0:0:
256,158,73809,1,0,0:0:0:0:
256,158,73895,1,8,0:0:0:0:
256,158,73981,1,8,0:0:0:0:
256,158,74066,1,0,0:0:0:0:
256,158,74238,1,8,0:0:0:0:
256,158,74581,1,0,0:0:0:0:
256,158,74752,1,8,0:0:0:0:
256,158,74923,1,0,0:0:0:0:
256,158,75095,1,0,0:0:0:0:
256,158,75181,1,0,0:0:0:0:
256,158,75266,1,8,0:0:0:0:
256,158,75438,1,0,0:0:0:0:
256,158,75609,1,8,0:0:0:0:
256,158,75695,1,8,0:0:0:0:
256,158,75781,1,0,0:0:0:0:
256,158,75866,1,0,0:0:0:0:
256,158,75952,1,8,0:0:0:0:
256,158,76123,1,0,0:0:0:0:
256,158,76295,1,8,0:0:0:0:
256,158,76466,1,0,0:0:0:0:
256,158,76552,1,0,0:0:0:0:
256,158,76638,1,8,0:0:0:0:
256,158,76723,1,8,0:0:0:0:
256,158,76809,1,8,0:0:0:0:
256,158,76981,1,0,0:0:0:0:
256,158,77152,1,0,0:0:0:0:
256,158,77323,1,8,0:0:0:0:
256,158,77495,1,0,0:0:0:0:
256,158,77581,1,8,0:0:0:0:
256,158,77666,1,0,0:0:0:0:
256,158,77838,1,0,0:0:0:0:
256,158,78009,1,12,0:0:0:0:
256,158,78352,1,4,0:0:0:0:
256,158,78523,1,0,0:0:0:0:
256,158,78609,1,0,0:0:0:0:
256,158,78694,1,8,0:0:0:0:
256,158,78866,1,0,0:0:0:0:
256,158,79037,1,8,0:0:0:0:
256,158,79209,1,8,0:0:0:0:
256,158,79380,1,0,0:0:0:0:
256,158,79552,1,8,0:0:0:0:
256,158,79637,1,8,0:0:0:0:
256,158,79723,1,0,0:0:0:0:
256,158,79894,1,0,0:0:0:0:
256,158,80066,1,8,0:0:0:0:
256,158,80237,1,0,0:0:0:0:
256,158,80323,1,0,0:0:0:0:
256,158,80409,1,8,0:0:0:0:
256,158,80494,1,8,0:0:0:0:
256,158,80580,1,0,0:0:0:0:
256,158,80752,1,8,0:0:0:0:
256,158,80923,1,0,0:0:0:0:
256,158,81094,1,0,0:0:0:0:
256,158,81266,1,0,0:0:0:0:
256,158,81352,1,0,0:0:0:0:
256,158,81437,1,8,0:0:0:0:
256,158,81609,1,0,0:0:0:0:
256,158,81780,1,8,0:0:0:0:
256,158,82123,1,0,0:0:0:0:
256,158,82294,1,8,0:0:0:0:
256,158,82380,1,0,0:0:0:0:
256,158,82466,1,8,0:0:0:0:
256,158,82637,1,0,0:0:0:0:
256,158,82809,1,8,0:0:0:0:
256,158,82980,1,8,0:0:0:0:
256,158,83066,1,8,0:0:0:0:
256,158,83152,1,0,0:0:0:0:
256,158,83323,1,0,0:0:0:0:
256,158,83494,1,8,0:0:0:0:
256,158,83666,1,0,0:0:0:0:
279,137,83752,1,0,0:0:0:0:
256,158,83837,1,8,0:0:0:0:
256,158,84009,1,0,0:0:0:0:
256,158,84180,1,8,0:0:0:0:
256,158,84352,1,0,0:0:0:0:
256,158,84523,1,8,0:0:0:0:
242,185,84609,1,8,0:0:0:0:
256,158,84694,1,0,0:0:0:0:
256,158,84780,1,0,0:0:0:0:
256,158,84866,1,8,0:0:0:0:
256,158,85038,1,8,0:0:0:0:
256,158,85209,1,0,0:0:0:0:
256,157,85552,1,8,0:0:0:0:
256,158,85723,1,0,0:0:0:0:
256,158,85895,1,0,0:0:0:0:
256,158,85981,1,8,0:0:0:0:
256,158,86066,1,0,0:0:0:0:
256,158,86238,1,8,0:0:0:0:
256,157,86409,1,0,0:0:0:0:
256,157,86581,1,12,0:0:0:0:
256,158,86752,1,0,0:0:0:0:
256,158,86838,1,0,0:0:0:0:
256,158,86923,1,8,0:0:0:0:
256,158,87095,1,0,0:0:0:0:
256,158,87266,1,8,0:0:0:0:
256,157,87438,1,0,0:0:0:0:
256,157,87523,1,0,0:0:0:0:
256,157,87609,1,8,0:0:0:0:
256,158,87781,1,0,0:0:0:0:
256,158,87952,1,8,0:0:0:0:
256,158,88123,1,8,0:0:0:0:
256,158,88295,1,8,0:0:0:0:
256,157,88466,1,8,0:0:0:0:
256,157,88638,1,0,0:0:0:0:
256,158,88809,1,0,0:0:0:0:
256,158,88981,1,12,0:0:0:0:
254,265,89323,1,4,0:0:0:0:
254,265,89494,1,8,0:0:0:0:
246,237,89580,1,8,0:0:0:0:
254,265,89666,1,0,0:0:0:0:
254,265,89837,1,8,0:0:0:0:
254,265,90009,1,0,0:0:0:0:
256,158,90180,1,0,0:0:0:0:
238,211,90352,1,8,0:0:0:0:
238,211,90523,1,8,0:0:0:0:
256,158,90694,1,0,0:0:0:0:
256,158,90866,1,8,0:0:0:0:
256,158,90952,1,8,0:0:0:0:
256,158,91037,1,0,0:0:0:0:
256,158,91209,1,0,0:0:0:0:
256,158,91294,1,0,0:0:0:0:
256,158,91380,1,8,0:0:0:0:
256,158,91552,1,0,0:0:0:0:
256,158,91723,1,8,0:0:0:0:
256,158,92066,1,0,0:0:0:0:
256,158,92237,1,8,0:0:0:0:
256,158,92323,1,8,0:0:0:0:
256,158,92409,1,0,0:0:0:0:
256,158,92580,1,0,0:0:0:0:
256,158,92752,1,8,0:0:0:0:
256,158,92923,1,0,0:0:0:0:
256,158,93094,1,8,0:0:0:0:
256,158,93266,1,8,0:0:0:0:
256,158,93437,1,0,0:0:0:0:
256,158,93609,1,8,0:0:0:0:
256,158,93694,1,8,0:0:0:0:
256,158,93780,1,0,0:0:0:0:
256,158,93952,1,0,0:0:0:0:
256,158,94123,1,8,0:0:0:0:
256,158,94294,1,0,0:0:0:0:
256,158,94380,1,0,0:0:0:0:
256,158,94466,1,8,0:0:0:0:
256,158,94809,1,0,0:0:0:0:
256,158,94980,1,8,0:0:0:0:
256,158,95066,1,8,0:0:0:0:
256,158,95152,1,0,0:0:0:0:
256,158,95323,1,8,0:0:0:0:
256,158,95494,1,8,0:0:0:0:
256,158,95666,1,0,0:0:0:0:
256,158,95837,1,8,0:0:0:0:
256,158,96009,1,0,0:0:0:0:
256,158,96180,1,0,0:0:0:0:
256,158,96352,1,8,0:0:0:0:
256,158,96437,1,8,0:0:0:0:
256,158,96523,1,0,0:0:0:0:
256,158,96694,1,0,0:0:0:0:
256,158,96780,1,0,0:0:0:0:
256,158,96866,1,8,0:0:0:0:
256,158,97037,1,0,0:0:0:0:
256,158,97209,1,8,0:0:0:0:
256,158,97552,1,0,0:0:0:0:
256,158,97723,1,8,0:0:0:0:
256,158,97809,1,8,0:0:0:0:
256,158,97894,1,0,0:0:0:0:
256,158,98066,1,0,0:0:0:0:
256,158,98237,1,8,0:0:0:0:
256,158,98409,1,0,0:0:0:0:
256,158,98580,1,8,0:0:0:0:
256,158,98752,1,8,0:0:0:0:
256,158,98923,1,0,0:0:0:0:
256,158,99094,1,8,0:0:0:0:
256,158,99180,1,8,0:0:0:0:
256,158,99266,1,0,0:0:0:0:
256,158,99437,1,0,0:0:0:0:
280,144,99523,1,0,0:0:0:0:
256,158,99609,1,8,0:0:0:0:
280,145,99694,1,8,0:0:0:0:
256,158,99780,1,0,0:0:0:0:
256,158,99952,1,12,0:0:0:0:
254,265,100294,1,4,0:0:0:0:
254,265,100465,1,8,0:0:0:0:
246,237,100551,1,8,0:0:0:0:
254,265,100637,1,0,0:0:0:0:
254,265,100808,1,8,0:0:0:0:
254,265,100980,1,0,0:0:0:0:
256,158,101151,1,0,0:0:0:0:
238,211,101323,1,8,0:0:0:0:
238,211,101494,1,8,0:0:0:0:
256,158,101665,1,0,0:0:0:0:
256,158,101837,1,8,0:0:0:0:
256,158,101923,1,8,0:0:0:0:
256,158,102008,1,0,0:0:0:0:
256,158,102180,1,0,0:0:0:0:
256,158,102265,1,0,0:0:0:0:
256,158,102351,1,8,0:0:0:0:
256,158,102523,1,0,0:0:0:0:
256,158,102694,1,8,0:0:0:0:
256,158,103037,1,0,0:0:0:0:
256,158,103208,1,8,0:0:0:0:
256,158,103294,1,8,0:0:0:0:
256,158,103380,1,0,0:0:0:0:
256,158,103551,1,0,0:0:0:0:
256,158,103723,1,8,0:0:0:0:
256,158,103894,1,0,0:0:0:0:
256,158,104065,1,8,0:0:0:0:
256,158,104237,1,8,0:0:0:0:
256,158,104408,1,0,0:0:0:0:
256,158,104580,1,8,0:0:0:0:
256,158,104665,1,8,0:0:0:0:
256,158,104751,1,0,0:0:0:0:
256,158,104923,1,0,0:0:0:0:
256,158,105094,1,8,0:0:0:0:
256,158,105265,1,0,0:0:0:0:
256,158,105351,1,0,0:0:0:0:
256,158,105437,1,8,0:0:0:0:
256,158,105780,1,0,0:0:0:0:
256,158,105951,1,8,0:0:0:0:
256,158,106037,1,8,0:0:0:0:
256,158,106123,1,0,0:0:0:0:
256,158,106294,1,8,0:0:0:0:
256,158,106465,1,8,0:0:0:0:
256,158,106637,1,0,0:0:0:0:
256,158,106808,1,8,0:0:0:0:
256,158,106980,1,0,0:0:0:0:
256,158,107151,1,0,0:0:0:0:
256,158,107323,1,8,0:0:0:0:
256,158,107408,1,8,0:0:0:0:
256,158,107494,1,0,0:0:0:0:
256,158,107665,1,0,0:0:0:0:
256,158,107752,1,0,0:0:0:0:
256,158,107837,1,8,0:0:0:0:
256,158,108008,1,0,0:0:0:0:
256,158,108180,1,8,0:0:0:0:
256,158,108523,1,8,0:0:0:0:
256,158,108694,1,0,0:0:0:0:
256,158,108866,1,8,0:0:0:0:
256,158,109037,1,0,0:0:0:0:
256,158,109123,1,0,0:0:0:0:
256,158,109209,1,8,0:0:0:0:
256,158,109380,1,0,0:0:0:0:
256,158,109552,1,8,0:0:0:0:
256,158,109723,1,0,0:0:0:0:
256,158,109894,1,8,0:0:0:0:
256,158,110066,1,8,0:0:0:0:
256,158,110237,1,8,0:0:0:0:
256,158,110409,1,8,0:0:0:0:
256,158,110580,1,0,0:0:0:0:
231,143,110752,1,0,0:0:0:0:
231,143,110923,1,12,0:0:0:0:
256,158,111266,5,0,0:0:0:0:
280,173,114009,1,0,0:0:0:0:
280,173,115381,1,0,0:0:0:0:
280,173,116752,1,8,0:0:0:0:
280,173,118123,1,8,0:0:0:0:
280,173,119495,1,0,0:0:0:0:
280,173,120866,1,0,0:0:0:0:
280,173,121552,1,12,0:0:0:0:
256,158,122238,1,4,0:0:0:0:
256,158,122924,1,8,0:0:0:0:
256,158,123267,1,0,0:0:0:0:
256,158,123953,1,0,0:0:0:0:
256,158,124295,1,8,0:0:0:0:
256,158,124981,1,0,0:0:0:0:
256,158,125667,1,8,0:0:0:0:
256,158,126010,1,0,0:0:0:0:
256,158,126524,1,0,0:0:0:0:
256,158,126867,1,0,0:0:0:0:
256,158,127038,1,8,0:0:0:0:
256,158,127210,1,0,0:0:0:0:
256,158,127381,1,8,0:0:0:0:
256,158,127553,1,8,0:0:0:0:
256,158,127724,1,0,0:0:0:0:
256,158,128410,1,8,0:0:0:0:
256,158,128753,1,0,0:0:0:0:
256,158,129438,1,0,0:0:0:0:
256,158,129781,1,8,0:0:0:0:
256,158,130467,1,0,0:0:0:0:
256,158,131153,1,8,0:0:0:0:
256,158,131495,1,0,0:0:0:0:
256,158,132010,1,0,0:0:0:0:
256,158,132353,1,0,0:0:0:0:
256,158,132524,1,8,0:0:0:0:
256,158,132695,1,0,0:0:0:0:
256,158,132867,1,8,0:0:0:0:
256,158,133038,1,8,0:0:0:0:
256,158,133210,1,4,0:0:0:0:
256,158,133553,1,8,0:0:0:0:
256,158,133724,1,0,0:0:0:0:
256,158,133810,1,0,0:0:0:0:
256,158,133895,1,0,0:0:0:0:
256,158,134067,1,0,0:0:0:0:
256,158,134238,1,8,0:0:0:0:
256,158,134323,1,8,0:0:0:0:
256,158,134410,1,0,0:0:0:0:
256,158,134495,1,0,0:0:0:0:
256,158,134581,1,8,0:0:0:0:
256,158,134753,1,0,0:0:0:0:
256,158,134924,1,8,0:0:0:0:
311,156,135095,1,0,0:0:0:0:
256,158,135267,1,8,0:0:0:0:
256,158,135353,1,8,0:0:0:0:
256,158,135438,1,0,0:0:0:0:
256,158,135610,1,8,0:0:0:0:
256,158,135781,1,0,0:0:0:0:
256,158,135953,1,0,0:0:0:0:
256,158,136295,1,8,0:0:0:0:
256,158,136467,1,0,0:0:0:0:
256,158,136553,1,8,0:0:0:0:
256,158,136638,1,8,0:0:0:0:
256,158,136810,1,0,0:0:0:0:
256,158,136981,1,8,0:0:0:0:
256,158,137153,1,8,0:0:0:0:
256,158,137238,1,8,0:0:0:0:
256,158,137324,1,0,0:0:0:0:
256,158,137495,1,0,0:0:0:0:
256,158,137667,1,8,0:0:0:0:
256,158,137838,1,0,0:0:0:0:
256,158,138010,1,8,0:0:0:0:
256,158,138095,1,0,0:0:0:0:
256,158,138181,1,0,0:0:0:0:
256,158,138353,1,8,0:0:0:0:
309,143,138524,1,0,0:0:0:0:
309,143,138695,1,0,0:0:0:0:
256,158,139038,1,8,0:0:0:0:
256,158,139210,1,0,0:0:0:0:
256,158,139295,1,0,0:0:0:0:
256,158,139381,1,8,0:0:0:0:
256,158,139553,1,0,0:0:0:0:
256,158,139724,1,8,0:0:0:0:
256,158,139895,1,8,0:0:0:0:
256,158,139981,1,8,0:0:0:0:
256,158,140067,1,0,0:0:0:0:
256,158,140238,1,0,0:0:0:0:
256,158,140410,1,8,0:0:0:0:
256,158,140581,1,0,0:0:0:0:
256,158,140667,1,0,0:0:0:0:
256,158,140753,1,8,0:0:0:0:
256,158,140838,1,8,0:0:0:0:
256,158,140924,1,0,0:0:0:0:
256,158,141095,1,8,0:0:0:0:
256,158,141267,1,0,0:0:0:0:
256,158,141438,1,0,0:0:0:0:
256,158,141781,1,8,0:0:0:0:
256,158,141953,1,0,0:0:0:0:
256,158,142038,1,0,0:0:0:0:
256,158,142124,1,0,0:0:0:0:
256,158,142295,1,0,0:0:0:0:
256,158,142467,1,8,0:0:0:0:
256,158,142638,1,0,0:0:0:0:
256,158,142724,1,0,0:0:0:0:
256,158,142810,1,8,0:0:0:0:
256,158,142981,1,0,0:0:0:0:
256,158,143153,1,8,0:0:0:0:
256,158,143324,1,8,0:0:0:0:
256,158,143495,1,0,0:0:0:0:
256,158,143667,1,8,0:0:0:0:
256,158,143753,1,8,0:0:0:0:
256,158,143838,1,0,0:0:0:0:
256,158,143924,1,8,0:0:0:0:
256,158,144010,1,0,0:0:0:0:
256,158,144181,1,0,0:0:0:0:
367,167,144524,1,8,0:0:0:0:
256,158,144695,1,0,0:0:0:0:
256,158,144781,1,8,0:0:0:0:
256,158,144867,1,0,0:0:0:0:
231,208,145038,1,0,0:0:0:0:
256,158,145210,1,8,0:0:0:0:
256,158,145381,1,0,0:0:0:0:
256,158,145467,1,0,0:0:0:0:
256,158,145553,1,8,0:0:0:0:
256,158,145724,1,0,0:0:0:0:
256,158,145895,1,8,0:0:0:0:
256,158,146067,1,0,0:0:0:0:
256,158,146153,1,0,0:0:0:0:
256,158,146238,1,8,0:0:0:0:
256,158,146323,1,8,0:0:0:0:
256,158,146410,1,0,0:0:0:0:
256,158,146581,1,8,0:0:0:0:
256,158,146753,1,0,0:0:0:0:
256,158,146924,1,0,0:0:0:0:
256,158,147267,1,8,0:0:0:0:
256,158,147438,1,0,0:0:0:0:
283,150,147524,1,0,0:0:0:0:
256,158,147610,1,8,0:0:0:0:
256,158,147781,1,0,0:0:0:0:
256,158,147953,1,8,0:0:0:0:
256,158,148124,1,8,0:0:0:0:
256,158,148210,1,8,0:0:0:0:
256,158,148295,1,0,0:0:0:0:
256,158,148467,1,0,0:0:0:0:
256,158,148638,1,8,0:0:0:0:
256,158,148810,1,0,0:0:0:0:
256,158,148895,1,0,0:0:0:0:
256,158,148981,1,8,0:0:0:0:
256,158,149067,1,8,0:0:0:0:
256,158,149153,1,0,0:0:0:0:
256,158,149324,1,8,0:0:0:0:
256,158,149495,1,0,0:0:0:0:
256,158,149667,1,0,0:0:0:0:
256,158,150010,1,8,0:0:0:0:
256,158,150181,1,8,0:0:0:0:
256,158,150353,1,0,0:0:0:0:
256,158,150524,1,0,0:0:0:0:
256,158,150695,1,8,0:0:0:0:
256,158,150781,1,0,0:0:0:0:
256,158,150867,1,0,0:0:0:0:
256,158,151038,1,8,0:0:0:0:
256,158,151210,1,0,0:0:0:0:
256,158,151295,1,0,0:0:0:0:
256,158,151381,1,8,0:0:0:0:
256,158,151553,1,0,0:0:0:0:
256,158,151724,1,8,0:0:0:0:
256,158,151810,1,0,0:0:0:0:
256,158,151981,1,0,0:0:0:0:
256,158,152067,1,8,0:0:0:0:
256,158,152238,1,0,0:0:0:0:
256,158,152410,1,8,0:0:0:0:
345,225,152753,1,8,0:0:0:0:
256,158,152924,1,0,0:0:0:0:
256,158,153095,1,8,0:0:0:0:
256,158,153267,1,0,0:0:0:0:
256,158,153438,1,8,0:0:0:0:
256,158,153610,1,0,0:0:0:0:
256,158,153781,1,8,0:0:0:0:
256,158,153953,1,8,0:0:0:0:
256,158,154124,1,8,0:0:0:0:
256,158,154295,1,8,0:0:0:0:
256,158,154467,1,0,0:0:0:0:
256,158,154638,1,0,0:0:0:0:
256,158,154810,1,12,0:0:0:0:
256,158,155152,1,4,0:0:0:0:
256,158,155495,1,0,0:0:0:0:
256,158,155666,1,0,0:0:0:0:
256,158,155838,1,8,0:0:0:0:
256,158,156181,1,8,0:0:0:0:
256,158,156352,1,0,0:0:0:0:
256,158,156695,1,8,0:0:0:0:
256,158,156866,1,8,0:0:0:0:
256,158,157038,1,0,0:0:0:0:
256,158,157209,1,8,0:0:0:0:
256,158,157552,1,8,0:0:0:0:
280,153,157723,1,0,0:0:0:0:
256,158,157895,1,0,0:0:0:0:
256,158,158238,1,0,0:0:0:0:
256,158,158409,1,0,0:0:0:0:
256,158,158581,1,8,0:0:0:0:
256,158,158752,1,0,0:0:0:0:
256,158,159095,1,8,0:0:0:0:
256,158,159438,1,0,0:0:0:0:
256,158,159781,1,0,0:0:0:0:
256,158,159952,1,8,0:0:0:0:
256,158,160123,1,0,0:0:0:0:
256,158,160295,1,8,0:0:0:0:
256,158,160466,1,8,0:0:0:0:
256,158,160638,1,0,0:0:0:0:
256,158,160981,1,0,0:0:0:0:
256,158,161152,1,0,0:0:0:0:
256,158,161323,1,8,0:0:0:0:
256,158,161666,1,8,0:0:0:0:
256,158,161838,1,0,0:0:0:0:
256,158,162181,1,8,0:0:0:0:
256,158,162352,1,8,0:0:0:0:
256,158,162523,1,0,0:0:0:0:
256,158,162695,1,8,0:0:0:0:
256,158,163038,1,8,0:0:0:0:
256,158,163209,1,0,0:0:0:0:
256,158,163381,1,0,0:0:0:0:
256,158,163723,1,0,0:0:0:0:
256,158,163895,1,0,0:0:0:0:
256,158,164066,1,8,0:0:0:0:
205,153,164238,1,0,0:0:0:0:
256,158,164581,1,8,0:0:0:0:
256,158,164923,1,0,0:0:0:0:
256,158,165266,1,0,0:0:0:0:
256,158,165438,1,8,0:0:0:0:
256,158,165609,1,0,0:0:0:0:
256,158,165781,1,8,0:0:0:0:
256,158,165952,1,8,0:0:0:0:
256,158,166123,1,0,0:0:0:0:
256,158,166466,1,0,0:0:0:0:
256,158,166637,1,0,0:0:0:0:
256,158,166809,1,8,0:0:0:0:
256,158,167152,1,8,0:0:0:0:
256,158,167323,1,0,0:0:0:0:
256,158,167666,1,8,0:0:0:0:
256,158,167837,1,8,0:0:0:0:
256,158,168009,1,0,0:0:0:0:
256,158,168180,1,8,0:0:0:0:
256,158,168523,1,8,0:0:0:0:
280,153,168694,1,0,0:0:0:0:
256,158,168866,1,0,0:0:0:0:
256,158,169209,1,0,0:0:0:0:
256,158,169380,1,0,0:0:0:0:
256,158,169552,1,8,0:0:0:0:
264,168,169723,1,0,0:0:0:0:
256,158,169894,1,8,0:0:0:0:
256,158,170066,1,0,0:0:0:0:
256,158,170409,1,0,0:0:0:0:
256,158,170752,1,0,0:0:0:0:
256,158,170923,1,8,0:0:0:0:
256,158,171094,1,0,0:0:0:0:
256,158,171266,1,8,0:0:0:0:
256,158,171437,1,8,0:0:0:0:
256,158,171609,1,0,0:0:0:0:
256,158,171952,1,0,0:0:0:0:
256,158,172123,1,0,0:0:0:0:
256,158,172294,1,8,0:0:0:0:
256,158,172637,1,8,0:0:0:0:
256,158,172809,1,0,0:0:0:0:
256,158,173152,1,8,0:0:0:0:
256,158,173323,1,8,0:0:0:0:
256,158,173494,1,0,0:0:0:0:
256,158,173666,1,8,0:0:0:0:
256,158,174009,1,8,0:0:0:0:
256,158,174180,1,0,0:0:0:0:
256,158,174352,1,0,0:0:0:0:
256,158,174694,1,0,0:0:0:0:
256,158,174866,1,0,0:0:0:0:
256,158,175037,1,8,0:0:0:0:
319,147,175209,1,0,0:0:0:0:
256,158,175380,1,8,0:0:0:0:
256,158,175552,1,0,0:0:0:0:
256,158,175894,1,0,0:0:0:0:
256,158,176237,1,0,0:0:0:0:
256,158,176409,1,8,0:0:0:0:
256,158,176580,1,0,0:0:0:0:
256,158,176752,1,8,0:0:0:0:
256,158,176923,1,8,0:0:0:0:
256,158,177095,1,4,0:0:0:0:
256,158,177438,1,0,0:0:0:0:
256,158,177609,1,0,0:0:0:0:
256,158,177781,1,8,0:0:0:0:
256,158,178123,1,0,0:0:0:0:
256,158,178466,1,8,0:0:0:0:
256,158,178638,1,0,0:0:0:0:
256,158,178981,1,0,0:0:0:0:
256,158,179152,1,8,0:0:0:0:
256,158,179495,1,8,0:0:0:0:
256,158,179666,1,0,0:0:0:0:
256,158,179838,1,0,0:0:0:0:
256,158,180181,1,0,0:0:0:0:
256,158,180352,1,0,0:0:0:0:
256,158,180523,1,8,0:0:0:0:
256,158,180695,1,0,0:0:0:0:
256,158,181038,1,0,0:0:0:0:
256,158,181209,1,8,0:0:0:0:
256,158,181381,1,0,0:0:0:0:
256,158,181723,1,0,0:0:0:0:
256,158,181895,1,8,0:0:0:0:
256,158,182066,1,0,0:0:0:0:
256,158,182238,1,8,0:0:0:0:
256,158,182409,1,8,0:0:0:0:
256,158,182581,1,0,0:0:0:0:
256,158,182923,1,0,0:0:0:0:
256,158,183095,1,0,0:0:0:0:
256,158,183266,1,8,0:0:0:0:
256,158,183609,1,0,0:0:0:0:
256,158,183952,1,8,0:0:0:0:
256,158,184123,1,0,0:0:0:0:
256,158,184466,1,0,0:0:0:0:
256,158,184638,1,8,0:0:0:0:
256,158,184981,1,8,0:0:0:0:
256,158,185152,1,0,0:0:0:0:
256,158,185323,1,0,0:0:0:0:
256,158,185666,1,0,0:0:0:0:
256,158,185838,1,0,0:0:0:0:
256,158,186009,1,8,0:0:0:0:
256,158,186181,1,0,0:0:0:0:
256,158,186523,1,0,0:0:0:0:
256,158,186695,1,8,0:0:0:0:
256,158,186866,1,0,0:0:0:0:
256,158,187209,1,0,0:0:0:0:
256,158,187381,1,8,0:0:0:0:
256,158,187552,1,8,0:0:0:0:
256,158,187723,1,0,0:0:0:0:
256,158,187895,1,8,0:0:0:0:
256,158,188066,1,4,0:0:0:0:
256,158,188409,1,0,0:0:0:0:
256,158,188580,1,0,0:0:0:0:
256,158,188752,1,8,0:0:0:0:
256,158,189094,1,0,0:0:0:0:
256,158,189437,1,8,0:0:0:0:
256,158,189609,1,0,0:0:0:0:
256,158,189952,1,0,0:0:0:0:
256,158,190123,1,8,0:0:0:0:
256,158,190466,1,8,0:0:0:0:
256,158,190637,1,0,0:0:0:0:
256,158,190809,1,0,0:0:0:0:
256,158,191152,1,0,0:0:0:0:
256,158,191323,1,0,0:0:0:0:
256,158,191494,1,8,0:0:0:0:
256,158,191666,1,0,0:0:0:0:
256,158,192009,1,0,0:0:0:0:
256,158,192180,1,8,0:0:0:0:
256,158,192352,1,0,0:0:0:0:
256,158,192694,1,0,0:0:0:0:
256,158,192866,1,8,0:0:0:0:
256,158,193037,1,0,0:0:0:0:
256,158,193209,1,8,0:0:0:0:
256,158,193380,1,8,0:0:0:0:
256,158,193552,1,0,0:0:0:0:
256,158,193894,1,0,0:0:0:0:
256,158,194066,1,0,0:0:0:0:
256,158,194237,1,8,0:0:0:0:
256,158,194580,1,0,0:0:0:0:
256,158,194923,1,8,0:0:0:0:
256,158,195094,1,0,0:0:0:0:
256,158,195437,1,0,0:0:0:0:
256,158,195609,1,8,0:0:0:0:
256,158,195952,1,8,0:0:0:0:
256,158,196123,1,0,0:0:0:0:
256,158,196295,1,8,0:0:0:0:
256,158,196638,1,8,0:0:0:0:
256,158,196981,1,8,0:0:0:0:
256,158,197323,1,8,0:0:0:0:
256,158,197666,1,8,0:0:0:0:
256,158,197838,1,0,0:0:0:0:
256,158,198009,1,8,0:0:0:0:
308,169,198181,1,8,0:0:0:0:
308,169,198352,1,0,0:0:0:0:
287,152,198438,1,8,0:0:0:0:
287,152,198523,1,0,0:0:0:0:
287,152,198695,1,12,0:0:0:0:
256,158,199038,1,4,0:0:0:0:
256,158,199209,1,0,0:0:0:0:
256,158,199295,1,0,0:0:0:0:
256,158,199380,1,8,0:0:0:0:
256,158,199552,1,0,0:0:0:0:
256,158,199723,1,8,0:0:0:0:
256,158,199895,1,8,0:0:0:0:
256,158,200066,1,0,0:0:0:0:
256,158,200238,1,8,0:0:0:0:
256,158,200323,1,8,0:0:0:0:
256,158,200409,1,0,0:0:0:0:
256,158,200580,1,0,0:0:0:0:
256,158,200752,1,8,0:0:0:0:
256,158,200923,1,0,0:0:0:0:
256,158,201009,1,0,0:0:0:0:
256,158,201095,1,8,0:0:0:0:
256,158,201180,1,8,0:0:0:0:
256,158,201266,1,0,0:0:0:0:
256,158,201438,1,8,0:0:0:0:
256,158,201609,1,0,0:0:0:0:
256,158,201780,1,0,0:0:0:0:
256,158,201952,1,0,0:0:0:0:
256,158,202038,1,0,0:0:0:0:
256,158,202123,1,8,0:0:0:0:
256,158,202295,1,0,0:0:0:0:
256,158,202466,1,8,0:0:0:0:
256,158,202809,1,0,0:0:0:0:
256,158,202980,1,8,0:0:0:0:
256,158,203066,1,0,0:0:0:0:
256,158,203152,1,8,0:0:0:0:
256,158,203323,1,0,0:0:0:0:
256,158,203495,1,8,0:0:0:0:
256,158,203666,1,8,0:0:0:0:
256,158,203752,1,8,0:0:0:0:
256,158,203838,1,0,0:0:0:0:
256,158,204009,1,0,0:0:0:0:
256,158,204180,1,8,0:0:0:0:
256,158,204352,1,0,0:0:0:0:
256,158,204523,1,0,0:0:0:0:
256,158,204695,1,0,0:0:0:0:
256,158,204780,1,0,0:0:0:0:
256,158,204866,1,8,0:0:0:0:
256,158,205038,1,0,0:0:0:0:
256,158,205209,1,8,0:0:0:0:
256,158,205380,1,0,0:0:0:0:
256,158,205466,1,0,0:0:0:0:
256,158,205552,1,8,0:0:0:0:
256,158,205638,1,8,0:0:0:0:
256,158,205723,1,0,0:0:0:0:
256,158,205895,1,8,0:0:0:0:
256,158,206238,1,0,0:0:0:0:
256,158,206409,1,8,0:0:0:0:
256,158,206580,1,0,0:0:0:0:
256,158,206752,1,0,0:0:0:0:
256,158,206838,1,0,0:0:0:0:
256,158,206923,1,8,0:0:0:0:
256,158,207095,1,0,0:0:0:0:
256,158,207266,1,8,0:0:0:0:
256,158,207352,1,8,0:0:0:0:
256,158,207438,1,0,0:0:0:0:
256,158,207523,1,0,0:0:0:0:
256,158,207609,1,8,0:0:0:0:
256,158,207780,1,0,0:0:0:0:
256,158,207952,1,8,0:0:0:0:
256,158,208123,1,0,0:0:0:0:
256,158,208209,1,0,0:0:0:0:
256,158,208295,1,8,0:0:0:0:
256,158,208380,1,8,0:0:0:0:
256,158,208466,1,8,0:0:0:0:
256,158,208638,1,0,0:0:0:0:
256,158,208809,1,0,0:0:0:0:
256,158,208980,1,8,0:0:0:0:
256,158,209152,1,0,0:0:0:0:
256,158,209238,1,8,0:0:0:0:
256,158,209323,1,0,0:0:0:0:
256,158,209495,1,0,0:0:0:0:
256,158,209666,1,12,0:0:0:0:
256,158,210009,1,4,0:0:0:0:
256,158,210180,1,0,0:0:0:0:
256,158,210266,1,0,0:0:0:0:
256,158,210351,1,8,0:0:0:0:
256,158,210523,1,0,0:0:0:0:
256,158,210694,1,8,0:0:0:0:
256,158,210866,1,8,0:0:0:0:
256,158,211037,1,0,0:0:0:0:
256,158,211209,1,8,0:0:0:0:
256,158,211294,1,8,0:0:0:0:
256,158,211380,1,0,0:0:0:0:
256,158,211551,1,0,0:0:0:0:
256,158,211723,1,8,0:0:0:0:
256,158,211894,1,0,0:0:0:0:
256,158,211980,1,0,0:0:0:0:
256,158,212066,1,8,0:0:0:0:
256,158,212151,1,8,0:0:0:0:
256,158,212237,1,0,0:0:0:0:
256,158,212409,1,8,0:0:0:0:
256,158,212580,1,0,0:0:0:0:
256,158,212751,1,0,0:0:0:0:
256,158,212923,1,0,0:0:0:0:
256,158,213009,1,0,0:0:0:0:
256,158,213094,1,8,0:0:0:0:
256,158,213266,1,0,0:0:0:0:
256,158,213437,1,8,0:0:0:0:
256,158,213780,1,0,0:0:0:0:
256,158,213951,1,8,0:0:0:0:
256,158,214037,1,0,0:0:0:0:
256,158,214123,1,8,0:0:0:0:
256,158,214294,1,0,0:0:0:0:
256,158,214466,1,8,0:0:0:0:
256,158,214637,1,8,0:0:0:0:
256,158,214723,1,8,0:0:0:0:
256,158,214809,1,0,0:0:0:0:
256,158,214980,1,0,0:0:0:0:
256,158,215151,1,8,0:0:0:0:
256,158,215323,1,0,0:0:0:0:
279,137,215409,1,0,0:0:0:0:
256,158,215494,1,8,0:0:0:0:
256,158,215666,1,0,0:0:0:0:
256,158,215837,1,8,0:0:0:0:
256,158,216009,1,0,0:0:0:0:
256,158,216180,1,8,0:0:0:0:
242,185,216266,1,8,0:0:0:0:
256,158,216351,1,0,0:0:0:0:
256,158,216437,1,0,0:0:0:0:
256,158,216523,1,8,0:0:0:0:
256,158,216695,1,8,0:0:0:0:
256,158,216866,1,0,0:0:0:0:
256,157,217209,1,8,0:0:0:0:
256,158,217380,1,0,0:0:0:0:
256,158,217552,1,0,0:0:0:0:
256,158,217638,1,8,0:0:0:0:
256,158,217723,1,0,0:0:0:0:
256,158,217895,1,8,0:0:0:0:
256,157,218066,1,0,0:0:0:0:
256,157,218238,1,8,0:0:0:0:
256,158,218409,1,0,0:0:0:0:
256,158,218495,1,0,0:0:0:0:
256,158,218580,1,8,0:0:0:0:
256,158,218752,1,0,0:0:0:0:
256,158,218923,1,8,0:0:0:0:
256,157,219095,1,0,0:0:0:0:
256,157,219180,1,0,0:0:0:0:
256,157,219266,1,8,0:0:0:0:
256,158,219438,1,0,0:0:0:0:
256,158,219609,1,8,0:0:0:0:
256,158,219780,1,8,0:0:0:0:
256,158,219952,1,8,0:0:0:0:
256,157,220123,1,8,0:0:0:0:
256,157,220295,1,0,0:0:0:0:
256,158,220466,1,0,0:0:0:0:
256,158,220638,1,12,0:0:0:0:
254,265,220981,1,4,0:0:0:0:
254,265,221152,1,8,0:0:0:0:
246,237,221238,1,8,0:0:0:0:
254,265,221324,1,0,0:0:0:0:
254,265,221495,1,8,0:0:0:0:
254,265,221667,1,0,0:0:0:0:
256,158,221838,1,0,0:0:0:0:
238,211,222010,1,8,0:0:0:0:
238,211,222181,1,8,0:0:0:0:
256,158,222352,1,0,0:0:0:0:
256,158,222524,1,8,0:0:0:0:
256,158,222610,1,8,0:0:0:0:
256,158,222695,1,0,0:0:0:0:
256,158,222867,1,0,0:0:0:0:
256,158,222952,1,0,0:0:0:0:
256,158,223038,1,8,0:0:0:0:
256,158,223210,1,0,0:0:0:0:
256,158,223381,1,8,0:0:0:0:
256,158,223724,1,0,0:0:0:0:
256,158,223895,1,8,0:0:0:0:
256,158,223981,1,8,0:0:0:0:
256,158,224067,1,0,0:0:0:0:
256,158,224238,1,0,0:0:0:0:
256,158,224410,1,8,0:0:0:0:
256,158,224581,1,0,0:0:0:0:
256,158,224752,1,8,0:0:0:0:
256,158,224924,1,8,0:0:0:0:
256,158,225095,1,0,0:0:0:0:
256,158,225267,1,8,0:0:0:0:
256,158,225352,1,8,0:0:0:0:
256,158,225438,1,0,0:0:0:0:
256,158,225610,1,0,0:0:0:0:
256,158,225781,1,8,0:0:0:0:
256,158,225952,1,0,0:0:0:0:
256,158,226038,1,0,0:0:0:0:
256,158,226124,1,8,0:0:0:0:
256,158,226467,1,0,0:0:0:0:
256,158,226638,1,8,0:0:0:0:
256,158,226724,1,8,0:0:0:0:
256,158,226810,1,0,0:0:0:0:
256,158,226981,1,8,0:0:0:0:
256,158,227152,1,8,0:0:0:0:
256,158,227324,1,0,0:0:0:0:
256,158,227495,1,8,0:0:0:0:
256,158,227667,1,0,0:0:0:0:
256,158,227838,1,0,0:0:0:0:
256,158,228010,1,8,0:0:0:0:
256,158,228095,1,8,0:0:0:0:
256,158,228181,1,0,0:0:0:0:
256,158,228352,1,0,0:0:0:0:
256,158,228438,1,0,0:0:0:0:
256,158,228524,1,8,0:0:0:0:
256,158,228695,1,0,0:0:0:0:
256,158,228867,1,8,0:0:0:0:
256,158,229210,1,0,0:0:0:0:
256,158,229381,1,8,0:0:0:0:
256,158,229467,1,8,0:0:0:0:
256,158,229552,1,0,0:0:0:0:
256,158,229724,1,0,0:0:0:0:
256,158,229895,1,8,0:0:0:0:
256,158,230067,1,0,0:0:0:0:
256,158,230238,1,8,0:0:0:0:
256,158,230410,1,8,0:0:0:0:
256,158,230581,1,0,0:0:0:0:
256,158,230752,1,8,0:0:0:0:
256,158,230838,1,8,0:0:0:0:
256,158,230924,1,0,0:0:0:0:
256,158,231095,1,0,0:0:0:0:
280,144,231181,1,0,0:0:0:0:
256,158,231267,1,8,0:0:0:0:
280,145,231352,1,8,0:0:0:0:
256,158,231438,1,0,0:0:0:0:
256,158,231609,1,12,0:0:0:0:
254,265,231952,1,4,0:0:0:0:
254,265,232123,1,8,0:0:0:0:
246,237,232209,1,8,0:0:0:0:
254,265,232295,1,0,0:0:0:0:
254,265,232466,1,8,0:0:0:0:
254,265,232638,1,0,0:0:0:0:
256,158,232809,1,0,0:0:0:0:
238,211,232981,1,8,0:0:0:0:
238,211,233152,1,8,0:0:0:0:
256,158,233323,1,0,0:0:0:0:
256,158,233495,1,8,0:0:0:0:
256,158,233581,1,8,0:0:0:0:
256,158,233666,1,0,0:0:0:0:
256,158,233838,1,0,0:0:0:0:
256,158,233923,1,0,0:0:0:0:
256,158,234009,1,8,0:0:0:0:
256,158,234181,1,0,0:0:0:0:
256,158,234352,1,8,0:0:0:0:
256,158,234695,1,0,0:0:0:0:
256,158,234866,1,8,0:0:0:0:
256,158,234952,1,8,0:0:0:0:
256,158,235038,1,0,0:0:0:0:
256,158,235209,1,0,0:0:0:0:
256,158,235381,1,8,0:0:0:0:
256,158,235552,1,0,0:0:0:0:
256,158,235723,1,8,0:0:0:0:
256,158,235895,1,8,0:0:0:0:
256,158,236066,1,0,0:0:0:0:
256,158,236238,1,8,0:0:0:0:
256,158,236323,1,8,0:0:0:0:
256,158,236409,1,0,0:0:0:0:
256,158,236581,1,0,0:0:0:0:
256,158,236752,1,8,0:0:0:0:
256,158,236923,1,0,0:0:0:0:
256,158,237009,1,0,0:0:0:0:
256,158,237095,1,8,0:0:0:0:
256,158,237438,1,0,0:0:0:0:
256,158,237609,1,8,0:0:0:0:
256,158,237695,1,8,0:0:0:0:
256,158,237781,1,0,0:0:0:0:
256,158,237952,1,8,0:0:0:0:
256,158,238123,1,8,0:0:0:0:
256,158,238295,1,0,0:0:0:0:
256,158,238466,1,8,0:0:0:0:
256,158,238638,1,0,0:0:0:0:
256,158,238809,1,0,0:0:0:0:
256,158,238981,1,8,0:0:0:0:
256,158,239066,1,8,0:0:0:0:
256,158,239152,1,0,0:0:0:0:
256,158,239323,1,0,0:0:0:0:
256,158,239410,1,0,0:0:0:0:
256,158,239495,1,8,0:0:0:0:
256,158,239666,1,0,0:0:0:0:
256,158,239838,1,8,0:0:0:0:
256,158,240181,1,8,0:0:0:0:
256,158,240352,1,0,0:0:0:0:
256,158,240524,1,8,0:0:0:0:
256,158,240695,1,0,0:0:0:0:
256,158,240781,1,0,0:0:0:0:
256,158,240867,1,8,0:0:0:0:
256,158,241038,1,0,0:0:0:0:
256,158,241210,1,8,0:0:0:0:
256,158,241381,1,0,0:0:0:0:
256,158,241552,1,8,0:0:0:0:
256,158,241724,1,8,0:0:0:0:
256,158,241895,1,8,0:0:0:0:
256,158,242067,1,8,0:0:0:0:
256,158,242238,1,0,0:0:0:0:
231,143,242410,1,0,0:0:0:0:
231,143,242581,1,12,0:0:0:0:
256,192,242923,12,0,248238,0:0:0:0:
