osu file format v14

[General]
AudioFilename: audio.mp3
AudioLeadIn: 0
PreviewTime: 141416
Countdown: 1
SampleSet: Soft
StackLeniency: 0.3
Mode: 0
LetterboxInBreaks: 0
WidescreenStoryboard: 1

[Editor]
Bookmarks: 12166,20166,22833,33499,44166,64166,67166,77499,88166,98833,109499,120166,130833,146416,152166,162833,173166,173499
DistanceSpacing: 0.2
BeatDivisor: 4
GridSize: 32
TimelineZoom: 3.199999

[Metadata]
Title:Mint Comet
TitleUnicode:Mint Comet
Artist:Nor + YUC'e
ArtistUnicode:Nor + YUC'e
Creator:JrSzZ
Version:Chromatic
Source:
Tags:
BeatmapID:2092293
BeatmapSetID:1000076

[Difficulty]
HPDrainRate:5
CircleSize:4
OverallDifficulty:8.5
ApproachRate:9.5
SliderMultiplier:2
SliderTickRate:1

[Events]
//Background and Video events
0,0,"bg 3.png",0,0
//Break Periods
//Storyboard Layer 0 (Background)
//Storyboard Layer 1 (Fail)
//Storyboard Layer 2 (Pass)
//Storyboard Layer 3 (Foreground)
//Storyboard Sound Samples

[TimingPoints]
1500,333.333333333333,4,2,3,60,1,0
1500,-142.857142857143,4,2,3,40,0,0
10166,-142.857142857143,4,2,55,40,0,0
10249,-142.857142857143,4,2,3,40,0,0
12166,-125,4,2,3,40,0,0
20166,-66.6666666666667,4,2,1,50,0,0
20291,-66.6666666666667,4,2,1,5,0,0
20374,-100,4,2,1,50,0,0
20499,-66.6666666666667,4,2,1,5,0,0
20583,-66.6666666666667,4,2,1,50,0,0
20749,-66.6666666666667,4,2,1,5,0,0
20833,-66.6666666666667,4,2,1,50,0,0
21041,-100,4,2,1,60,0,0
21166,-66.6666666666667,4,2,1,5,0,0
21249,-66.6666666666667,4,2,1,50,0,0
21416,-66.6666666666667,4,2,1,5,0,0
21499,-66.6666666666667,4,2,1,50,0,0
21666,-100,4,2,1,50,0,0
21749,-66.6666666666667,4,2,1,5,0,0
21833,-66.6666666666667,4,2,1,50,0,0
21999,-80,4,2,1,50,0,0
22083,-66.6666666666667,4,2,1,5,0,0
22166,-66.6666666666667,4,2,1,50,0,0
22333,-66.6666666666667,4,2,1,50,0,0
22416,-66.6666666666667,4,2,1,5,0,0
22500,-66.6666666666667,4,2,1,50,0,0
22833,-66.6666666666667,4,2,1,60,0,0
23499,-133.333333333333,4,2,1,60,0,0
23833,-66.6666666666667,4,2,1,60,0,0
24416,-66.6666666666667,4,2,1,5,0,0
24499,-66.6666666666667,4,2,1,60,0,0
24749,-66.6666666666667,4,2,1,5,0,0
24833,-66.6666666666667,4,2,1,60,0,0
25166,-100,4,2,1,60,0,0
25416,-100,4,2,1,5,0,0
25499,-66.6666666666667,4,2,1,60,0,0
26166,-133.333333333333,4,2,1,60,0,0
26499,-66.6666666666667,4,2,1,60,0,0
26999,-80,4,2,1,60,0,0
27083,-100,4,2,1,5,0,0
27165,-66.6666666666667,4,2,1,60,0,0
27332,-57.1428571428571,4,2,1,60,0,0
27416,-100,4,2,1,5,0,0
27499,-66.6666666666667,4,2,1,60,0,0
28833,-133.333333333333,4,2,1,60,0,0
29124,-66.6666666666667,4,2,1,60,0,0
29666,-80,4,2,1,60,0,0
29749,-100,4,2,1,5,0,0
29833,-66.6666666666667,4,2,1,60,0,0
29999,-57.1428571428571,4,2,1,60,0,0
30083,-100,4,2,1,5,0,0
30166,-66.6666666666667,4,2,1,60,0,0
30499,-100,4,2,1,60,0,0
30749,-100,4,2,1,5,0,0
30833,-57.1428571428571,4,2,1,60,0,0
30999,-80,4,2,1,60,0,0
31166,-66.6666666666667,4,2,1,60,0,0
31499,-57.1428571428571,4,2,1,60,0,0
31833,-50,4,2,1,60,0,0
32166,-57.1428571428571,4,2,1,60,0,0
32333,-66.6666666666667,4,2,1,60,0,0
32499,-100,4,2,1,60,0,0
32833,-133.333333333333,4,2,1,60,0,0
33166,-100,4,2,1,60,0,0
33416,-100,4,2,1,5,0,0
33499,-66.6666666666667,4,2,1,60,0,0
34166,-133.333333333333,4,2,1,60,0,0
34499,-66.6666666666667,4,2,1,60,0,0
34833,-80,4,2,1,60,0,0
35833,-100,4,2,1,60,0,0
36166,-66.6666666666667,4,2,1,60,0,0
36833,-133.333333333333,4,2,1,60,0,0
37166,-66.6666666666667,4,2,1,60,0,0
38499,-50,4,2,1,60,0,0
38833,-66.6666666666667,4,2,1,60,0,0
39499,-133.333333333333,4,2,1,60,0,0
39832,-66.6666666666667,4,2,1,60,0,0
40165,-80,4,2,1,60,0,0
40833,-66.6666666666667,4,2,1,60,0,0
41166,-54.054054054054,4,2,1,60,0,0
41499,-100,4,2,1,60,0,0
41833,-80,4,2,1,60,0,0
42166,-66.6666666666667,4,2,1,60,0,0
42499,-57.1428571428571,4,2,1,60,0,0
42833,-74.0740740740741,4,2,1,60,0,0
43166,-40,4,2,1,60,0,0
43499,-100,4,2,1,60,0,0
44083,-100,4,2,1,5,0,0
44166,-50,4,2,2,70,0,1
44499,-57.1428571428571,4,2,2,70,0,1
44833,-50,4,2,2,70,0,1
45499,-57.1428571428571,4,2,2,70,0,1
45749,-66.6666666666667,4,2,2,70,0,1
45833,-50,4,2,2,70,0,1
46083,-66.6666666666667,4,2,2,70,0,1
46166,-45.4545454545455,4,2,2,70,0,1
46499,-100,4,2,1,70,0,0
46749,-66.6666666666667,4,2,1,70,0,0
46833,-50,4,2,2,70,0,1
48333,-40,4,2,2,70,0,1
48833,-50,4,2,2,70,0,1
49166,-40,4,2,2,70,0,1
49416,-66.6666666666667,4,2,2,70,0,1
49499,-50,4,2,2,70,0,1
49749,-50,4,2,2,70,0,1
49833,-57.1428571428571,4,2,1,70,0,1
50166,-50,4,2,1,70,0,1
51166,-57.1428571428571,4,2,1,70,0,1
51416,-66.6666666666667,4,2,1,70,0,1
51499,-40,4,2,1,70,0,1
51833,-100,4,2,1,70,0,0
52083,-66.6666666666667,4,2,1,70,0,0
52166,-50,4,2,2,70,0,1
53499,-74.0740740740741,4,2,2,70,0,1
53833,-100,4,2,2,70,0,1
53999,-66.6666666666667,4,2,2,70,0,1
54166,-50,4,2,2,70,0,1
54333,-40,4,2,2,70,0,1
54499,-333.333333333333,4,2,1,70,0,0
54749,-333.333333333333,4,2,1,70,0,0
54833,-50,4,2,2,70,0,1
55083,-50,4,2,2,70,0,1
55166,-57.1428571428571,4,2,2,70,0,1
55499,-50,4,2,2,70,0,1
56166,-57.1428571428571,4,2,2,70,0,1
56416,-50,4,2,2,70,0,1
56499,-50,4,2,2,70,0,1
56749,-50,4,2,2,70,0,1
56833,-40,4,2,2,70,0,1
57166,-100,4,2,1,70,0,0
57416,-66.6666666666667,4,2,1,70,0,0
57499,-50,4,2,2,70,0,1
58999,-40,4,2,2,70,0,1
59499,-57.1428571428571,4,2,2,70,0,1
59749,-57.1428571428571,4,2,50,70,0,1
59833,-40,4,2,2,70,0,1
59999,-40,4,2,50,70,0,1
60083,-40,4,2,2,70,0,1
60166,-50,4,2,1,70,0,1
61833,-57.1428571428571,4,2,1,70,0,1
62083,-57.1428571428571,4,2,1,70,0,1
62166,-40,4,2,1,70,0,1
62499,-100,4,2,1,70,0,0
62749,-66.6666666666667,4,2,1,70,0,0
62833,-45.4545454545455,4,2,1,70,0,1
63499,-40,4,2,1,70,0,1
64166,-100,4,2,1,60,0,0
66833,-100,4,2,1,40,0,0
67166,-125,4,2,3,40,0,0
76166,-80,4,2,1,60,0,0
76291,-80,4,2,1,5,0,0
76374,-80,4,2,1,60,0,0
76499,-80,4,2,1,5,0,0
76583,-80,4,2,2,60,0,0
76708,-80,4,2,1,5,0,0
76833,-66.6666666666667,4,2,1,60,0,0
76958,-66.6666666666667,4,2,1,5,0,0
77041,-66.6666666666667,4,2,2,60,0,0
77166,-66.6666666666667,4,2,1,5,0,0
77249,-66.6666666666667,4,2,1,60,0,0
77374,-66.6666666666667,4,2,1,5,0,0
77499,-83.3333333333333,4,2,2,60,0,0
78083,-83.3333333333333,4,2,2,5,0,0
78166,-83.3333333333333,4,2,2,60,0,0
79416,-83.3333333333333,4,2,2,5,0,0
79499,-83.3333333333333,4,2,2,60,0,0
80749,-83.3333333333333,4,2,2,5,0,0
80832,-83.3333333333333,4,2,2,60,0,0
82083,-83.3333333333333,4,2,2,5,0,0
82166,-83.3333333333333,4,2,2,60,0,0
83416,-83.3333333333333,4,2,2,5,0,0
83499,-83.3333333333333,4,2,2,60,0,0
84749,-83.3333333333333,4,2,2,5,0,0
84832,-83.3333333333333,4,2,2,60,0,0
86083,-83.3333333333333,4,2,2,5,0,0
86166,-83.3333333333333,4,2,2,60,0,0
86833,-66.6666666666667,4,2,2,60,0,0
86958,-66.6666666666667,4,2,2,5,0,0
87041,-66.6666666666667,4,2,2,60,0,0
87166,-66.6666666666667,4,2,2,5,0,0
87249,-66.6666666666667,4,2,2,60,0,0
87374,-66.6666666666667,4,2,2,5,0,0
87499,-66.6666666666667,4,2,2,60,0,0
87583,-66.6666666666667,4,2,2,5,0,0
87666,-66.6666666666667,4,2,2,60,0,0
87750,-66.6666666666667,4,2,2,5,0,0
87833,-200,4,2,2,60,0,0
88083,-66.6666666666667,4,2,2,5,0,0
88166,-142.857142857143,4,2,1,60,0,0
88249,-142.857142857143,4,2,3,60,0,0
96833,-142.857142857143,4,2,55,40,0,0
96916,-142.857142857143,4,2,3,40,0,0
98833,-100,4,2,1,60,0,0
99083,-100,4,2,1,5,0,0
99166,-100,4,2,1,60,0,0
100083,-100,4,2,1,5,0,0
100166,-100,4,2,1,60,0,0
100416,-100,4,2,1,5,0,0
100499,-100,4,2,1,60,0,0
100749,-100,4,2,1,5,0,0
100832,-100,4,2,1,60,0,0
101749,-100,4,2,1,5,0,0
101832,-100,4,2,1,60,0,0
102083,-100,4,2,1,5,0,0
102166,-100,4,2,1,60,0,0
103416,-100,4,2,1,5,0,0
103499,-100,4,2,1,60,0,0
104749,-100,4,2,1,5,0,0
104832,-100,4,2,1,60,0,0
105083,-100,4,2,1,5,0,0
105166,-100,4,2,1,60,0,0
105416,-100,4,2,1,5,0,0
105499,-100,4,2,1,60,0,0
106833,-80,4,2,1,60,0,0
106958,-80,4,2,1,5,0,0
107041,-80,4,2,1,60,0,0
107166,-80,4,2,1,5,0,0
107250,-80,4,2,1,60,0,0
107375,-80,4,2,1,5,0,0
107499,-66.6666666666667,4,2,1,60,0,0
107625,-66.6666666666667,4,2,1,5,0,0
107708,-66.6666666666667,4,2,1,60,0,0
107833,-66.6666666666667,4,2,1,5,0,0
107916,-66.6666666666667,4,2,1,60,0,0
108041,-66.6666666666667,4,2,1,5,0,0
108166,-133.333333333333,4,2,1,60,0,0
108749,-66.6666666666667,4,2,1,5,0,0
108833,-100,4,2,1,60,0,0
109416,-66.6666666666667,4,2,1,5,0,0
109499,-66.6666666666667,4,2,1,60,0,0
110166,-133.333333333333,4,2,1,60,0,0
110499,-66.6666666666667,4,2,1,60,0,0
110999,-80,4,2,1,60,0,0
111083,-100,4,2,1,5,0,0
111165,-66.6666666666667,4,2,1,60,0,0
111332,-57.1428571428571,4,2,1,60,0,0
111416,-100,4,2,1,5,0,0
111499,-66.6666666666667,4,2,1,60,0,0
111833,-100,4,2,1,60,0,0
112166,-66.6666666666667,4,2,1,60,0,0
112833,-133.333333333333,4,2,1,60,0,0
113166,-66.6666666666667,4,2,1,60,0,0
113499,-80,4,2,1,60,0,0
113666,-66.6666666666667,4,2,1,60,0,0
113749,-100,4,2,1,5,0,0
113833,-80,4,2,1,60,0,0
113999,-66.6666666666667,4,2,1,60,0,0
114083,-100,4,2,1,5,0,0
114166,-80,4,2,1,60,0,0
114499,-100,4,2,1,60,0,0
114749,-100,4,2,1,5,0,0
114833,-66.6666666666667,4,2,1,60,0,0
115499,-133.333333333333,4,2,1,60,0,0
115833,-66.6666666666667,4,2,1,60,0,0
116166,-80,4,2,1,60,0,0
116333,-66.6666666666667,4,2,1,60,0,0
116416,-100,4,2,1,5,0,0
116499,-80,4,2,1,60,0,0
116666,-66.6666666666667,4,2,1,60,0,0
116749,-100,4,2,1,5,0,0
116833,-80,4,2,1,60,0,0
117166,-100,4,2,1,60,0,0
117416,-100,4,2,1,5,0,0
117499,-66.6666666666667,4,2,1,60,0,0
119166,-57.1428571428571,4,2,1,60,0,0
119833,-173.913043478261,4,2,1,60,0,0
120083,-173.913043478261,4,2,1,5,0,0
120166,-66.6666666666667,4,2,1,60,0,0
120833,-133.333333333333,4,2,1,60,0,0
121166,-66.6666666666667,4,2,1,60,0,0
121499,-80,4,2,1,60,0,0
122499,-100,4,2,1,60,0,0
122833,-66.6666666666667,4,2,1,60,0,0
123499,-133.333333333333,4,2,1,60,0,0
123833,-66.6666666666667,4,2,1,60,0,0
124166,-80,4,2,1,60,0,0
124833,-66.6666666666667,4,2,1,60,0,0
125166,-50,4,2,1,60,0,0
125499,-66.6666666666667,4,2,1,60,0,0
126166,-133.333333333333,4,2,1,60,0,0
126499,-66.6666666666667,4,2,1,60,0,0
127833,-54.054054054054,4,2,1,60,0,0
128166,-100,4,2,1,60,0,0
128499,-80,4,2,1,60,0,0
128833,-66.6666666666667,4,2,1,60,0,0
129166,-57.1428571428571,4,2,1,60,0,0
129499,-74.0740740740741,4,2,1,60,0,0
129833,-40,4,2,1,60,0,0
130166,-100,4,2,1,60,0,0
130749,-100,4,2,1,5,0,0
130833,-50,4,2,2,70,0,1
131166,-57.1428571428571,4,2,2,70,0,1
131499,-50,4,2,2,70,0,1
132499,-57.1428571428571,4,2,2,70,0,1
132749,-57.1428571428571,4,2,2,70,0,1
132833,-45.4545454545455,4,2,2,70,0,1
133166,-100,4,2,1,70,0,0
133416,-100,4,2,1,70,0,0
133499,-50,4,2,2,70,0,1
134999,-40,4,2,2,70,0,1
135499,-57.1428571428571,4,2,2,70,0,1
135833,-40,4,2,2,70,0,1
136083,-40,4,2,2,70,0,1
136166,-50,4,2,2,70,0,1
136416,-50,4,2,2,70,0,1
136499,-57.1428571428571,4,2,2,70,0,1
136833,-50,4,2,2,70,0,1
137833,-57.1428571428571,4,2,2,70,0,1
138083,-57.1428571428571,4,2,2,70,0,1
138166,-40,4,2,2,70,0,1
138499,-100,4,2,1,70,0,0
138749,-100,4,2,1,70,0,0
138833,-50,4,2,2,70,0,1
140166,-74.0740740740741,4,2,2,70,0,1
140499,-100,4,2,2,70,0,1
140665,-66.6666666666667,4,2,2,70,0,1
140832,-50,4,2,2,70,0,1
140999,-40,4,2,2,70,0,1
141166,-333.333333333333,4,2,1,70,0,0
141415,-333.333333333333,4,2,1,70,0,0
141499,-50,4,2,2,70,0,1
141749,-50,4,2,2,70,0,1
141833,-50,4,2,2,70,0,1
142833,-57.1428571428571,4,2,2,70,0,1
143083,-50,4,2,2,70,0,1
143166,-50,4,2,2,70,0,1
143416,-50,4,2,2,70,0,1
143499,-45.4545454545455,4,2,2,70,0,1
143833,-100,4,2,1,70,0,0
144083,-50,4,2,1,70,0,0
144166,-50,4,2,2,70,0,1
145666,-40,4,2,2,70,0,1
146166,-57.1428571428571,4,2,2,70,0,1
146416,-57.1428571428571,4,2,50,70,0,1
146499,-40,4,2,2,70,0,1
146666,-40,4,2,50,70,0,1
146749,-40,4,2,2,70,0,1
146833,-50,4,2,2,70,0,1
147083,-50,4,2,2,70,0,1
147166,-57.1428571428571,4,2,1,70,0,1
147499,-50,4,2,1,70,0,1
148499,-57.1428571428571,4,2,1,70,0,1
148749,-57.1428571428571,4,2,1,70,0,1
148833,-40,4,2,1,70,0,1
149166,-100,4,2,1,70,0,0
149416,-100,4,2,1,70,0,0
149499,-40,4,2,1,70,0,1
150833,-74.0740740740741,4,2,1,70,0,1
151166,-40,4,2,1,70,0,1
151499,-100,4,2,1,70,0,1
152083,-100,4,2,1,70,0,1
152166,-66.6666666666667,4,2,2,60,0,0
152749,-66.6666666666667,4,2,2,5,0,0
152833,-57.1428571428571,4,2,2,60,0,0
153166,-80,4,2,2,60,0,0
153333,-57.1428571428571,4,2,2,60,0,0
153833,-66.6666666666667,4,2,2,60,0,0
154166,-57.1428571428571,4,2,2,60,0,0
154833,-66.6666666666667,4,2,2,60,0,0
155083,-66.6666666666667,4,2,2,5,0,0
155166,-66.6666666666667,4,2,2,60,0,0
155499,-57.1428571428571,4,2,2,60,0,0
155833,-80,4,2,2,60,0,0
155999,-57.1428571428571,4,2,2,60,0,0
156833,-50,4,2,2,60,0,0
157499,-66.6666666666667,4,2,2,60,0,0
157749,-66.6666666666667,4,2,2,5,0,0
157833,-66.6666666666667,4,2,2,60,0,0
158166,-57.1428571428571,4,2,2,60,0,0
158499,-80,4,2,2,60,0,0
158666,-57.1428571428571,4,2,2,60,0,0
159416,-57.1428571428571,4,2,2,5,0,0
159499,-57.1428571428571,4,2,2,60,0,0
160166,-57.1428571428571,4,2,2,60,0,0
160416,-66.6666666666667,4,2,2,5,0,0
160499,-66.6666666666667,4,2,2,60,0,0
160833,-50,4,2,2,60,0,0
161499,-66.6666666666667,4,2,2,60,0,0
162166,-50,4,2,2,60,0,0
162499,-333.333333333333,4,2,2,60,0,0
162749,-333.333333333333,4,2,2,5,0,0
162833,-66.6666666666667,4,2,1,60,0,0
163499,-133.333333333333,4,2,1,60,0,0
163833,-66.6666666666667,4,2,1,60,0,0
164166,-80,4,2,1,60,0,0
165166,-100,4,2,1,60,0,0
165499,-66.6666666666667,4,2,1,60,0,0
166166,-133.333333333333,4,2,1,60,0,0
166499,-66.6666666666667,4,2,1,60,0,0
166833,-80,4,2,1,60,0,0
167499,-66.6666666666667,4,2,1,60,0,0
167833,-50,4,2,1,60,0,0
168166,-66.6666666666667,4,2,1,60,0,0
168833,-133.333333333333,4,2,1,60,0,0
169166,-66.6666666666667,4,2,1,60,0,0
170499,-54.054054054054,4,2,1,60,0,0
170833,-100,4,2,1,60,0,0
172166,-74.0740740740741,4,2,1,60,0,0
172499,-40,4,2,1,60,0,0
172833,-100,4,2,1,60,0,0
174833,-142.857142857143,4,2,3,60,0,0

[Colours]
Combo1 : 255,126,64
Combo2 : 165,255,74
Combo3 : 192,192,192

[HitObjects]
63,125,1500,6,0,B|159:81|157:207|252:168,1,209.999993591309
377,54,2166,1,8,0:0:0:0:
377,54,2499,6,0,B|341:45|318:18|318:18|345:159,1,209.999993591309,0|0,0:0|0:0,0:0:0:0:
496,181,3166,2,0,P|453:173|414:194,1,69.9999978637696,0|0,0:0|0:0,0:0:0:0:
364,249,3499,1,8,0:0:0:0:
364,249,3833,2,0,L|376:317,1,69.9999978637696,0|0,0:0|0:0,0:0:0:0:
252,289,4166,6,0,P|319:277|377:321,1,139.999995727539,0|0,0:0|0:0,0:0:0:0:
375,317,4666,1,0,0:0:0:0:
201,358,4833,1,8,0:0:0:0:
201,358,5166,6,0,B|104:425|86:303|-11:366,1,209.999993591309,0|0,0:0|0:0,0:0:0:0:
158,228,5833,2,0,L|146:297,1,69.9999978637696,0|0,0:0|0:0,0:0:0:0:
63,196,6166,1,8,0:0:0:0:
64,196,6499,2,0,L|52:127,1,69.9999978637696,0|0,0:0|0:0,0:0:0:0:
176,45,6833,6,0,B|149:76|110:66|110:66|80:35|35:44,1,139.999995727539,0|0,0:0|0:0,0:0:0:0:
50,42,7333,1,0,0:0:0:0:
169,158,7499,1,8,0:0:0:0:
169,158,7833,6,0,B|265:114|263:240|358:201,1,209.999993591309,0|0,0:0|0:0,0:0:0:0:
354,65,8499,2,0,P|335:94|327:128,1,69.9999978637696,0|0,0:0|0:0,0:0:0:0:
439,260,8833,1,8,0:0:0:0:
439,260,9166,2,0,L|447:164,1,69.9999978637696,0|0,0:0|0:0,0:0:0:0:
383,332,9499,6,0,B|428:358|428:358|522:325,1,139.999995727539,0|0,0:0|0:0,0:0:0:0:
351,238,9999,2,0,B|305:211|305:211|211:244,1,139.999995727539,0|0,0:0|0:0,0:0:0:0:
231,348,10499,6,0,P|264:290|222:239,1,139.999995727539,0|0,0:0|0:0,0:0:0:0:
59,282,10999,1,0,0:0:0:0:
59,282,11166,2,0,P|55:316|76:358,1,69.9999978637696,0|0,0:0|0:0,0:0:0:0:
143,304,11499,2,0,B|137:246|137:246|141:233|141:233|133:211|133:211|130:164,1,139.999995727539,8|0,0:0|0:0,0:0:0:0:
130,166,11999,1,0,0:0:0:0:
48,94,12166,6,0,P|44:131|26:169,1,80,0|0,0:0|0:0,0:0:0:0:
231,148,12499,2,0,P|207:117|196:79,1,80,0|0,0:0|0:0,0:0:0:0:
365,63,12833,5,8,0:0:0:0:
365,63,13166,2,0,L|270:79,1,80,0|0,0:0|0:0,0:0:0:0:
435,112,13499,6,0,L|529:128,1,80,0|0,0:0|0:0,0:0:0:0:
356,148,13833,1,0,0:0:0:0:
443,341,13999,1,0,0:0:0:0:
464,228,14166,5,8,0:0:0:0:
464,228,14499,2,0,L|370:244,1,80,0|0,0:0|0:0,0:0:0:0:
263,357,14833,6,0,P|302:356|340:333,1,80,0|0,0:0|0:0,0:0:0:0:
279,189,15166,2,0,P|287:227|275:265,1,80,0|0,0:0|0:0,0:0:0:0:
188,302,15499,5,8,0:0:0:0:
188,302,15833,2,0,L|109:288,1,80,0|0,0:0|0:0,0:0:0:0:
124,207,16166,6,0,L|203:221,1,80,0|0,0:0|0:0,0:0:0:0:
45,353,16499,1,0,0:0:0:0:
4,228,16666,1,0,0:0:0:0:
153,113,16833,5,8,0:0:0:0:
153,113,17166,2,0,P|161:74|149:36,1,80,0|0,0:0|0:0,0:0:0:0:
0,67,17499,6,0,L|78:80,1,80,0|0,0:0|0:0,0:0:0:0:
124,207,17833,2,0,L|202:193,1,80,0|0,0:0|0:0,0:0:0:0:
242,46,18166,5,8,0:0:0:0:
242,46,18499,2,0,P|233:84|245:122,1,80,0|0,0:0|0:0,0:0:0:0:
358,213,18833,6,0,P|319:213|285:193,1,80,0|0,0:0|0:0,0:0:0:0:
480,133,19166,2,0,P|467:170|438:197,1,80,0|0,0:0|0:0,0:0:0:0:
356,53,19499,5,8,0:0:0:0:
356,53,19833,2,0,L|342:131,1,80,0|0,0:0|0:0,0:0:0:0:
301,297,20166,6,0,B|276:253|275:212|275:212|282:202|290:195,1,112.500004291535,4|0,0:0|0:0,0:0:0:0:
406,205,20374,6,0,P|391:234|386:290,1,75,0|0,0:0|0:0,0:0:0:0:
507,340,20583,6,0,B|439:305|422:384|351:350,1,150.000005722046,0|0,0:0|0:0,0:0:0:0:
301,297,20833,2,0,L|289:245,2,37.5000014305115
218,369,21041,6,0,P|210:336|178:291,1,75
67,236,21249,6,0,B|134:271|152:192|222:228,1,150.000005722046
288,192,21499,6,0,L|299:140,2,37.5000014305115,0|0|0,0:0|0:0|0:0,0:0:0:0:
186,74,21666,2,0,P|198:104|203:137,1,50,0|0,0:0|0:0,0:0:0:0:
296,201,21833,6,0,L|307:149,2,37.5000014305115,0|0|0,0:0|0:0|0:0,0:0:0:0:
404,54,22000,2,0,P|390:84|382:123,1,62.5,0|0,0:0|0:0,0:0:0:0:
304,210,22166,6,0,L|315:158,2,37.5000014305115,0|0|0,0:0|0:0|0:0,0:0:0:0:
166,72,22333,2,0,P|186:104|191:144,1,75.0000028610231,0|0,0:0|0:0,0:0:0:0:
252,303,22499,6,0,L|258:339,2,37.5000014305115,0|0|0,0:0|0:0|0:0,0:0:0:0:
81,192,22666,2,0,L|87:155,2,37.5000014305115,0|0|0,0:0|0:0|0:0,0:0:0:0:
29,283,22833,6,0,B|94:314|106:246|176:280,1,150.000005722046,4|0,0:0|0:0,0:0:0:0:
252,303,23083,5,0,0:0:0:0:
260,316,23166,2,0,B|284:269|284:269|267:174,1,150.000005722046,0|0,0:0|0:0,0:0:0:0:
166,71,23499,6,0,P|173:88|177:106,1,37.5000014305115,0|0,0:0|0:0,0:0:0:0:
364,178,23666,2,0,P|367:159|375:142,1,37.5000014305115,0|0,0:0|0:0,0:0:0:0:
440,59,23833,6,0,B|364:52|364:52|359:48|359:48|269:41,1,150.000005722046,0|0,0:0|0:0,0:0:0:0:
174,202,24166,6,0,L|181:239,2,37.5000014305115,0|0|0,0:0|0:0|0:0,0:0:0:0:
89,80,24333,2,0,B|86:109|86:109|82:113|82:113|78:153,1,75.0000028610231,0|0,0:0|0:0,0:0:0:0:
185,205,24499,6,0,L|192:242,2,37.5000014305115,0|0|0,0:0|0:0|0:0,0:0:0:0:
80,68,24666,2,0,B|77:97|77:97|73:101|73:101|69:141,1,75.0000028610231,0|0,0:0|0:0,0:0:0:0:
51,248,24833,6,0,L|14:240,2,37.5000014305115,0|0|0,0:0|0:0|0:0,0:0:0:0:
195,113,24999,2,0,L|231:105,2,37.5000014305115,0|0|0,0:0|0:0|0:0,0:0:0:0:
260,277,25166,6,0,P|249:213|191:241,1,150,8|0,0:3|0:0,0:0:0:0:
126,287,25500,5,4,0:0:0:0:
126,287,25583,1,0,0:0:0:0:
126,287,25666,2,0,B|123:326|123:326|118:334|118:334|116:361,1,75.0000028610231,0|0,0:0|0:0,0:0:0:0:
2,160,25833,6,0,B|51:140|51:140|141:176,1,150.000005722046,0|0,0:0|0:0,0:0:0:0:
41,265,26166,6,0,P|48:229|48:203,1,37.5000014305115,0|0,0:0|0:0,0:0:0:0:
137,51,26333,2,0,P|130:87|130:113,1,37.5000014305115,0|0,0:0|0:0,0:0:0:0:
220,206,26499,6,0,B|251:141|183:129|217:59,1,150.000005722046,0|0,0:0|0:0,0:0:0:0:
393,53,26833,6,0,L|400:90,2,37.5000014305115,0|0|0,0:0|0:0|0:0,0:0:0:0:
309,227,27000,2,0,P|312:189|325:156,1,62.5,0|0,0:0|0:0,0:0:0:0:
383,47,27166,6,0,L|390:84,2,37.5000014305115,0|0|0,0:0|0:0|0:0,0:0:0:0:
323,242,27333,2,0,P|324:194|342:154,1,87.500000834465,0|0,0:0|0:0,0:0:0:0:
469,149,27500,6,0,L|505:141,2,37.5000014305115,8|0|0,0:3|0:0|0:0,0:0:0:0:
296,71,27666,2,0,L|259:63,2,37.5000014305115,0|0|0,0:0|0:0|0:0,0:0:0:0:
477,35,27833,5,8,0:3:0:0:
420,236,27999,1,0,0:0:0:0:
475,297,28166,5,4,0:0:0:0:
481,322,28249,1,0,0:0:0:0:
474,337,28333,2,0,P|480:300|498:267,1,75.0000028610231,0|0,0:0|0:0,0:0:0:0:
376,171,28499,6,0,B|400:218|400:218|383:313,1,150.000005722046,0|0,0:0|0:0,0:0:0:0:
255,338,28833,6,0,P|236:339|218:338,1,37.5000014305115,0|0,0:0|0:0,0:0:0:0:
239,157,28999,2,0,P|255:158|276:164,1,37.5000014305115,0|0,0:0|0:0,0:0:0:0:
299,255,29166,6,0,B|223:248|223:248|218:244|218:244|128:237,1,150.000005722046,0|0,0:0|0:0,0:0:0:0:
132,104,29499,6,0,L|144:40,2,37.5000014305115,4|0|0,0:0|0:0|0:0,0:0:0:0:
31,287,29666,2,0,P|28:249|15:216,1,62.5,0|0,0:0|0:0,0:0:0:0:
123,111,29833,6,0,L|135:47,2,37.5000014305115,0|0|0,0:0|0:0|0:0,0:0:0:0:
116,319,29999,2,0,P|133:274|161:244,1,87.500000834465,0|0,0:0|0:0,0:0:0:0:
222,95,30166,6,0,L|258:88,2,37.5000014305115,0|0|0,0:0|0:0|0:0,0:0:0:0:
36,144,30333,2,0,L|0:137,2,37.5000014305115,0|0|0,0:0|0:0|0:0,0:0:0:0:
160,246,30499,6,0,B|227:282|270:229|270:229|263:209|266:180,1,150,0|0,0:0|0:0,0:0:0:0:
336,49,30833,6,0,L|330:-14,2,43.7500004172325,4|0|0,0:0|0:0|0:0,0:0:0:0:
348,197,30999,6,0,L|343:135,1,62.5,0|0,0:0|0:0,0:0:0:0:
449,37,31166,6,0,P|431:75|428:113,1,75.0000028610231,0|0,0:0|0:0,0:0:0:0:
221,57,31333,2,0,P|245:91|254:128,1,75.0000028610231,0|0,0:0|0:0,0:0:0:0:
354,306,31499,5,4,0:0:0:0:
245,263,31666,2,0,L|247:308,2,43.7500004172325,0|0|0,0:0|0:0|0:0,0:0:0:0:
372,323,31833,6,0,P|419:297|440:239,1,100,0|0,0:0|0:0,0:0:0:0:
348,197,31999,2,0,P|348:143|309:96,1,100,0|0,0:0|0:0,0:0:0:0:
128,326,32166,6,0,P|78:312|46:263,1,87.500000834465,4|0,0:0|0:0,0:0:0:0:
138,217,32333,2,0,P|132:165|165:118,1,75.0000028610231,0|0,0:0|0:0,0:0:0:0:
251,47,32499,6,0,P|242:82|218:110,1,50,4|0,0:0|0:0,0:0:0:0:
267,172,32665,2,0,P|231:182|196:175,1,50,0|0,0:0|0:0,0:0:0:0:
60,29,32833,5,4,0:0:0:0:
82,23,32916,1,0,0:0:0:0:
102,25,32999,2,0,P|116:45|122:72,1,37.5000014305115,0|0,0:0|0:0,0:0:0:0:
73,249,33166,6,0,B|63:230|47:212|47:212|128:253|181:228,1,150,0|0,0:0|0:0,0:0:0:0:
224,192,33499,6,0,B|250:186|267:172|267:172|244:298,1,150.000005722046,12|0,0:0|0:0,0:0:0:0:
306,358,33749,1,0,0:0:0:0:
319,351,33833,6,0,B|352:182,1,150.000005722046,8|0,0:0|0:0,0:0:0:0:
207,111,34166,6,0,P|202:92|202:73,1,37.5000014305115,8|0,0:0|0:0,0:0:0:0:
403,9,34333,2,0,P|402:27|399:46,1,37.5000014305115,0|0,0:0|0:0,0:0:0:0:
468,152,34499,6,0,B|398:171|398:102|323:123,1,150.000005722046,8|0,0:0|0:0,0:0:0:0:
270,0,34833,6,0,L|278:95,1,62.5,8|0,0:0|0:0,0:0:0:0:
236,265,34999,1,0,0:0:0:0:
190,22,35166,6,0,L|198:117,1,62.5,8|0,0:0|0:0,0:0:0:0:
158,234,35332,1,0,0:0:0:0:
110,44,35499,5,8,0:0:0:0:
110,44,35583,1,0,0:0:0:0:
110,44,35666,2,0,L|118:139,1,62.5,0|0,0:0|0:0,0:0:0:0:
26,346,35833,6,0,P|13:325|9:301,1,50,8|0,0:0|0:0,0:0:0:0:
50,225,36000,2,0,P|61:204|80:187,1,50,0|0,0:0|0:0,0:0:0:0:
114,332,36166,6,0,B|179:363|191:295|261:329,1,150.000005722046,12|0,0:0|0:0,0:0:0:0:
343,244,36416,1,0,0:0:0:0:
351,228,36499,6,0,B|344:304|344:304|340:309|340:309|333:399,1,150.000005722046,8|0,0:0|0:0,0:0:0:0:
445,274,36833,6,0,P|449:255|450:237,1,37.5000014305115,8|0,0:0|0:0,0:0:0:0:
250,199,36999,2,0,P|251:217|255:235,1,37.5000014305115,0|0,0:0|0:0,0:0:0:0:
475,144,37166,6,0,B|428:121|428:121|333:141,1,150.000005722046,8|0,0:0|0:0,0:0:0:0:
186,89,37499,6,0,L|276:69,1,75.0000028610231,8|0,0:0|0:0,0:0:0:0:
364,49,37666,1,0,0:0:0:0:
68,164,37833,6,0,L|158:183,1,75.0000028610231,8|0,0:0|0:0,0:0:0:0:
250,199,38000,1,0,0:0:0:0:
102,84,38166,6,0,B|99:55|99:55|95:51|95:51|91:11,1,75.0000028610231,8|0,0:0|0:0,0:0:0:0:
57,237,38333,2,0,B|61:197|61:197|65:193|65:193|68:164,1,75.0000028610231
296,342,38499,6,0,P|280:306|221:279,1,100,8|0,0:0|0:0,0:0:0:0:
234,195,38666,2,0,P|194:198|150:246,1,100,0|0,0:0|0:0,0:0:0:0:
68,346,38833,6,0,B|137:319|143:388|210:362,1,150.000005722046,12|0,0:0|0:0,0:0:0:0:
296,342,39083,1,0,0:0:0:0:
302,323,39166,6,0,B|289:296|305:260|305:260|336:228|329:182,1,150.000005722046,8|0,0:0|0:0,0:0:0:0:
218,77,39499,6,0,P|219:95|223:113,1,37.5000014305115,8|0,0:0|0:0,0:0:0:0:
406,246,39666,2,0,P|410:227|411:207,1,37.5000014305115,0|0,0:0|0:0,0:0:0:0:
173,186,39833,6,0,B|163:204|146:221|146:221|251:198,1,150.000005722046,8|0,0:0|0:0,0:0:0:0:
365,27,40166,6,0,L|348:121,1,62.5,12|0,0:0|0:0,0:0:0:0:
329,216,40333,1,0,0:0:0:0:
453,83,40499,6,0,L|469:177,1,62.5,8|0,0:0|0:0,0:0:0:0:
488,280,40666,1,0,0:0:0:0:
453,83,40833,6,0,B|439:142|383:154|383:154|351:130|323:137,1,150.000005722046,8|0,0:0|0:0,0:0:0:0:
304,310,41166,6,0,B|334:315|359:331|359:331|379:253|317:206,1,184.999999294281,8|0,0:0|0:0,0:0:0:0:
113,130,41499,6,0,P|133:155|166:169,1,50,8|0,0:0|0:0,0:0:0:0:
142,250,41666,2,0,P|174:253|206:240,1,50,8|0,0:0|0:0,0:0:0:0:
333,64,41833,6,0,P|301:69|272:90,1,62.5,8|0,0:0|0:0,0:0:0:0:
214,29,42000,2,0,P|195:55|190:90,1,62.5,8|0,0:0|0:0,0:0:0:0:
328,215,42166,6,0,B|331:175|331:175|335:175|335:175|331:175|331:175|334:135,1,75.0000028610231,12|0,0:0|0:0,0:0:0:0:
107,63,42333,2,0,B|110:102|110:102|114:102|114:102|110:102|110:102|113:142,1,75.0000028610231,8|0,0:0|0:0,0:0:0:0:
243,306,42499,6,0,B|246:262|246:262|250:262|250:262|246:262|246:262|252:202,1,87.500000834465,8|0,0:0|0:0,0:0:0:0:
21,124,42666,2,0,B|24:167|24:167|28:167|28:167|24:167|24:167|30:227,1,87.500000834465,8|0,0:0|0:0,0:0:0:0:
51,327,42833,6,0,L|59:359,1,33.75,0|0,0:0|0:0,0:0:0:0:
65,321,42916,2,0,L|78:352,1,33.75,0|0,0:0|0:0,0:0:0:0:
78,312,42999,2,0,L|96:340,1,33.75,0|0,0:0|0:0,0:0:0:0:
87,301,43083,2,0,L|109:326,1,33.75,0|0,0:0|0:0,0:0:0:0:
103,227,43166,6,0,B|169:248|159:188|225:208,1,125
275,150,43333,2,0,B|341:129|331:189|397:169,1,125
496,197,43499,6,0,L|505:148,1,50
433,82,43666,2,0,L|424:32,1,50
463,358,43833,6,0,B|436:252|436:252|453:269|471:275,1,150.000005722046,2|0,0:0|0:0,0:0:0:0:
463,358,44166,6,0,B|407:378|367:329|367:329|315:316|277:366,1,200,8|0,0:3|0:0,0:0:0:0:
8,334,44499,6,0,B|-10:294|-10:294|1:251,1,87.500000834465,8|0,0:3|0:0,0:0:0:0:
209,239,44666,2,0,B|225:280|225:280|211:321,1,87.500000834465,0|0,0:0|0:0,0:0:0:0:
112,379,44833,6,0,B|108:335|108:335|110:330|110:330|105:279,1,100,8|0,0:3|0:0,0:0:0:0:
35,96,44999,1,0,0:0:0:0:
35,96,45083,1,0,0:0:0:0:
35,96,45166,6,0,B|86:101|86:101|91:99|91:99|134:103,1,100,8|0,0:3|0:0,0:0:0:0:
109,185,45333,2,0,B|57:180|57:180|52:182|52:182|10:178,1,100,0|0,0:0|0:0,0:0:0:0:
165,27,45499,6,0,B|259:-9|249:98|340:69|340:69|349:29|378:7,1,262.500002503395,8|0,0:3|0:0,0:0:0:0:
473,7,45833,6,0,B|391:-17|308:84|395:164|395:164|420:141|455:142,1,300,8|0,0:3|0:0,0:0:0:0:
461,237,46166,6,0,B|476:220|476:220|472:174|439:140,1,110.000003356934,8|0,0:3|0:0,0:0:0:0:
264,281,46333,2,0,B|248:297|248:297|252:343|285:377,1,110.000003356934
488,320,46499,6,0,B|410:346|415:270|336:301,1,150,2|0,0:0|0:0,0:0:0:0:
264,281,46833,6,0,B|260:237|260:237|262:232|262:232|257:181,1,100,8|0,0:0|0:0,0:0:0:0:
116,154,47000,1,0,0:0:0:0:
116,154,47083,1,0,0:0:0:0:
116,154,47166,6,0,B|154:158|157:193|157:193|130:178|100:184,1,100,8|0,0:0|0:0,0:0:0:0:
299,6,47333,1,0,0:0:0:0:
299,6,47416,1,0,0:0:0:0:
299,6,47499,6,0,B|260:10|257:45|257:45|284:30|314:36,1,100,8|0,0:0|0:0,0:0:0:0:
58,36,47666,1,0,0:0:0:0:
45,44,47749,6,0,B|88:48|88:48|93:46|93:46|144:51,1,100,8|0,0:0|0:0,0:0:0:0:
391,102,47916,1,0,0:0:0:0:
404,110,47999,2,0,B|361:114|361:114|356:112|356:112|305:117,1,100,8|0,0:0|0:0,0:0:0:0:
204,110,48166,5,2,0:0:0:0:
204,110,48333,6,0,B|225:176|165:166|185:232,1,125,8|0,0:0|0:0,0:0:0:0:
92,299,48499,5,8,0:0:0:0:
107,317,48583,1,0,0:0:0:0:
152,336,48666,1,0,0:0:0:0:
222,313,48749,1,0,0:0:0:0:
277,240,48833,6,0,B|316:216|352:236|352:236|362:266|389:278,2,133.333333333333,8|0|0,0:3|0:0|0:0,0:0:0:0:
42,329,49166,6,0,B|78:389|181:356|170:259|101:241|101:241|64:207|87:157|87:157|118:144|129:114,1,375,8|0,0:3|0:0,0:0:0:0:
224,64,49499,6,0,B|150:117|68:78|59:38|59:38|101:-7|101:-7|139:20|163:8,1,300,12|0,0:0|0:0,0:0:0:0:
313,17,49833,6,0,B|331:57|331:57|320:100,1,87.500000834465,8|0,0:0|0:0,0:0:0:0:
494,173,49999,2,0,B|468:208|468:208|425:220,1,87.500000834465,0|0,0:0|0:0,0:0:0:0:
257,258,50166,6,0,B|253:214|253:214|255:209|255:209|250:158,1,100,8|0,0:0|0:0,0:0:0:0:
411,62,50333,1,0,0:0:0:0:
417,49,50416,1,0,0:0:0:0:
423,36,50499,6,0,B|419:80|419:80|421:85|421:85|416:136,1,100,8|0,0:0|0:0,0:0:0:0:
347,322,50666,2,0,B|343:278|343:278|345:273|345:273|340:222,1,100
494,173,50833,5,8,0:0:0:0:
494,173,51166,6,0,B|409:198|416:363|507:352|533:239|392:276,1,262.500002503395,0|0,0:0|0:0,0:0:0:0:
347,322,51499,6,0,B|281:301|291:361|225:341,1,125,0|0,0:0|0:0,0:0:0:0:
42,318,51666,2,0,B|108:339|98:279|164:299,1,125,0|0,0:0|0:0,0:0:0:0:
263,128,51833,6,0,B|234:122|216:102|216:102|236:212,1,150,2|0,0:0|0:0,0:0:0:0:
233,195,52166,6,0,P|169:198|142:160,1,100,8|0,0:3|0:0,0:0:0:0:
22,228,52333,1,0,0:0:0:0:
35,223,52416,1,0,0:0:0:0:
48,218,52499,6,0,B|44:262|44:262|46:267|46:267|41:318,1,100,8|0,0:3|0:0,0:0:0:0:
6,125,52666,2,0,B|2:81|2:81|4:76|4:76|-1:25,1,100,0|0,0:0|0:0,0:0:0:0:
233,195,52833,5,8,0:3:0:0:
221,202,52917,2,0,B|179:228|179:228|142:193,1,100
154,22,53083,1,8,0:3:0:0:
166,14,53167,6,0,B|210:-10|210:-10|245:25,1,100,0|0,0:0|0:0,0:0:0:0:
282,116,53333,2,0,B|231:110|231:110|227:108|227:108|182:103,1,100,8|0,0:3|0:0,0:0:0:0:
392,57,53499,6,0,L|394:24,1,33.75,8|0,0:3|0:0,0:0:0:0:
405,60,53583,2,0,L|412:27,1,33.75,0|0,0:0|0:0,0:0:0:0:
419,65,53666,2,0,L|431:34,1,33.75,0|0,0:0|0:0,0:0:0:0:
431,75,53749,2,0,L|448:46,1,33.75,0|0,0:0|0:0,0:0:0:0:
478,148,53833,6,0,P|470:187|441:211,1,50,0|0,0:0|0:0,0:0:0:0:
487,279,53999,6,0,P|449:291|412:282,1,75.0000028610231,0|0,0:0|0:0,0:0:0:0:
340,344,54166,6,0,P|310:317|299:238,1,100,0|0,0:0|0:0,0:0:0:0:
217,212,54333,6,0,P|225:168|296:113,1,125,0|0,0:0|0:0,0:0:0:0:
392,57,54499,6,0,L|382:113,1,44.999998626709
386,266,54833,6,0,B|390:231|424:202|424:202|306:130|319:258|212:209,1,300,12|0,0:0|0:0,0:0:0:0:
69,50,55166,6,0,B|21:34|21:34|53:82,1,87.500000834465,8|0,0:3|0:0,0:0:0:0:
229,118,55333,2,0,B|277:102|277:102|245:150,1,87.500000834465,0|0,0:0|0:0,0:0:0:0:
130,196,55499,6,0,B|134:152|134:152|132:147|132:147|137:96,1,100,8|0,0:0|0:0,0:0:0:0:
21,248,55666,1,0,0:0:0:0:
34,253,55749,1,0,0:0:0:0:
47,258,55832,6,0,B|43:214|43:214|45:209|45:209|40:158,1,100,8|0,0:3|0:0,0:0:0:0:
92,356,55999,2,0,B|137:367|137:367|192:340,1,100,0|0,0:0|0:0,0:0:0:0:
263,218,56166,6,0,P|206:320|317:321,1,262.500002503395,8|0,0:3|0:0,0:0:0:0:
429,169,56499,6,0,B|400:118|330:116|330:116|284:172|315:246|315:246|343:247|370:270,1,300,8|0,0:3|0:0,0:0:0:0:
473,358,56833,6,0,B|452:292|512:302|492:236,1,125,8|0,0:0|0:0,0:0:0:0:
449,51,56999,2,0,B|470:117|410:107|430:173,1,125,0|0,0:0|0:0,0:0:0:0:
357,260,57166,6,0,B|309:280|309:280|262:256|262:256|261:260|261:260|262:256|262:256|219:232,1,150,2|0,0:0|0:0,0:0:0:0:
229,237,57499,6,0,B|233:193|233:193|231:188|231:188|236:137,1,100,8|0,0:0|0:0,0:0:0:0:
136,179,57667,1,0,0:0:0:0:
136,179,57750,1,0,0:0:0:0:
136,179,57833,6,0,B|141:230|141:230|139:235|139:235|143:279,1,100,8|0,0:0|0:0,0:0:0:0:
231,28,57999,1,0,0:0:0:0:
231,28,58083,1,0,0:0:0:0:
231,28,58166,6,0,B|270:29|276:64|276:64|248:51|218:60,1,100,8|0,0:0|0:0,0:0:0:0:
48,220,58333,1,0,0:0:0:0:
40,208,58417,6,0,B|14:166|14:166|49:128,1,100,8|0,0:0|0:0,0:0:0:0:
229,237,58583,1,0,0:0:0:0:
237,249,58667,2,0,B|263:291|263:291|228:328,1,100,8|0,0:0|0:0,0:0:0:0:
22,314,58833,5,2,0:0:0:0:
22,314,58999,6,0,B|88:293|78:353|144:333,1,125,8|0,0:0|0:0,0:0:0:0:
237,249,59166,2,0,B|303:270|293:210|359:230,1,125,8|0,0:0|0:0,0:0:0:0:
480,321,59333,1,0,0:0:0:0:
480,321,59416,1,0,0:0:0:0:
480,321,59499,6,0,P|508:359|512:411,1,58.3333338896433,8|0,0:0|0:0,0:0:0:0:
395,312,59611,6,0,P|347:317|300:295,1,58.3333338896433,0|0,0:0|0:0,0:0:0:0:
442,243,59722,6,0,P|460:198|503:169,1,58.3333338896433,0|0,0:0|0:0,0:0:0:0:
418,128,59833,6,0,B|398:8|489:31|489:31|486:100|416:90|416:90|372:109|359:59|308:67,1,375
236,108,60166,6,0,B|175:159|107:106|107:106|107:68|76:47,1,200,12|0,0:0|0:0,0:0:0:0:
130,311,60499,6,0,B|135:260|135:260|133:255|133:255|137:211,1,100,8|0,0:0|0:0,0:0:0:0:
21,111,60666,1,0,0:0:0:0:
21,111,60749,1,0,0:0:0:0:
21,111,60832,6,0,B|25:155|25:155|23:160|23:160|28:211,1,100,8|0,0:0|0:0,0:0:0:0:
35,315,60999,1,0,0:0:0:0:
35,315,61083,1,0,0:0:0:0:
35,315,61166,6,0,B|61:332|90:324|90:324|112:308|141:311,1,100,8|0,0:0|0:0,0:0:0:0:
231,240,61333,2,0,B|257:223|286:231|286:231|308:247|337:244,1,100,0|0,0:0|0:0,0:0:0:0:
414,352,61499,5,8,0:0:0:0:
414,352,61833,6,0,B|493:312|457:151|370:177|364:293|496:232,1,262.500002503395,8|0,0:0|0:0,0:0:0:0:
491,143,62166,5,8,0:0:0:0:
473,20,62333,6,0,B|485:87|485:87|482:95|482:95|491:143,1,125,0|0,0:0|0:0,0:0:0:0:
469,242,62499,6,0,B|397:282|389:206|317:250,1,150,2|0,0:0|0:0,0:0:0:0:
223,338,62833,6,0,B|228:284|228:284|226:278|226:278|231:229,1,110.000003356934,8|0,0:0|0:0,0:0:0:0:
164,44,62999,2,0,B|169:98|169:98|167:104|167:104|172:154,1,110.000003356934,8|0,0:0|0:0,0:0:0:0:
143,354,63166,6,0,B|147:304|147:304|145:298|145:298|150:244,1,110.000003356934,8|0,0:0|0:0,0:0:0:0:
84,29,63333,2,0,B|88:78|88:78|86:84|86:84|91:142,1,110.000003356934,8|0,0:0|0:0,0:0:0:0:
32,264,63499,6,0,B|98:285|88:225|154:245,1,125,8|0,0:0|0:0,0:0:0:0:
266,150,63666,1,8,0:3:0:0:
266,150,63749,1,8,0:3:0:0:
266,150,63833,6,0,B|332:129|322:189|388:169,1,125,8|0,0:0|0:0,0:0:0:0:
404,343,63999,2,0,B|404:273|458:301|459:232,1,125,8|0,0:0|0:0,0:0:0:0:
469,47,64166,5,4,0:0:0:0:
256,192,64249,12,0,66833,0:0:0:0:
87,358,67166,6,0,P|90:319|77:282,1,80,0|0,0:0|0:0,0:0:0:0:
43,205,67499,2,0,B|127:170|119:256|206:224,1,160,8|0,0:0|0:0,0:0:0:0:
284,166,67999,1,0,0:0:0:0:
221,96,68166,5,0,0:0:0:0:
309,249,68333,2,0,B|315:169|315:169|312:160|312:160|318:89,1,160,0|0,0:0|0:0,0:0:0:0:
496,83,68833,1,8,0:0:0:0:
442,154,68999,2,0,P|416:123|405:85,1,80,0|0,0:0|0:0,0:0:0:0:
427,241,69333,1,0,0:0:0:0:
512,210,69499,6,0,P|518:249|509:287,1,80,0|0,0:0|0:0,0:0:0:0:
384,340,69833,1,0,0:0:0:0:
329,213,69999,1,0,0:0:0:0:
267,318,70166,1,8,0:0:0:0:
336,223,70333,1,0,0:0:0:0:
185,340,70499,6,0,P|165:305|161:266,1,80,0|0,0:0|0:0,0:0:0:0:
198,169,70833,5,0,0:0:0:0:
68,345,70999,2,0,B|62:274|62:274|65:265|65:265|59:186,1,160,0|0,0:0|0:0,0:0:0:0:
40,73,71499,2,0,P|79:95|129:95,1,80,8|0,0:0|0:0,0:0:0:0:
195,41,71833,2,0,P|237:26|286:34,1,80,0|0,0:0|0:0,0:0:0:0:
329,93,72166,5,0,0:0:0:0:
268,156,72499,6,0,P|307:178|357:178,1,80,0|0,0:0|0:0,0:0:0:0:
454,56,72833,2,0,B|429:49|409:32|409:32|432:148,1,160,8|0,0:0|0:0,0:0:0:0:
452,314,73333,1,0,0:0:0:0:
512,247,73499,6,0,P|471:227|421:229,1,80,0|0,0:0|0:0,0:0:0:0:
361,342,73833,1,0,0:0:0:0:
308,215,73999,1,0,0:0:0:0:
369,349,74166,2,0,B|285:384|293:298|206:330,1,160,8|0,0:0|0:0,0:0:0:0:
48,298,74666,1,0,0:0:0:0:
112,361,74833,6,0,P|132:326|136:287,1,80,0|0,0:0|0:0,0:0:0:0:
52,209,75166,1,0,0:0:0:0:
143,62,75333,1,0,0:0:0:0:
53,51,75499,2,0,P|57:90|77:124,1,80,8|0,0:0|0:0,0:0:0:0:
136,186,75833,2,0,P|174:194|213:186,1,80,0|0,0:0|0:0,0:0:0:0:
344,47,76166,6,0,B|335:23|348:1|348:1|353:25|374:40,1,93.75,8|0,0:3|0:0,0:0:0:0:
475,133,76374,2,0,B|499:136|512:158|512:158|487:151|464:162,1,93.75,8|0,0:3|0:0,0:0:0:0:
334,202,76583,2,0,B|317:221|292:220|292:220|310:203|312:177,1,93.75,8|0,0:0|0:0,0:0:0:0:
451,34,76833,6,0,B|471:9|504:9|504:9|481:30|477:63,1,112.500004291535,8|0,0:3|0:0,0:0:0:0:
433,233,77041,2,0,B|443:263|427:290|427:290|420:260|392:241,1,112.500004291535,8|0,0:0|0:0,0:0:0:0:
269,117,77249,2,0,B|236:111|220:83|220:83|251:91|280:78,1,112.500004291535,8|0,0:3|0:0,0:0:0:0:
390,134,77499,6,0,B|412:166|412:166|396:260,1,119.999996337891,4|0,0:0|0:0,0:0:0:0:
240,305,77833,2,0,B|273:265|325:284|325:284|350:330|398:326,1,179.999994506836,8|0,0:0|0:0,0:0:0:0:
473,294,78166,5,0,0:0:0:0:
473,294,78333,2,0,L|483:234,1,59.9999981689454,8|0,0:3|0:0,0:0:0:0:
291,80,78499,2,0,B|301:139|301:139|298:147|298:147|311:218,1,119.999996337891,8|0,0:0|0:0,0:0:0:0:
499,150,78833,5,0,0:0:0:0:
398,246,78999,1,8,0:3:0:0:
502,40,79166,2,0,B|453:109|375:67|375:67|368:34|343:23,1,179.999994506836,8|0,0:0|0:0,0:0:0:0:
291,80,79499,5,0,0:0:0:0:
291,80,79666,2,0,L|231:69,1,59.9999981689454,8|0,0:3|0:0,0:0:0:0:
149,157,79833,2,0,B|139:98|139:98|142:90|142:90|129:19,1,119.999996337891,8|0,0:0|0:0,0:0:0:0:
0,197,80166,6,0,P|64:197|116:253,1,119.999996337891,8|0,0:3|0:0,0:0:0:0:
240,247,80500,2,0,B|174:261|162:328|162:328|193:320|221:330,1,179.999994506836,8|0,0:0|0:0,0:0:0:0:
292,364,80833,5,0,0:0:0:0:
292,364,81000,2,0,L|352:353,1,59.9999981689454,8|0,0:3|0:0,0:0:0:0:
456,246,81166,6,0,B|478:278|478:278|462:372,1,119.999996337891,8|0,0:0|0:0,0:0:0:0:
354,264,81500,5,0,0:0:0:0:
497,164,81666,1,8,0:3:0:0:
337,94,81833,2,0,P|328:165|419:132,1,179.999994506836,8|0,0:0|0:0,0:0:0:0:
458,87,82166,5,0,0:0:0:0:
458,87,82333,2,0,L|447:27,1,59.9999981689454,8|0,0:3|0:0,0:0:0:0:
260,15,82499,5,8,0:0:0:0:
260,15,82666,2,0,L|249:75,1,59.9999981689454,0|0,0:0|0:0,0:0:0:0:
166,182,82833,6,0,B|156:123|156:123|159:115|159:115|146:44,1,119.999996337891,8|0,0:3|0:0,0:0:0:0:
29,255,83166,2,0,B|64:292|64:292|127:281|127:281|128:285|128:285|127:281|127:281|182:271,1,179.999994506836,8|0,0:0|0:0,0:0:0:0:
271,256,83499,5,0,0:0:0:0:
271,256,83666,2,0,L|260:316,1,59.9999981689454,8|0,0:3|0:0,0:0:0:0:
453,351,83833,2,0,B|419:371|419:371|326:350,1,119.999996337891,8|0,0:0|0:0,0:0:0:0:
293,172,84166,5,0,0:0:0:0:
405,283,84333,1,8,0:3:0:0:
338,80,84499,6,0,B|305:155|378:203|378:203|410:193|432:209,1,179.999994506836,8|0,0:0|0:0,0:0:0:0:
405,283,84833,5,0,0:0:0:0:
405,283,84999,2,0,L|394:343,1,59.9999981689454,8|0,0:3|0:0,0:0:0:0:
500,184,85166,2,0,B|490:125|490:125|493:117|493:117|479:46,1,119.999996337891,8|0,0:0|0:0,0:0:0:0:
338,80,85499,6,0,P|291:115|232:113,1,119.999996337891,8|0,0:3|0:0,0:0:0:0:
69,54,85833,2,0,B|97:49|119:24|119:24|98:142,1,179.999994506836,8|0,0:0|0:0,0:0:0:0:
62,239,86167,5,0,0:0:0:0:
62,239,86333,2,0,L|122:228,1,59.9999981689454,8|0,0:3|0:0,0:0:0:0:
155,319,86499,2,0,B|96:329|96:329|88:326|88:326|17:339,1,119.999996337891,8|0,0:0|0:0,0:0:0:0:
212,152,86833,6,0,B|184:135|153:146|153:146|182:158|197:188,1,112.500004291535,8|0,0:3|0:0,0:0:0:0:
297,332,87041,2,0,B|297:363|322:383|322:383|318:352|338:325,1,112.500004291535,8|0,0:3|0:0,0:0:0:0:
411,166,87249,2,0,B|439:149|445:117|445:117|419:135|387:133,1,112.500004291535,8|0,0:0|0:0,0:0:0:0:
212,275,87499,6,0,P|178:291|155:320,1,75.0000028610231,8|0,0:3|0:0,0:0:0:0:
297,113,87666,2,0,P|300:75|286:41,1,75.0000028610231,8|0,0:0|0:0,0:0:0:0:
394,267,87833,2,0,P|424:288|461:294,1,75.0000028610231,8|0,0:0|0:0,0:0:0:0:
479,290,88166,6,0,B|411:271|415:359|344:334,1,139.999995727539,4|0,0:0|0:0,0:0:0:0:
272,292,88666,1,0,0:0:0:0:
272,292,88833,2,0,P|269:258|256:224,1,69.9999978637696,0|0,0:0|0:0,0:0:0:0:
172,255,89166,6,0,P|189:296|122:348,1,139.999995727539,0|0,0:0|0:0,0:0:0:0:
71,277,89666,1,0,0:0:0:0:
71,277,89833,2,0,P|38:264|3:261,1,69.9999978637696,0|0,0:0|0:0,0:0:0:0:
64,178,90166,2,0,P|98:175|131:162,1,69.9999978637696,0|0,0:0|0:0,0:0:0:0:
63,43,90499,6,0,B|134:22|127:87|200:71,1,139.999995727539,0|0,0:0|0:0,0:0:0:0:
274,20,90999,1,0,0:0:0:0:
274,20,91166,2,0,P|308:23|341:35,1,69.9999978637696,0|0,0:0|0:0,0:0:0:0:
331,149,91499,2,0,P|365:145|398:133,1,69.9999978637696,8|0,0:0|0:0,0:0:0:0:
452,41,91833,6,0,P|442:109|456:178,1,139.999995727539,0|0,0:0|0:0,0:0:0:0:
379,332,92333,1,0,0:0:0:0:
510,282,92499,6,0,B|441:251|435:323|372:300,1,139.999995727539,0|8,0:0|0:0,0:0:0:0:
278,231,92999,1,0,0:0:0:0:
278,231,93166,2,0,P|281:265|293:298,1,69.9999978637696,0|0,0:0|0:0,0:0:0:0:
179,347,93499,6,0,P|191:314|194:279,1,69.9999978637696,0|0,0:0|0:0,0:0:0:0:
29,223,93833,2,0,P|32:292|57:357,1,139.999995727539,0|8,0:0|0:0,0:0:0:0:
134,191,94333,1,0,0:0:0:0:
134,191,94499,6,0,P|64:183|0:158,1,139.999995727539,0|0,0:0|0:0,0:0:0:0:
69,30,94999,1,0,0:0:0:0:
69,30,95166,2,0,P|72:64|84:97,1,69.9999978637696,0|0,0:0|0:0,0:0:0:0:
217,148,95499,1,8,0:0:0:0:
169,45,95666,2,0,B|238:14|244:86|307:63,1,139.999995727539,0|0,0:0|0:0,0:0:0:0:
435,23,96166,6,0,P|392:68|396:155,1,139.999995727539,0|0,0:0|0:0,0:0:0:0:
471,241,96666,2,0,P|453:181|376:141,1,139.999995727539,0|0,0:0|0:0,0:0:0:0:
251,258,97166,2,0,P|311:272|385:225,1,139.999995727539,0|0,0:0|0:0,0:0:0:0:
300,174,97666,5,0,0:0:0:0:
176,338,97833,2,0,P|173:304|161:270,1,69.9999978637696,0|0,0:0|0:0,0:0:0:0:
64,215,98166,2,0,P|61:249|49:283,1,69.9999978637696,8|0,0:0|0:0,0:0:0:0:
157,34,98499,2,0,P|184:53|208:80,1,69.9999978637696,0|0,0:0|0:0,0:0:0:0:
12,142,98833,6,0,B|50:118|50:118|174:149,1,150,8|0,0:0|0:0,0:0:0:0:
195,210,99166,2,0,B|186:257|186:257|189:261|189:261|179:320,1,100,8|0,0:0|0:0,0:0:0:0:
258,155,99499,2,0,B|249:107|249:107|252:103|252:103|242:44,1,100,8|0,0:0|0:0,0:0:0:0:
315,218,99833,2,0,P|383:226|413:154,1,150,8|0,0:0|0:0,0:0:0:0:
406,156,100166,6,0,B|370:223|423:266|423:266|443:259|472:262,1,150,8|0,0:0|0:0,0:0:0:0:
492,342,100499,2,0,B|417:312|417:391|341:354,1,150,8|0,0:0|0:0,0:0:0:0:
298,302,100833,2,0,B|262:282|262:282|186:302,1,100,8|0,0:0|0:0,0:0:0:0:
134,357,101166,2,0,B|98:377|98:377|22:357,1,100,8|0,0:0|0:0,0:0:0:0:
43,173,101499,6,0,P|103:205|86:281,1,150,8|0,0:0|0:0,0:0:0:0:
81,274,101833,2,0,B|96:199|164:200|164:200|175:218|199:235,1,150,8|0,0:0|0:0,0:0:0:0:
234,159,102166,2,0,B|225:112|225:112|228:108|228:108|218:49,1,100,8|0,0:0|0:0,0:0:0:0:
315,219,102499,2,0,B|324:172|324:172|321:168|321:168|331:109,1,100,8|0,0:0|0:0,0:0:0:0:
343,35,102833,5,8,0:0:0:0:
414,169,102999,1,0,0:0:0:0:
483,34,103166,2,0,B|445:10|445:10|321:41,1,150,8|0,0:0|0:0,0:0:0:0:
270,57,103499,1,8,0:0:0:0:
414,169,103666,1,0,0:0:0:0:
414,169,103833,2,0,B|461:177|461:177|465:174|465:174|512:183,1,100,8|0,0:0|0:0,0:0:0:0:
315,219,104166,6,0,B|268:226|268:226|264:223|264:223|217:232,1,100,8|0,0:0|0:0,0:0:0:0:
158,115,104499,2,0,P|125:175|49:158,1,150,8|0,0:0|0:0,0:0:0:0:
51,154,104833,2,0,B|15:221|68:264|68:264|83:258|117:260,1,150,8|0,0:0|0:0,0:0:0:0:
75,341,105166,2,0,B|150:311|150:390|226:353,1,150,8|0,0:0|0:0,0:0:0:0:
275,305,105499,6,0,B|266:258|266:258|269:254|269:254|259:195,1,100,8|0,0:0|0:0,0:0:0:0:
363,355,105833,2,0,B|372:308|372:308|369:304|369:304|379:245,1,100,8|0,0:0|0:0,0:0:0:0:
402,80,106166,1,8,0:0:0:0:
499,174,106333,1,0,0:0:0:0:
499,174,106499,2,0,B|463:194|463:194|387:174,1,100,8|0,0:0|0:0,0:0:0:0:
198,79,106833,6,0,B|210:54|237:50|237:50|220:70|223:98,1,93.75,12|0,0:0|0:0,0:0:0:0:
215,241,107040,2,0,B|227:262|219:286|219:286|207:262|183:250,1,93.75,8|0,0:0|0:0,0:0:0:0:
66,173,107249,2,0,B|38:171|22:151|22:151|48:153|71:137,1,93.75,8|0,0:0|0:0,0:0:0:0:
279,155,107499,6,0,B|311:153|334:179|334:179|302:176|272:194,1,112.500004291535,8|0,0:0|0:0,0:0:0:0:
107,274,107707,2,0,B|88:301|56:307|56:307|75:280|72:245,1,112.500004291535,8|0,0:0|0:0,0:0:0:0:
89,64,107915,2,0,B|70:32|82:2|82:2|97:31|127:46,1,112.500004291535,8|0,0:0|0:0,0:0:0:0:
164,168,108166,6,0,B|147:108|236:71|278:138|264:224|194:250,1,262.500010013581,12|0,0:0|0:0,0:0:0:0:
43,339,108833,102,0,B|-66:313|-4:137|183:208|70:341|172:339|216:325,1,350,0|0,0:0|0:0,0:0:0:0:
293,282,109499,6,0,L|287:319,2,37.5000014305115,4|0|4,0:0|0:0|0:0,0:0:0:0:
304,199,109666,1,0,0:0:0:0:
431,299,109833,6,0,B|386:266|386:266|291:283,1,150.000005722046,0|0,0:0|0:0,0:0:0:0:
501,340,110166,6,0,P|509:323|512:304,1,37.5000014305115,0|0,0:0|0:0,0:0:0:0:
370,141,110333,2,0,P|373:159|381:176,1,37.5000014305115,0|0,0:0|0:0,0:0:0:0:
464,217,110499,6,0,B|471:141|471:141|475:136|475:136|482:46,1,150.000005722046,0|0,0:0|0:0,0:0:0:0:
274,140,110833,6,0,L|237:146,2,37.5000014305115,0|0|0,0:0|0:0|0:0,0:0:0:0:
387,9,110999,2,0,P|360:45|320:66,1,62.5,0|0,0:0|0:0,0:0:0:0:
269,150,111166,6,0,L|232:156,2,37.5000014305115,0|0|0,0:0|0:0|0:0,0:0:0:0:
402,9,111333,2,0,P|371:59|331:78,1,87.500000834465,0|0,0:0|0:0,0:0:0:0:
246,244,111499,6,0,L|240:281,2,37.5000014305115,0|0|0,0:0|0:0|0:0,0:0:0:0:
252,53,111666,2,0,L|233:20,2,37.5000014305115,0|0|0,0:0|0:0|0:0,0:0:0:0:
163,212,111833,6,0,B|96:248|53:195|53:195|60:175|57:146,1,150,8|0,0:3|0:0,0:0:0:0:
64,159,112166,6,0,B|60:119|60:119|56:115|56:115|52:71,1,75.0000028610231,4|0,0:0|0:0,0:0:0:0:
157,40,112333,2,0,B|153:79|153:79|149:83|149:83|145:127,1,75.0000028610231,0|0,0:0|0:0,0:0:0:0:
77,304,112499,6,0,P|94:234|162:211,1,150.000005722046,0|0,0:0|0:0,0:0:0:0:
214,344,112833,6,0,L|251:340,1,37.5000014305115,0|0,0:0|0:0,0:0:0:0:
319,242,112999,2,0,L|356:245,1,37.5000014305115,0|0,0:0|0:0,0:0:0:0:
428,356,113166,6,0,B|397:291|465:279|430:209,1,150.000005722046,0|0,0:0|0:0,0:0:0:0:
372,26,113499,6,0,L|362:80,2,31.25,0|0|0,0:0|0:0|0:0,0:0:0:0:
492,138,113666,2,0,P|445:134|413:110,1,75.0000028610231,0|0,0:0|0:0,0:0:0:0:
363,15,113833,6,0,L|353:69,2,31.25,0|0|0,0:0|0:0|0:0,0:0:0:0:
274,167,113999,2,0,P|319:154|346:125,1,75.0000028610231,0|0,0:0|0:0,0:0:0:0:
363,15,114166,6,0,L|353:69,2,31.25,8|0|0,0:3|0:0|0:0,0:0:0:0:
403,233,114333,2,0,L|393:179,2,31.25
265,76,114499,6,0,B|205:28|153:73|153:73|157:94|149:122,1,150,8|0,0:3|0:0,0:0:0:0:
67,88,114833,5,4,0:0:0:0:
67,88,114916,1,0,0:0:0:0:
67,88,114999,2,0,B|71:128|71:128|75:132|75:132|79:176,1,75.0000028610231,0|0,0:0|0:0,0:0:0:0:
149,336,115166,6,0,B|156:260|156:260|160:255|160:255|167:165,1,150.000005722046,0|0,0:0|0:0,0:0:0:0:
33,259,115499,6,0,P|54:259|78:254,1,37.5000014305115,0|0,0:0|0:0,0:0:0:0:
153,99,115666,2,0,P|174:99|198:104,1,37.5000014305115,0|0,0:0|0:0,0:0:0:0:
245,259,115833,6,0,P|294:311|365:297,1,150.000005722046,0|0,0:0|0:0,0:0:0:0:
397,182,116166,6,0,L|387:128,2,31.25,4|0|0,0:0|0:0|0:0,0:0:0:0:
451,334,116333,2,0,B|455:294|455:294|459:290|459:290|463:246,1,75.0000028610231,0|0,0:0|0:0,0:0:0:0:
385,177,116499,6,0,L|375:123,2,31.25,0|0|0,0:0|0:0|0:0,0:0:0:0:
460,346,116666,2,0,B|464:306|464:306|468:302|468:302|472:258,1,75.0000028610231,0|0,0:0|0:0,0:0:0:0:
288,175,116833,6,0,L|234:165,2,31.25
446,79,116999,2,0,L|500:69,2,31.25
265,42,117166,6,0,P|289:77|326:9,1,150,0|0,0:0|0:0,0:0:0:0:
254,34,117499,6,0,B|189:65|177:-3|107:32,1,150.000005722046,4|0,0:0|0:0,0:0:0:0:
53,202,117833,6,0,B|8:217|8:217|31:181,1,75.0000028610231,0|0,0:0|0:0,0:0:0:0:
215,131,117999,2,0,B|260:146|260:146|237:110,1,75.0000028610231,0|0,0:0|0:0,0:0:0:0:
110,30,118166,6,0,L|126:124,1,75.0000028610231,4|0,0:0|0:0,0:0:0:0:
145,212,118333,2,0,L|135:158,2,37.5000014305115,0|0|0,0:0|0:0|0:0,0:0:0:0:
60,352,118499,6,0,B|100:356|100:356|104:360|104:360|148:364,1,75.0000028610231,0|0,0:0|0:0,0:0:0:0:
182,286,118666,2,0,B|222:282|222:282|226:278|226:278|270:274,1,75.0000028610231
384,364,118833,6,0,P|370:312|348:290,1,75.0000028610231,4|0,0:0|0:0,0:0:0:0:
402,219,118999,2,0,P|349:205|319:213,1,75.0000028610231,0|0,0:0|0:0,0:0:0:0:
145,212,119166,6,0,P|159:264|196:294,1,87.500000834465,4|0,0:0|0:0,0:0:0:0:
134,363,119333,2,0,P|186:376|231:360,1,87.500000834465,0|0,0:0|0:0,0:0:0:0:
260,160,119499,5,4,0:0:0:0:
252,144,119583,1,0,0:0:0:0:
243,128,119666,2,0,B|239:168|239:168|235:172|235:172|231:216,1,87.500000834465,0|0,0:0|0:0,0:0:0:0:
298,363,119833,6,0,B|294:323|294:323|290:319|290:319|286:275,1,86.2500016450882,4|0,0:0|0:0,0:0:0:0:
292,269,120166,6,0,B|359:233|402:286|402:286|395:306|398:335,1,150,12|0,0:0|0:0,0:0:0:0:
496,344,120416,1,0,0:0:0:0:
480,355,120499,6,0,B|450:280|529:280|492:204,1,150.000005722046,8|0,0:0|0:0,0:0:0:0:
366,135,120833,6,0,P|367:153|372:174,1,37.5000014305115,8|0,0:0|0:0,0:0:0:0:
504,82,120999,2,0,P|508:63|509:45,1,37.5000014305115,0|0,0:0|0:0,0:0:0:0:
303,62,121166,6,0,B|344:106|399:88|399:88|414:51|442:43,1,150.000005722046,8|0,0:0|0:0,0:0:0:0:
204,34,121499,6,0,L|215:97,1,62.5,8|0,0:0|0:0,0:0:0:0:
201,255,121666,1,0,0:0:0:0:
117,20,121833,6,0,L|128:83,1,62.5,8|0,0:0|0:0,0:0:0:0:
121,228,121999,1,0,0:0:0:0:
30,6,122166,5,8,0:0:0:0:
30,6,122249,1,0,0:0:0:0:
30,6,122333,2,0,L|41:69,1,62.5,0|0,0:0|0:0,0:0:0:0:
17,317,122499,6,0,P|4:296|0:272,1,50,8|0,0:0|0:0,0:0:0:0:
41,196,122666,2,0,P|52:175|71:158,1,50,0|0,0:0|0:0,0:0:0:0:
110,351,122833,6,0,B|177:387|220:334|220:334|213:314|216:285,1,150,8|0,0:0|0:0,0:0:0:0:
301,302,123083,1,0,0:0:0:0:
310,318,123166,6,0,B|386:323|386:323|391:327|391:327|481:333,1,150.000005722046,8|0,0:0|0:0,0:0:0:0:
254,225,123499,6,0,L|248:189,1,37.5000014305115,8|0,0:0|0:0,0:0:0:0:
484,188,123666,2,0,L|490:151,1,37.5000014305115,0|0,0:0|0:0,0:0:0:0:
387,5,123833,6,0,B|343:46|361:101|361:101|398:116|406:144,1,150.000005722046,8|0,0:0|0:0,0:0:0:0:
345,238,124166,6,0,L|333:174,1,62.5,8|0,0:0|0:0,0:0:0:0:
262,82,124333,1,0,0:0:0:0:
265,287,124499,6,0,L|253:223,1,62.5,8|0,0:0|0:0,0:0:0:0:
186,54,124666,1,0,0:0:0:0:
32,280,124833,6,0,B|61:277|61:277|65:273|65:273|105:269,1,75.0000028610231,8|0,0:0|0:0,0:0:0:0:
254,225,124999,2,0,B|224:222|224:222|220:218|220:218|180:214,1,75.0000028610231,0|0,0:0|0:0,0:0:0:0:
112,0,125166,6,0,P|94:51|105:95,1,100,8|0,0:0|0:0,0:0:0:0:
16,131,125332,2,0,P|52:171|95:184,1,100,0|0,0:0|0:0,0:0:0:0:
247,365,125499,6,0,B|306:373|337:324|337:324|326:286|343:262,1,150.000005722046,12|0,0:0|0:0,0:0:0:0:
433,309,125749,1,0,0:0:0:0:
420,324,125833,6,0,B|390:249|469:249|432:173,1,150.000005722046,8|0,0:0|0:0,0:0:0:0:
480,45,126166,6,0,L|416:56,1,37.5000014305115,8|0,0:0|0:0,0:0:0:0:
357,207,126333,2,0,L|293:195,1,37.5000014305115,0|0,0:0|0:0,0:0:0:0:
232,121,126499,6,0,B|279:98|279:98|374:118,1,150.000005722046
222,278,126833,6,0,L|202:188,1,75.0000028610231,12|0,0:0|0:0,0:0:0:0:
175,62,127000,1,0,0:0:0:0:
71,219,127166,6,0,L|91:129,1,75.0000028610231,8|0,0:0|0:0,0:0:0:0:
118,3,127333,1,0,0:0:0:0:
2,264,127499,6,0,P|88:300|140:265,1,150.000005722046,8|0,0:0|0:0,0:0:0:0:
252,113,127833,6,0,B|185:135|180:207|180:207|212:229|213:272,1,184.999999294281,8|0,0:0|0:0,0:0:0:0:
494,206,128166,6,0,P|474:192|448:187,1,50,12|0,0:0|0:0,0:0:0:0:
418,107,128333,2,0,P|395:117|378:137,1,50,8|0,0:0|0:0,0:0:0:0:
329,366,128499,6,0,P|351:355|373:322,1,62.5,8|0,0:0|0:0,0:0:0:0:
457,334,128666,2,0,P|459:309|441:273,1,62.5,8|0,0:0|0:0,0:0:0:0:
282,219,128833,6,0,B|285:249|285:249|289:253|289:253|293:293,1,75.0000028610231,12|0,0:0|0:0,0:0:0:0:
494,206,128999,2,0,B|497:176|497:176|501:172|501:172|504:133,1,75.0000028610231,8|0,0:0|0:0,0:0:0:0:
183,174,129166,6,0,B|188:215|188:215|192:220|192:220|197:266,1,87.500000834465,8|0,0:0|0:0,0:0:0:0:
418,107,129333,2,0,B|423:65|423:65|427:60|427:60|432:22,1,87.500000834465,8|0,0:0|0:0,0:0:0:0:
111,41,129499,6,0,L|100:9,1,33.75,0|0,0:0|0:0,0:0:0:0:
98,48,129583,2,0,L|82:18,1,33.75,0|0,0:0|0:0,0:0:0:0:
87,56,129666,2,0,L|66:29,1,33.75,0|0,0:0|0:0,0:0:0:0:
77,70,129749,2,0,L|52:47,1,33.75,0|0,0:0|0:0,0:0:0:0:
65,153,129833,6,0,B|131:132|121:192|187:172,1,125
394,114,129999,2,0,B|328:93|338:153|272:133,1,125
273,268,130166,6,0,L|284:204,1,50
206,90,130333,2,0,L|194:26,1,50
30,315,130499,6,0,B|3:209|3:209|20:226|38:232,1,150.000005722046,2|0,0:0|0:0,0:0:0:0:
30,315,130833,6,0,B|64:362|123:338|123:338|157:286|214:295|214:295|235:341|281:348,1,300,8|0,0:3|0:0,0:0:0:0:
493,278,131166,6,0,B|511:238|511:238|500:195,1,87.500000834465,8|0,0:3|0:0,0:0:0:0:
292,183,131333,2,0,B|276:224|276:224|290:265,1,87.500000834465,0|0,0:0|0:0,0:0:0:0:
386,357,131500,6,0,B|388:312|388:312|386:307|386:307|389:256,1,100,8|0,0:3|0:0,0:0:0:0:
290,66,131666,1,0,0:0:0:0:
290,66,131749,1,0,0:0:0:0:
290,66,131833,6,0,B|328:70|331:105|331:105|304:90|274:96,1,100,8|0,0:3|0:0,0:0:0:0:
512,81,131999,2,0,B|473:81|467:116|467:116|495:103|525:112,1,100,0|0,0:0|0:0,0:0:0:0:
388,257,132166,5,8,0:3:0:0:
388,257,132499,6,0,B|409:290|444:299|444:299|353:398|342:279|261:318,1,262.500002503395,8|0,0:3|0:0,0:0:0:0:
98,338,132833,6,0,B|114:354|114:354|160:350|194:317,1,110.000003356934,8|0,0:3|0:0,0:0:0:0:
107,107,132999,2,0,B|91:91|91:91|45:95|11:128,1,110.000003356934,0|0,0:0|0:0,0:0:0:0:
104,257,133166,6,0,P|130:200|69:222,1,150,2|0,0:0|0:0,0:0:0:0:
14,276,133499,6,0,B|10:320|10:320|12:325|12:325|7:376,1,100,8|0,0:0|0:0,0:0:0:0:
222,255,133666,1,0,0:0:0:0:
222,255,133749,1,0,0:0:0:0:
222,255,133833,6,0,B|218:211|218:211|220:206|220:206|215:155,1,100,8|0,0:0|0:0,0:0:0:0:
7,100,133999,1,0,0:0:0:0:
7,100,134082,1,0,0:0:0:0:
7,100,134166,6,0,B|51:104|51:104|56:102|56:102|107:107,1,100,8|0,0:0|0:0,0:0:0:0:
136,192,134333,1,0,0:0:0:0:
124,199,134416,6,0,B|82:225|82:225|45:190,1,100,8|0,0:0|0:0,0:0:0:0:
141,25,134583,1,0,0:0:0:0:
153,18,134667,2,0,B|195:-8|195:-8|232:27,1,100,8|0,0:0|0:0,0:0:0:0:
297,109,134833,5,2,0:0:0:0:
297,109,134999,6,0,B|285:172|285:172|289:176|289:176|278:230,1,125,8|0,0:0|0:0,0:0:0:0:
391,39,135166,2,0,B|402:102|402:102|398:106|398:106|412:181,1,125,8|0,0:0|0:0,0:0:0:0:
470,313,135333,1,0,0:0:0:0:
470,313,135416,1,0,0:0:0:0:
470,313,135499,6,0,P|484:338|506:356,1,58.3333338896433,8|0,0:0|0:0,0:0:0:0:
483,232,135611,6,0,P|496:205|501:176,1,58.3333338896433
407,261,135722,6,0,P|377:263|350:273,1,58.3333338896433
279,318,135833,6,0,B|170:352|203:219|37:274|42:412|212:404|147:292|147:292|118:260|131:229,1,375,8|0,0:3|0:0,0:0:0:0:
40,229,136166,6,0,B|-8:139|83:129|48:31|48:31|65:79|123:101,1,300,12|0,0:0|0:0,0:0:0:0:
237,165,136499,6,0,B|196:183|196:183|154:172,1,87.500000834465,8|0,0:0|0:0,0:0:0:0:
143,7,136666,2,0,B|183:-11|183:-11|226:0,1,87.500000834465,0|0,0:0|0:0,0:0:0:0:
307,106,136833,6,0,B|287:93|279:67|279:67|303:86|342:84,1,100,8|0,0:0|0:0,0:0:0:0:
512,146,136999,1,0,0:0:0:0:
512,146,137083,1,0,0:0:0:0:
512,146,137166,6,0,B|532:133|539:107|539:107|516:126|477:124,1,100,8|0,0:0|0:0,0:0:0:0:
423,12,137333,2,0,B|418:63|418:63|414:67|414:67|409:119,1,100,0|0,0:0|0:0,0:0:0:0:
397,252,137499,5,8,0:0:0:0:
471,350,137833,6,0,B|386:325|393:160|484:171|510:284|369:247,1,262.500002503395,8|0,0:0|0:0,0:0:0:0:
317,234,138166,6,0,B|251:213|261:273|195:253,1,125,8|0,0:0|0:0,0:0:0:0:
8,215,138333,2,0,B|74:236|70:186|133:198,1,125,0|0,0:0|0:0,0:0:0:0:
148,345,138499,6,0,B|119:351|101:371|101:371|121:261,1,150,2|0,0:0|0:0,0:0:0:0:
127,197,138833,6,0,B|122:146|122:146|118:142|118:142|113:90,1,100,8|0,0:3|0:0,0:0:0:0:
215,47,138999,1,0,0:0:0:0:
215,47,139082,1,0,0:0:0:0:
215,47,139165,6,0,B|211:91|211:91|213:96|213:96|208:147,1,100,8|0,0:3|0:0,0:0:0:0:
20,96,139333,1,0,0:0:0:0:
20,96,139416,1,0,0:0:0:0:
20,96,139499,6,0,B|56:115|56:115|124:95,1,100,8|0,0:3|0:0,0:0:0:0:
300,56,139666,1,0,0:0:0:0:
319,51,139749,6,0,B|360:39|360:39|428:59,1,100,8|0,0:3|0:0,0:0:0:0:
382,212,139916,1,0,0:0:0:0:
372,229,139999,2,0,B|367:178|367:178|369:173|369:173|365:129,1,100,8|0,0:3|0:0,0:0:0:0:
447,293,140166,6,0,L|474:311,1,33.75,8|0,0:3|0:0,0:0:0:0:
437,303,140249,2,0,L|462:325,1,33.75,0|0,0:0|0:0,0:0:0:0:
425,312,140333,2,0,L|445:337,1,33.75,0|0,0:0|0:0,0:0:0:0:
411,317,140416,2,0,L|427:346,1,33.75,0|0,0:0|0:0,0:0:0:0:
328,323,140499,6,0,P|298:296|291:259,1,50,0|0,0:0|0:0,0:0:0:0:
209,264,140665,6,0,P|217:225|243:197,1,75.0000028610231,0|0,0:0|0:0,0:0:0:0:
225,105,140832,6,0,P|263:92|337:122,1,100,0|0,0:0|0:0,0:0:0:0:
402,64,140999,6,0,P|436:92|448:181,1,125,0|0,0:0|0:0,0:0:0:0:
452,267,141166,6,0,P|433:272|407:271,1,44.999998626709,0|0,0:0|0:0,0:0:0:0:
304,212,141499,6,0,B|359:175|424:246|375:308|295:315|255:283|255:283|233:260|199:264,1,300,12|0,0:0|0:0,0:0:0:0:
29,317,141833,6,0,B|12:299|-14:296|-14:296|8:316|13:355,1,100,8|0,0:3|0:0,0:0:0:0:
136,169,141999,2,0,B|158:162|183:172|183:172|153:178|130:209,1,100
124,384,142166,6,0,B|120:340|120:340|122:335|122:335|117:284,1,100,8|0,0:0|0:0,0:0:0:0:
19,215,142333,1,0,0:0:0:0:
32,220,142416,1,0,0:0:0:0:
45,225,142499,6,0,B|48:180|48:180|51:176|51:176|55:125,1,100,8|0,0:3|0:0,0:0:0:0:
23,38,142666,2,0,B|68:27|68:27|123:54,1,100
193,92,142833,6,0,B|236:112|271:79|271:79|300:24|361:38|361:38|384:75|428:74,1,262.500002503395,8|0,0:3|0:0,0:0:0:0:
499,36,143166,6,0,B|554:9|554:9|539:91|539:91|543:96|543:96|525:195|525:195|471:141,1,300,0|0,0:0|0:0,0:0:0:0:
417,73,143499,6,0,B|374:85|348:123|348:123|354:145,1,110.000003356934,8|0,0:0|0:0,0:0:0:0:
489,322,143666,2,0,B|473:338|473:338|427:334|393:301,1,110.000003356934,0|0,0:0|0:0,0:0:0:0:
396,216,143833,6,0,B|324:256|316:180|244:224,1,150,2|0,0:0|0:0,0:0:0:0:
183,266,144166,6,0,B|188:317|188:317|192:321|192:321|197:373,1,100,8|0,0:0|0:0,0:0:0:0:
98,180,144333,1,0,0:0:0:0:
115,188,144416,1,0,0:0:0:0:
133,195,144499,6,0,B|137:151|137:151|135:146|135:146|140:95,1,100,8|0,0:0|0:0,0:0:0:0:
57,299,144666,1,0,0:0:0:0:
57,299,144750,1,0,0:0:0:0:
57,299,144833,6,0,B|20:284|27:249|27:249|48:271|80:273,1,100,8|0,0:0|0:0,0:0:0:0:
32,111,144999,1,0,0:0:0:0:
48,100,145083,6,0,B|83:79|83:79|151:99,1,100,8|0,0:0|0:0,0:0:0:0:
301,73,145249,1,0,0:0:0:0:
315,58,145333,2,0,B|280:37|280:37|212:57,1,100,8|0,0:0|0:0,0:0:0:0:
216,192,145499,5,2,0:0:0:0:
216,192,145666,6,0,B|282:171|272:231|338:211,1,125,8|0,0:0|0:0,0:0:0:0:
463,35,145833,5,8,0:0:0:0:
441,48,145917,1,0,0:0:0:0:
412,88,146000,1,0,0:0:0:0:
407,163,146083,1,0,0:0:0:0:
461,229,146166,6,0,P|468:201|464:173,1,58.3333338896433,8|0,0:0|0:0,0:0:0:0:
464,314,146278,6,0,P|487:334|512:348,1,58.3333338896433
387,274,146388,6,0,P|359:284|334:299,1,58.3333338896433
267,345,146499,6,0,B|166:438|34:272|167:199|167:199|144:230|148:260,1,375
140,116,146833,6,0,B|197:97|236:145|236:145|288:158|321:111|321:111|329:58|377:40,1,300,0|0,0:0|0:0,0:0:0:0:
465,53,147166,6,0,B|513:37|513:37|481:85,1,87.500000834465,8|0,0:0|0:0,0:0:0:0:
266,25,147333,2,0,B|218:9|218:9|250:57,1,87.500000834465,0|0,0:0|0:0,0:0:0:0:
420,219,147499,6,0,B|416:177|416:177|412:173|412:173|407:122,1,100,8|0,0:0|0:0,0:0:0:0:
264,293,147666,1,0,0:0:0:0:
278,306,147749,1,0,0:0:0:0:
292,319,147833,6,0,B|297:268|297:268|301:264|301:264|305:221,1,100,8|0,0:0|0:0,0:0:0:0:
472,296,147999,2,0,B|437:317|437:317|369:297,1,100,0|0,0:0|0:0,0:0:0:0:
316,138,148166,5,8,0:0:0:0:
316,138,148499,6,0,B|242:88|120:200|187:263|290:210|171:126,1,262.500002503395
109,127,148833,6,0,B|130:61|70:71|90:5,1,125
113,369,148999,2,0,B|93:303|152:313|132:247,1,125
0,181,149166,6,0,B|-3:210|-21:230|-21:230|86:200,1,150,2|0,0:0|0:0,0:0:0:0:
69,52,149499,6,0,B|83:85|83:85|121:96|121:96|124:102|124:102|167:112,1,125,8|0,0:0|0:0,0:0:0:0:
69,332,149666,2,0,B|83:299|83:299|121:288|121:288|124:282|124:282|167:272,1,125,8|0,0:0|0:0,0:0:0:0:
178,20,149833,6,0,B|240:37|240:37|244:33|244:33|318:52,1,125,8|0,0:0|0:0,0:0:0:0:
178,364,149999,2,0,B|240:347|240:347|244:351|244:351|318:332,1,125,8|0,0:0|0:0,0:0:0:0:
386,24,150166,6,0,B|374:87|374:87|378:91|378:91|367:145,1,125,8|0,0:0|0:0,0:0:0:0:
386,360,150333,1,8,0:3:0:0:
386,360,150416,1,8,0:3:0:0:
386,360,150499,6,0,B|374:297|374:297|378:293|378:293|367:239,1,125,8|0,0:0|0:0,0:0:0:0:
471,17,150666,2,0,B|459:80|459:80|463:84|463:84|452:138,1,125,8|0,0:0|0:0,0:0:0:0:
484,217,150833,6,0,L|511:235,1,33.75,0|0,0:0|0:0,0:0:0:0:
474,227,150916,2,0,L|499:249,1,33.75,0|0,0:0|0:0,0:0:0:0:
462,236,151000,2,0,L|482:261,1,33.75,0|0,0:0|0:0,0:0:0:0:
448,241,151083,2,0,L|464:270,1,33.75,0|0,0:0|0:0,0:0:0:0:
366,238,151166,6,0,B|300:217|310:277|244:257,1,125
64,233,151333,2,0,B|131:253|123:199|187:213,1,125
181,342,151499,6,0,L|172:293,1,50
245,159,151666,2,0,L|254:110,1,50
65,29,151833,6,0,P|40:97|82:155,1,150
115,87,152166,6,0,B|148:69|184:85|184:85|217:120|262:109,1,150,8|0,0:3|0:0,0:0:0:0:
474,52,152499,2,0,P|392:34|387:149,1,225.000008583069,8|0,0:3|0:0,0:0:0:0:
439,305,152833,6,0,B|460:185|460:185|443:218|403:227,1,175.00000166893,8|0,0:0|0:0,0:0:0:0:
339,215,153083,1,8,0:3:0:0:
339,227,153166,6,0,B|339:259|339:259|362:279,1,62.5
292,359,153333,2,0,P|290:330|230:316,1,87.500000834465,8|0,0:3|0:0,0:0:0:0:
172,352,153499,5,8,0:3:0:0:
135,197,153666,2,0,B|150:234|150:234|135:293,1,87.500000834465,8|0,0:3|0:0,0:0:0:0:
172,352,153833,6,0,B|101:392|92:312|18:346,1,150.000005722046,8|0,0:3|0:0,0:0:0:0:
18,58,154166,6,0,B|0:123|64:155|64:155|83:127|120:116,1,175.00000166893,8|0,0:0|0:0,0:0:0:0:
150,51,154416,1,8,0:3:0:0:
165,43,154499,6,0,B|198:30|198:30|259:51,1,87.500000834465
282,128,154666,2,0,P|284:157|344:171,1,87.500000834465,8|0,0:3|0:0,0:0:0:0:
410,111,154833,6,0,B|466:128|501:44|439:4|358:17|333:83,1,225.000008583069,8|0,0:3|0:0,0:0:0:0:
282,128,155166,6,0,L|295:278,1,150.000005722046,8|0,0:3|0:0,0:0:0:0:
494,309,155499,6,0,B|518:308|540:291|540:291|511:347|418:333,1,175.00000166893,8|0,0:0|0:0,0:0:0:0:
379,273,155749,1,8,0:3:0:0:
376,260,155833,6,0,B|373:228|373:228|394:206,1,62.5,0|0,0:0|0:0,0:0:0:0:
343,350,155999,2,0,P|301:365|257:355,1,87.500000834465,8|0,0:3|0:0,0:0:0:0:
208,273,156166,5,8,0:3:0:0:
208,273,156333,2,0,P|206:244|146:230,1,87.500000834465,8|0,0:3|0:0,0:0:0:0:
65,359,156499,6,0,B|-1:342|-12:266|31:224|31:224|83:248|83:248|89:270|84:287,1,262.500002503395,8|0,0:3|0:0,0:0:0:0:
98,169,156833,6,0,B|42:144|42:144|92:140,1,100,8|0,0:0|0:0,0:0:0:0:
208,273,156999,1,0,0:0:0:0:
222,287,157083,6,0,B|278:262|278:262|228:258,1,100,8|0,0:3|0:0,0:0:0:0:
182,96,157249,1,0,0:0:0:0:
201,86,157333,2,0,B|193:130|193:130|195:135|195:135|186:186,1,100,8|0,0:3|0:0,0:0:0:0:
303,184,157499,6,0,B|374:208|374:142|452:158|452:158|413:149|394:104,1,225.000008583069,8|0,0:3|0:0,0:0:0:0:
369,19,157833,2,0,P|312:26|329:105,1,150.000005722046,8|0,0:3|0:0,0:0:0:0:
510,318,158166,6,0,B|531:198|531:198|514:231|474:240,1,175.00000166893,8|0,0:0|0:0,0:0:0:0:
415,242,158416,1,8,0:3:0:0:
405,252,158499,6,0,L|416:315,1,62.5
338,341,158666,2,0,B|305:354|305:354|244:333,1,87.500000834465,8|0,0:3|0:0,0:0:0:0:
179,210,158833,5,8,0:3:0:0:
25,308,158999,2,0,P|27:337|87:351,1,87.500000834465,8|0,0:3|0:0,0:0:0:0:
179,210,159166,6,0,B|144:207|117:182|117:182|65:292|175:287|152:373,1,262.500002503395,8|0,0:3|0:0,0:0:0:0:
245,255,159499,6,0,P|251:172|181:128,1,175.00000166893,8|0,0:0|0:0,0:0:0:0:
6,93,159749,1,8,0:3:0:0:
21,101,159832,6,0,B|54:114|54:114|115:93,1,87.500000834465
165,33,159999,2,0,B|198:20|198:20|259:41,1,87.500000834465,8|0,0:3|0:0,0:0:0:0:
307,96,160166,6,0,B|354:144|426:116|440:57|440:57|394:24|394:24|372:30|359:43,1,262.500002503395,8|0,0:3|0:0,0:0:0:0:
223,117,160499,6,0,L|236:267,1,150.000005722046,8|0,0:3|0:0,0:0:0:0:
480,353,160833,5,8,0:0:0:0:
493,351,160916,2,0,B|513:338|521:312|521:312|497:331|458:329,1,100
353,247,161083,1,8,0:3:0:0:
340,245,161166,6,0,B|320:232|312:206|312:206|336:225|375:223,1,100
437,180,161333,2,0,P|478:202|468:248,1,100,8|0,0:3|0:0,0:0:0:0:
376,348,161499,5,8,0:3:0:0:
376,348,161583,1,0,0:0:0:0:
376,348,161666,2,0,B|336:344|336:344|332:340|332:340|288:336,1,75.0000028610231
240,228,161833,1,8,0:3:0:0:
240,228,161916,1,0,0:0:0:0:
240,228,162000,2,0,B|200:232|200:232|196:236|196:236|152:240,1,75.0000028610231
78,361,162166,6,0,P|138:358|146:302,1,100,8|0,0:0|0:0,0:0:0:0:
45,147,162333,2,0,P|103:132|127:183,1,100
19,258,162499,6,0,L|69:252,1,44.999998626709
166,238,162833,6,0,B|211:298|272:269|272:269|274:247|289:222,1,150,12|0,0:0|0:0,0:0:0:0:
364,160,163083,1,0,0:0:0:0:
377,175,163166,6,0,B|407:250|332:250|366:334,1,150.000005722046,8|0,0:0|0:0,0:0:0:0:
249,356,163499,6,0,P|267:355|286:351,1,37.5000014305115,8|0,0:0|0:0,0:0:0:0:
443,297,163666,2,0,P|461:301|478:309,1,37.5000014305115,0|0,3:0|0:0,0:0:0:0:
302,97,163833,6,0,B|348:71|348:71|444:94,1,150.000005722046,8|0,0:0|0:0,0:0:0:0:
374,221,164166,6,0,L|362:157,1,62.5,8|0,0:0|0:0,0:0:0:0:
229,58,164333,1,0,0:0:0:0:
294,248,164499,6,0,L|282:184,1,62.5,8|0,0:0|0:0,0:0:0:0:
156,19,164666,1,0,0:0:0:0:
214,275,164833,5,8,0:0:0:0:
214,275,164916,1,0,0:0:0:0:
214,275,164999,2,0,L|202:211,1,62.5
8,94,165166,6,0,P|31:101|49:117,1,50,8|0,0:0|0:0,0:0:0:0:
171,137,165333,2,0,P|149:148|133:167,1,50
26,210,165499,6,0,B|-4:279|52:318|52:318|71:309|100:309,1,150,12|0,0:0|0:0,0:0:0:0:
148,348,165749,1,0,0:0:0:0:
156,360,165833,6,0,B|232:355|232:355|237:351|237:351|327:345,1,150.000005722046,8|0,0:0|0:0,0:0:0:0:
496,307,166166,6,0,P|501:284|502:271,1,37.5000014305115,8|0,0:0|0:0,0:0:0:0:
292,196,166333,2,0,P|293:214|298:232,1,37.5000014305115
392,326,166499,6,0,B|436:285|418:230|418:230|381:215|373:187,1,150.000005722046,8|0,0:0|0:0,0:0:0:0:
468,8,166833,6,0,L|456:71,1,62.5,8|0,0:0|0:0,0:0:0:0:
440,150,166999,1,0,0:0:0:0:
259,14,167166,6,0,L|270:77,1,62.5,8|0,0:0|0:0,0:0:0:0:
292,196,167333,1,0,0:0:0:0:
70,141,167499,6,0,B|99:144|99:144|103:148|103:148|143:152,1,75.0000028610231,8|0,0:0|0:0,0:0:0:0:
292,196,167666,2,0,B|262:199|262:199|258:203|258:203|218:207,1,75.0000028610231
40,329,167833,6,0,B|35:287|35:287|30:281|30:281|24:225,1,100,8|0,0:0|0:0,0:0:0:0:
70,141,167999,2,0,B|75:91|75:91|80:86|80:86|85:44,1,100
126,339,168166,6,0,B|178:366|224:331|224:331|227:291|251:275,1,150.000005722046,12|0,0:0|0:0,0:0:0:0:
309,337,168416,1,0,0:0:0:0:
323,348,168499,6,0,B|398:378|398:299|474:336,1,150.000005722046,8|0,0:0|0:0,0:0:0:0:
341,231,168833,6,0,P|342:248|347:267,1,37.5000014305115,8|0,0:0|0:0,0:0:0:0:
506,200,168999,2,0,P|510:181|512:163,1,37.5000014305115
292,155,169166,6,0,B|341:189|341:189|439:165,1,150.000005722046,8|0,0:0|0:0,0:0:0:0:
373,24,169499,6,0,L|356:114,1,75.0000028610231,12|0,0:0|0:0,0:0:0:0:
324,270,169666,1,0,0:0:0:0:
160,59,169833,6,0,L|180:149,1,75.0000028610231,8|0,0:0|0:0,0:0:0:0:
204,264,169999,1,0,0:0:0:0:
47,90,170166,5,8,0:0:0:0:
47,90,170249,1,0,0:0:0:0:
47,90,170333,1,0,0:0:0:0:
8,306,170499,2,0,B|55:253|122:279|122:279|129:318|167:337,1,184.999999294281,8|0,0:0|0:0,0:0:0:0:
363,344,170833,6,0,L|372:295,1,50,12|0,0:0|0:0,0:0:0:0:
204,264,170999,2,0,L|195:214,1,50,8|0,0:0|0:0,0:0:0:0:
393,214,171166,6,0,L|402:165,1,50,8|0,0:0|0:0,0:0:0:0:
182,133,171333,2,0,L|173:83,1,50,8|0,0:0|0:0,0:0:0:0:
379,26,171499,6,0,L|390:89,1,50,12|0,0:0|0:0,0:0:0:0:
136,16,171666,2,0,L|124:79,1,50,8|0,0:0|0:0,0:0:0:0:
402,164,171833,6,0,L|413:227,1,50,8|0,0:0|0:0,0:0:0:0:
113,154,171999,2,0,L|101:217,1,50,8|0,0:0|0:0,0:0:0:0:
448,291,172166,6,0,L|467:317,1,33.75
435,296,172249,2,0,L|450:325,1,33.75
420,301,172333,2,0,L|430:331,1,33.75
405,301,172416,2,0,L|410:333,1,33.75
330,279,172499,6,0,B|264:258|271:313|208:298,1,125
27,267,172666,2,0,B|93:288|84:236|149:248,1,125
235,170,172833,6,0,L|223:233,1,50
144,378,172999,2,0,L|132:314,1,50
100,144,173166,1,0,0:0:0:0:
