osu file format v14

[General]
AudioFilename: audio.mp3
AudioLeadIn: 0
PreviewTime: 3993
Countdown: 1
SampleSet: Normal
StackLeniency: 0.7
Mode: 1
LetterboxInBreaks: 0
WidescreenStoryboard: 1

[Editor]
DistanceSpacing: 1.4
BeatDivisor: 12
GridSize: 32
TimelineZoom: 3.379998

[Metadata]
Title:intro to not advancing in kancolle
TitleUnicode:intro to not advancing in kancolle
Artist:Nontomena
ArtistUnicode:ノント目名
Creator:Dainesl
Version:Inner Oni
Source:艦隊これくしょん -艦これ-
Tags:Taiko Kantai Collection glitchcore kankore Not Nemona KANCOLLE RUINED MY RNG THE LSC IS STRONG IN THAT ONE 補給等選択時 Hokyuu-tou Sentakuji cdhsausageboy
BeatmapID:1375554
BeatmapSetID:649257

[Difficulty]
HPDrainRate:7
CircleSize:5
OverallDifficulty:6
ApproachRate:5
SliderMultiplier:1.40000000596046
SliderTickRate:1

[Events]
//Background and Video events
0,0,"kancolle.jpg",0,55
//Break Periods
//Storyboard Layer 0 (Background)
//Storyboard Layer 1 (Fail)
//Storyboard Layer 2 (Pass)
//Storyboard Layer 3 (Foreground)
//Storyboard Sound Samples

[TimingPoints]
0,333.333333333333,3,1,0,70,1,0
327,333.333333333333,3,1,0,70,1,8
993,333.333333333333,3,1,0,70,1,0
7992,333.333333333333,4,1,0,70,1,0
27991,-100,4,1,0,70,0,1
35991,337.078651685393,4,1,0,70,1,0
37002,344.827586206897,4,1,0,70,1,0
37346,370.37037037037,4,1,0,70,1,8
37716,387.096774193548,4,1,0,70,1,8
38103,422.535211267606,4,1,0,70,1,0
38948,444.444444444444,4,1,0,55,1,8
39392,588.235294117647,4,1,0,40,1,0
39980,857.142857142857,4,1,0,25,1,8
40408,-100,4,1,0,10,0,0

[HitObjects]
256,192,0,5,0,0:0:0:0:
256,192,327,1,8,0:0:0:0:
256,192,410,1,8,0:0:0:0:
256,192,493,1,0,0:0:0:0:
256,192,576,1,0,0:0:0:0:
256,192,660,1,8,0:0:0:0:
256,192,826,1,8,0:0:0:0:
256,192,993,1,0,0:0:0:0:
256,192,1159,1,0,0:0:0:0:
256,192,1242,1,0,0:0:0:0:
256,192,1326,1,8,0:0:0:0:
256,192,1492,1,0,0:0:0:0:
256,192,1659,1,8,0:0:0:0:
256,192,1715,1,8,0:0:0:0:
256,192,1770,1,8,0:0:0:0:
256,192,1826,1,0,0:0:0:0:
256,192,1992,1,8,0:0:0:0:
256,192,2076,1,8,0:0:0:0:
256,192,2159,1,0,0:0:0:0:
256,192,2326,1,8,0:0:0:0:
256,192,2492,1,0,0:0:0:0:
256,192,2659,1,8,0:0:0:0:
256,192,2992,1,0,0:0:0:0:
256,192,3076,1,0,0:0:0:0:
256,192,3159,1,0,0:0:0:0:
256,192,3326,1,8,0:0:0:0:
256,192,3409,1,8,0:0:0:0:
256,192,3492,1,8,0:0:0:0:
256,192,3659,1,0,0:0:0:0:
256,192,3992,1,4,0:0:0:0:
256,192,4159,1,0,0:0:0:0:
256,192,4326,1,8,0:0:0:0:
256,192,4659,1,8,0:0:0:0:
256,192,4992,1,0,0:0:0:0:
256,192,5159,1,0,0:0:0:0:
256,192,5326,1,8,0:0:0:0:
256,192,5492,1,0,0:0:0:0:
256,192,5659,1,8,0:0:0:0:
256,192,5992,1,0,0:0:0:0:
256,192,6159,1,0,0:0:0:0:
256,192,6326,1,8,0:0:0:0:
256,192,6659,1,8,0:0:0:0:
256,192,6992,1,0,0:0:0:0:
256,192,7159,1,8,0:0:0:0:
256,192,7326,1,8,0:0:0:0:
256,192,7492,1,0,0:0:0:0:
256,192,7659,1,8,0:0:0:0:
256,192,7992,1,0,0:0:0:0:
256,192,8075,1,0,0:0:0:0:
256,192,8158,1,8,0:0:0:0:
256,192,8242,1,0,0:0:0:0:
256,192,8325,1,8,0:0:0:0:
256,192,8492,1,8,0:0:0:0:
256,192,8658,1,0,0:0:0:0:
256,192,8742,1,8,0:0:0:0:
256,192,8825,1,0,0:0:0:0:
256,192,8991,1,8,0:0:0:0:
256,192,9075,1,8,0:0:0:0:
256,192,9158,1,0,0:0:0:0:
256,192,9325,1,8,0:0:0:0:
256,192,9658,1,0,0:0:0:0:
256,192,9741,1,0,0:0:0:0:
256,192,9825,1,0,0:0:0:0:
256,192,9908,1,0,0:0:0:0:
256,192,9991,1,8,0:0:0:0:
256,192,10158,1,0,0:0:0:0:
256,192,10241,1,0,0:0:0:0:
256,192,10325,1,8,0:0:0:0:
256,192,10491,1,0,0:0:0:0:
256,192,10658,1,8,0:0:0:0:
256,192,10741,1,0,0:0:0:0:
256,192,10825,1,8,0:0:0:0:
256,192,10991,1,0,0:0:0:0:
256,192,11158,1,0,0:0:0:0:
256,192,11241,1,0,0:0:0:0:
256,192,11325,1,8,0:0:0:0:
256,192,11491,1,8,0:0:0:0:
256,192,11547,1,8,0:0:0:0:
256,192,11603,1,8,0:0:0:0:
256,192,11658,1,0,0:0:0:0:
256,192,11825,1,0,0:0:0:0:
256,192,11880,1,0,0:0:0:0:
256,192,11936,1,0,0:0:0:0:
256,192,11991,1,8,0:0:0:0:
256,192,12325,1,8,0:0:0:0:
256,192,12408,1,8,0:0:0:0:
256,192,12491,1,8,0:0:0:0:
256,192,12575,1,8,0:0:0:0:
256,192,12658,1,0,0:0:0:0:
256,192,12741,1,0,0:0:0:0:
256,192,12825,1,8,0:0:0:0:
256,192,12991,1,0,0:0:0:0:
256,192,13325,1,8,0:0:0:0:
256,192,13491,1,0,0:0:0:0:
256,192,13658,1,0,0:0:0:0:
256,192,13741,1,8,0:0:0:0:
256,192,13825,1,8,0:0:0:0:
256,192,13908,1,8,0:0:0:0:
256,192,13991,1,0,0:0:0:0:
256,192,14075,1,0,0:0:0:0:
256,192,14158,1,8,0:0:0:0:
256,192,14325,1,0,0:0:0:0:
256,192,14491,1,0,0:0:0:0:
256,192,14658,1,8,0:0:0:0:
256,192,14991,1,0,0:0:0:0:
256,192,15047,1,0,0:0:0:0:
256,192,15103,1,0,0:0:0:0:
256,192,15158,1,8,0:0:0:0:
256,192,15325,1,0,0:0:0:0:
256,192,15408,1,8,0:0:0:0:
256,192,15491,1,0,0:0:0:0:
256,192,15575,1,0,0:0:0:0:
256,192,15658,1,8,0:0:0:0:
256,192,15825,1,8,0:0:0:0:
256,192,15991,1,0,0:0:0:0:
256,192,16075,1,0,0:0:0:0:
256,192,16158,1,0,0:0:0:0:
256,192,16325,1,8,0:0:0:0:
256,192,16408,1,8,0:0:0:0:
256,192,16491,1,8,0:0:0:0:
256,192,16658,1,0,0:0:0:0:
256,192,16825,1,8,0:0:0:0:
256,192,16991,1,0,0:0:0:0:
256,192,17325,1,8,0:0:0:0:
256,192,17491,1,0,0:0:0:0:
256,192,17575,1,0,0:0:0:0:
256,192,17658,1,8,0:0:0:0:
256,192,17741,1,8,0:0:0:0:
256,192,17825,1,0,0:0:0:0:
256,192,17991,1,8,0:0:0:0:
256,192,18325,1,0,0:0:0:0:
256,192,18408,1,0,0:0:0:0:
256,192,18491,1,0,0:0:0:0:
256,192,18658,1,8,0:0:0:0:
256,192,18991,1,8,0:0:0:0:
256,192,19075,1,8,0:0:0:0:
256,192,19158,1,8,0:0:0:0:
256,192,19325,1,0,0:0:0:0:
256,192,19491,1,8,0:0:0:0:
256,192,19575,1,8,0:0:0:0:
256,192,19658,1,0,0:0:0:0:
256,192,19741,1,0,0:0:0:0:
256,192,19825,1,0,0:0:0:0:
256,192,19991,1,12,0:0:0:0:
256,192,20158,1,0,0:0:0:0:
256,192,20241,1,8,0:0:0:0:
256,192,20408,1,0,0:0:0:0:
256,192,20491,1,8,0:0:0:0:
256,192,20658,1,0,0:0:0:0:
256,192,20741,1,8,0:0:0:0:
256,192,20825,1,8,0:0:0:0:
256,192,20908,1,8,0:0:0:0:
256,192,20991,1,0,0:0:0:0:
256,192,21075,1,8,0:0:0:0:
256,192,21158,1,0,0:0:0:0:
256,192,21325,1,8,0:0:0:0:
256,192,21491,1,0,0:0:0:0:
256,192,21575,1,8,0:0:0:0:
256,192,21825,1,8,0:0:0:0:
256,192,22075,1,0,0:0:0:0:
256,192,22158,1,8,0:0:0:0:
256,192,22325,1,8,0:0:0:0:
256,192,22408,1,0,0:0:0:0:
256,192,22491,1,0,0:0:0:0:
256,192,22575,1,0,0:0:0:0:
256,192,22658,1,8,0:0:0:0:
256,192,22825,1,0,0:0:0:0:
256,192,22908,1,0,0:0:0:0:
256,192,22991,1,0,0:0:0:0:
256,192,23158,1,8,0:0:0:0:
256,192,23325,1,0,0:0:0:0:
256,192,23408,1,0,0:0:0:0:
256,192,23491,1,0,0:0:0:0:
256,192,23658,1,8,0:0:0:0:
256,192,23991,1,0,0:0:0:0:
256,192,24158,1,0,0:0:0:0:
256,192,24325,1,8,0:0:0:0:
256,192,24491,1,0,0:0:0:0:
256,192,24575,1,0,0:0:0:0:
256,192,24658,1,0,0:0:0:0:
256,192,24825,1,8,0:0:0:0:
256,192,24991,1,0,0:0:0:0:
256,192,25158,1,0,0:0:0:0:
256,192,25325,1,8,0:0:0:0:
256,192,25491,1,0,0:0:0:0:
256,192,25658,1,8,0:0:0:0:
256,192,25714,1,8,0:0:0:0:
256,192,25769,1,8,0:0:0:0:
256,192,25825,1,0,0:0:0:0:
256,192,25991,1,0,0:0:0:0:
256,192,26075,1,8,0:0:0:0:
256,192,26158,1,0,0:0:0:0:
256,192,26325,1,8,0:0:0:0:
256,192,26658,1,0,0:0:0:0:
256,192,26825,1,0,0:0:0:0:
256,192,26908,1,0,0:0:0:0:
256,192,26991,1,8,0:0:0:0:
256,192,27075,1,8,0:0:0:0:
256,192,27158,1,8,0:0:0:0:
256,192,27241,1,8,0:0:0:0:
256,192,27325,1,0,0:0:0:0:
256,192,27408,1,8,0:0:0:0:
256,192,27491,1,0,0:0:0:0:
256,192,27658,1,8,0:0:0:0:
256,192,27991,1,0,0:0:0:0:
256,192,28075,1,0,0:0:0:0:
256,192,28158,1,8,0:0:0:0:
256,192,28241,1,8,0:0:0:0:
256,192,28325,1,0,0:0:0:0:
256,192,28491,1,0,0:0:0:0:
256,192,28575,1,0,0:0:0:0:
256,192,28658,1,8,0:0:0:0:
256,192,28741,1,8,0:0:0:0:
256,192,28825,1,0,0:0:0:0:
256,192,28991,1,8,0:0:0:0:
256,192,29075,1,8,0:0:0:0:
256,192,29158,1,8,0:0:0:0:
256,192,29325,1,0,0:0:0:0:
256,192,29491,1,0,0:0:0:0:
256,192,29575,1,0,0:0:0:0:
256,192,29658,1,8,0:0:0:0:
256,192,29825,1,8,0:0:0:0:
256,192,29991,1,0,0:0:0:0:
256,192,30075,1,8,0:0:0:0:
256,192,30158,1,0,0:0:0:0:
256,192,30325,1,8,0:0:0:0:
256,192,30380,1,8,0:0:0:0:
256,192,30436,1,8,0:0:0:0:
256,192,30491,1,8,0:0:0:0:
256,192,30658,1,0,0:0:0:0:
256,192,30825,1,0,0:0:0:0:
256,192,30908,1,0,0:0:0:0:
256,192,30991,1,8,0:0:0:0:
256,192,31158,1,0,0:0:0:0:
256,192,31491,1,8,0:0:0:0:
256,192,31658,1,0,0:0:0:0:
256,192,31825,1,0,0:0:0:0:
256,192,31991,1,8,0:0:0:0:
256,192,32158,1,0,0:0:0:0:
256,192,32241,1,0,0:0:0:0:
256,192,32325,1,8,0:0:0:0:
256,192,32491,1,0,0:0:0:0:
256,192,32575,1,8,0:0:0:0:
256,192,32741,1,8,0:0:0:0:
256,192,32825,1,0,0:0:0:0:
256,192,32991,1,8,0:0:0:0:
256,192,33158,1,0,0:0:0:0:
256,192,33325,1,8,0:0:0:0:
256,192,33491,1,0,0:0:0:0:
256,192,33575,1,0,0:0:0:0:
256,192,33658,1,0,0:0:0:0:
256,192,33825,1,8,0:0:0:0:
256,192,34158,1,0,0:0:0:0:
256,192,34325,1,8,0:0:0:0:
256,192,34491,1,8,0:0:0:0:
256,192,34658,1,0,0:0:0:0:
256,192,34741,1,8,0:0:0:0:
256,192,34825,1,0,0:0:0:0:
256,192,34991,1,8,0:0:0:0:
256,192,35158,1,0,0:0:0:0:
256,192,35325,1,8,0:0:0:0:
256,192,35491,1,0,0:0:0:0:
256,192,35658,1,0,0:0:0:0:
256,192,35825,1,0,0:0:0:0:
256,192,35991,1,8,0:0:0:0:
256,192,36159,12,0,40837,0:0:0:0:
