osu file format v14

[General]
AudioFilename: audio.mp3
AudioLeadIn: 0
PreviewTime: 217546
Countdown: 0
SampleSet: Soft
StackLeniency: 0.5
Mode: 0
LetterboxInBreaks: 0
WidescreenStoryboard: 0

[Editor]
Bookmarks: 103379,188146,199346,210546,216946,295310,300110
DistanceSpacing: 0.3
BeatDivisor: 8
GridSize: 16
TimelineZoom: 2.5

[Metadata]
Title:Kanade
TitleUnicode:奏(かなで)
Artist:Nonomiya Nonono
ArtistUnicode:野々宮ののの
Creator:Ayucchi
Version:Graduation
Source:一週間フレンズ。
Tags:rtyzen japanese anime pop cover full ending ed スキマスイッチ sukimaswitch sukima switch かなで hanayori girls' dormitory joshiryou 花寄女子寮 isshuukan one week friends 雨宮天 amamiya sora 藤宮香織 fujimiya kaori からかい上手の高木さん2 skilled teaser takagi-san 高木さん 高橋李依 takahashi rie vtuber virtual youtuber
BeatmapID:2602995
BeatmapSetID:1252432

[Difficulty]
HPDrainRate:5
CircleSize:4.5
OverallDifficulty:8
ApproachRate:8.5
SliderMultiplier:2.6
SliderTickRate:1

[Events]
//Background and Video events
0,0,"graduated.jpg",0,0
//Break Periods
//Storyboard Layer 0 (Background)
//Storyboard Layer 1 (Fail)
//Storyboard Layer 2 (Pass)
//Storyboard Layer 3 (Foreground)
//Storyboard Layer 4 (Overlay)
//Storyboard Sound Samples

[TimingPoints]
2592,800,4,2,1,40,1,0
2592,-133.333333333333,4,2,1,40,0,0
15392,-100,4,2,1,55,0,0
43092,-100,4,2,1,5,0,0
43192,-100,4,2,1,55,0,0
44179,800,4,2,1,45,1,0
44179,-100,4,2,1,45,0,0
68179,-76.9230769230769,4,2,1,55,0,0
71379,800,4,2,1,65,1,0
71379,-66.6666666666667,4,2,1,65,0,0
95379,-90.9090909090909,4,2,1,55,0,0
97379,-100,4,2,1,55,0,0
103379,-100,4,2,1,45,0,0
127361,800,4,2,1,55,1,0
127361,-76.9230769230769,4,2,1,55,0,0
130361,-66.6666666666667,4,2,1,55,0,0
130561,-66.6666666666667,4,2,1,65,0,0
152748,857.142857142857,4,2,1,65,1,0
153014,800,4,2,1,65,1,0
153014,-66.6666666666667,4,2,1,65,0,0
153414,731.707317073171,4,2,1,65,1,0
153414,-66.6666666666667,4,2,1,65,0,0
153762,800,4,2,1,65,1,0
153762,-66.6666666666667,4,2,1,65,0,0
154561,-90.9090909090909,4,2,1,55,0,0
156162,800,4,2,1,55,1,0
156561,-100,4,2,1,55,0,0
162561,-90.9090909090909,4,2,1,60,0,0
175361,-76.9230769230769,4,2,1,65,0,0
188146,800,4,2,1,65,1,0
188146,-66.6666666666667,4,2,1,65,0,1
188246,-66.6666666666667,4,2,1,65,0,0
218534,800,4,2,1,75,1,0
218534,-58.8235294117647,4,2,1,75,0,0
244131,-58.8235294117647,4,2,1,75,0,0
268131,-85.4700854700855,4,2,1,60,0,0
269710,800,4,2,1,55,1,0
269710,-76.9230769230769,4,2,1,55,0,0
290510,-66.6666666666667,4,2,1,55,0,0
295410,-66.6666666666667,4,2,1,25,0,0
300110,-66.6666666666667,4,2,1,5,0,0

[Colours]
Combo1 : 174,198,207
Combo2 : 255,192,203
Combo3 : 177,156,217
Combo4 : 255,179,71
Combo5 : 161,202,241
Combo6 : 74,165,255
Combo7 : 136,255,255
Combo8 : 217,238,245

[HitObjects]
105,52,2592,86,0,P|113:101|119:166,1,97.50000371933,2|0,0:2|0:2,0:0:0:0:
209,167,3392,2,0,P|180:207|138:257,1,97.50000371933,2|0,0:2|0:2,0:0:0:0:
30,336,4192,1,2,0:2:0:0:
64,266,4392,2,0,P|140:264|189:325,1,146.250005578995,2|2,0:2|0:2,0:0:0:0:
185,312,5392,1,0,0:2:0:0:
383,340,5792,38,0,P|360:281|361:238,1,97.50000371933,2|0,0:2|0:2,0:0:0:0:
281,210,6592,2,0,P|306:152|337:122,1,97.50000371933,2|0,0:2|0:2,0:0:0:0:
457,47,7392,1,2,0:2:0:0:
408,105,7592,2,0,B|323:121|358:65|260:77,1,146.250005578995,2|2,0:2|0:2,0:0:0:0:
269,75,8592,1,0,0:2:0:0:
240,293,8992,6,0,P|213:239|176:198,1,97.50000371933,2|0,0:2|0:2,0:0:0:0:
214,131,9792,2,0,P|156:111|101:109,1,97.50000371933,2|0,0:2|0:2,0:0:0:0:
0,175,10592,1,2,0:2:0:0:
60,221,10792,2,0,P|50:243|45:267,1,48.750001859665,2|0,0:2|0:2,0:0:0:0:
36,109,11392,2,0,B|96:107|74:142|145:135,1,97.50000371933,2|0,0:2|0:2,0:0:0:0:
273,63,12192,6,0,P|244:99|251:175,1,97.50000371933,2|0,0:2|0:2,0:0:0:0:
370,298,12992,2,0,P|399:262|392:186,1,97.50000371933,2|0,0:2|0:2,0:0:0:0:
222,218,13792,2,0,P|200:229|158:243,1,48.750001859665,2|2,0:2|0:2,0:0:0:0:
115,298,14192,2,0,P|137:306|159:317,1,48.750001859665,0|2,0:2|0:2,0:0:0:0:
283,369,14592,37,2,0:2:0:0:
251,303,14792,1,2,0:2:0:0:
303,251,14992,1,2,0:2:0:0:
366,287,15192,1,2,0:2:0:0:
468,157,15392,38,0,P|408:173|331:186,1,130,2|0,3:2|0:2,0:0:0:0:
232,45,16192,2,0,P|295:39|327:115,1,130,10|0,0:2|3:2,0:0:0:0:
349,277,16992,1,2,3:2:0:0:
285,240,17192,2,0,P|275:194|259:162,1,65,10|0,0:2|0:2,0:0:0:0:
162,24,17792,2,0,P|108:55|31:75,1,130,10|0,0:2|0:2,0:0:0:0:
5,154,18392,2,0,L|-2:184,2,21.6666666666667,0|0|0,1:2|1:2|1:2,0:0:0:0:
12,146,18592,6,0,B|87:133|61:199|148:179,1,130,2|0,3:2|0:2,0:0:0:0:
111,338,19392,2,0,P|157:282|232:253,1,130,10|0,0:2|3:2,0:0:0:0:
209,78,20192,1,2,3:2:0:0:
268,119,20392,2,0,P|264:170|237:207,1,65,10|0,0:2|0:2,0:0:0:0:
218,364,20992,2,0,B|293:361|268:316|351:315,1,130,10|0,0:2|0:2,0:0:0:0:
428,354,21592,2,0,L|421:324,2,21.6666666666667,0|0|0,1:2|1:2|1:2,0:0:0:0:
432,365,21792,6,0,P|446:293|472:228,1,130,2|0,3:2|0:2,0:0:0:0:
500,98,22592,2,0,P|472:159|397:146,1,130,10|0,0:2|3:2,0:0:0:0:
274,49,23392,1,2,3:2:0:0:
331,100,23592,2,0,P|359:90|408:83,1,65,10|0,0:2|0:2,0:0:0:0:
333,229,24192,2,0,P|273:192|202:169,1,130,10|0,0:2|0:2,0:0:0:0:
141,205,24792,2,0,L|134:235,2,21.6666666666667,0|0|0,1:2|1:2|1:2,0:0:0:0:
138,188,24992,37,2,0:2:0:0:
138,188,25792,1,2,0:2:0:0:
89,129,26192,1,0,0:2:0:0:
28,176,26592,37,2,0:2:0:0:
52,308,26792,1,2,0:2:0:0:
128,261,26992,1,0,1:2:0:0:
128,261,27092,1,0,3:2:0:0:
128,261,27192,6,0,L|121:291,3,21.6666666666667,8|0|0|10,1:3|1:2|1:2|1:2,0:0:0:0:
195,219,27592,1,10,0:2:0:0:
276,262,27792,2,0,P|292:305|294:336,1,65,8|2,0:3|1:2,0:0:0:0:
294,323,28058,1,0,1:2:0:0:
294,323,28125,1,0,1:2:0:0:
294,323,28192,6,0,P|298:265|330:196,1,130,6|0,3:2|0:2,0:0:0:0:
415,69,28992,2,0,B|343:68|365:118|276:107,1,130,10|0,0:2|3:2,0:0:0:0:
294,108,29592,1,0,0:2:0:0:
449,132,29792,1,2,3:2:0:0:
496,185,29992,2,0,P|478:216|469:263,1,65,10|0,0:2|0:2,0:0:0:0:
511,377,30592,2,0,P|477:324|399:328,1,130,10|0,0:2|0:2,0:0:0:0:
338,349,31192,2,0,L|331:379,2,21.6666666666667,0|0|0,1:2|1:2|1:2,0:0:0:0:
334,340,31392,38,0,B|321:268|375:287|357:200,1,130,2|0,3:2|0:2,0:0:0:0:
339,96,32192,2,0,P|316:142|225:147,1,130,10|0,0:2|3:2,0:0:0:0:
243,156,32792,1,0,0:2:0:0:
94,248,32992,1,2,3:2:0:0:
138,194,33192,2,0,P|172:203|222:228,1,65,10|0,0:2|0:2,0:0:0:0:
260,75,33792,2,0,P|176:102|83:121,1,130,10|0,0:2|0:2,0:0:0:0:
59,79,34392,2,0,L|52:49,2,21.6666666666667,0|0|0,1:2|1:2|1:2,0:0:0:0:
65,89,34592,38,0,P|123:147|105:205,1,130,2|0,3:2|0:2,0:0:0:0:
45,311,35392,2,0,B|120:311|89:260|195:260,1,130,10|0,0:2|3:2,0:0:0:0:
162,262,35992,1,0,0:2:0:0:
281,333,36192,1,2,3:2:0:0:
221,371,36392,2,0,P|192:352|156:341,1,65,10|0,0:2|0:2,0:0:0:0:
209,202,36992,2,0,P|265:239|334:271,1,130,10|0,0:2|0:2,0:0:0:0:
393,218,37592,2,0,L|423:225,2,21.6666666666667,0|0|0,1:2|1:2|1:2,0:0:0:0:
385,226,37792,6,0,P|350:286|340:356,1,130,2|0,3:2|0:2,0:0:0:0:
270,180,38592,2,0,B|348:185|314:131|431:143,1,130,10|0,0:2|3:2,0:0:0:0:
390,141,39192,1,0,0:2:0:0:
491,73,39392,1,2,3:2:0:0:
491,73,39592,1,10,0:2:0:0:
464,148,39792,2,0,P|411:76|413:66,1,97.5,2|0,3:2|0:2,0:0:0:0:
413,51,40192,2,0,B|365:59|380:93|308:87,1,97.5,10|0,0:2|0:2,0:0:0:0:
314,76,40592,5,4,0:2:0:0:
256,192,40692,12,0,43092,2:2:0:0:
130,131,43192,38,0,L|123:101,3,21.6666666666667,0|0|0|0,1:2|1:2|1:2|1:2,0:0:0:0:
89,229,43592,1,8,0:3:0:0:
215,166,43792,1,8,0:3:0:0:
214,295,43992,2,0,L|244:302,2,21.6666666666667,0|0|0,1:2|1:2|1:2,0:0:0:0:
202,291,44179,38,0,P|221:333|225:378,1,65,6|0,3:2|0:2,0:0:0:0:
349,384,44579,2,0,P|356:352|371:323,1,65,2|0,0:2|0:2,0:0:0:0:
466,206,44979,2,0,P|428:213|396:216,1,65,8|0,0:2|0:2,0:0:0:0:
277,109,45379,2,0,P|333:117|345:173,1,97.5,2|0,3:2|0:2,0:0:0:0:
350,163,45779,6,0,P|359:124|373:96,1,65,2|0,3:2|0:2,0:0:0:0:
285,22,46179,1,2,0:2:0:0:
229,168,46379,1,2,0:2:0:0:
229,168,46579,2,0,P|178:156|130:154,1,97.5,8|0,0:2|0:2,0:0:0:0:
79,98,46979,1,2,3:2:0:0:
12,214,47179,2,0,L|19:184,2,21.6666666666667,0|0|0,1:2|1:2|1:2,0:0:0:0:
8,230,47379,6,0,P|65:214|123:254,1,130,2|2,3:2|0:2,0:0:0:0:
248,187,47979,1,2,0:2:0:0:
192,129,48179,2,0,P|160:146|125:155,1,65,8|2,0:2|0:2,0:0:0:0:
221,33,48579,1,2,3:2:0:0:
274,91,48779,1,0,0:2:0:0:
387,22,48979,38,0,B|455:31|425:81|501:85,1,130,0|0,3:2|0:2,0:0:0:0:
400,363,49779,2,0,P|384:292|347:237,1,130,8|2,0:2|3:2,0:0:0:0:
480,170,50379,2,0,L|510:177,2,21.6666666666667,2|0|0,1:2|1:2|1:2,0:0:0:0:
467,176,50579,38,0,P|451:204|433:259,1,65,2|0,3:2|0:2,0:0:0:0:
376,120,50979,1,2,0:2:0:0:
290,259,51179,1,2,0:2:0:0:
290,259,51379,2,0,P|325:247|370:244,1,65,8|0,0:2|0:2,0:0:0:0:
265,147,51779,5,2,3:2:0:0:
265,147,51979,2,0,P|232:142|202:131,1,65,2|0,0:2|3:2,0:0:0:0:
80,34,52379,2,0,P|117:71|105:152,1,130,2|0,0:2|0:2,0:0:0:0:
47,272,52979,2,0,P|86:257|166:244,1,97.5,8|0,0:2|0:2,0:0:0:0:
186,191,53379,1,0,3:2:0:0:
236,328,53579,2,0,L|266:335,2,21.6666666666667,2|0|0,1:2|1:2|1:2,0:0:0:0:
227,335,53779,6,0,P|219:298|193:248,1,65,2|0,3:2|0:2,0:0:0:0:
352,227,54179,2,0,P|323:252|293:299,1,65,2|0,0:2|0:2,0:0:0:0:
196,173,54579,2,0,P|232:184|288:187,1,65,10|0,0:2|0:2,0:0:0:0:
344,353,54979,1,2,3:2:0:0:
344,353,55179,1,0,0:2:0:0:
476,324,55379,37,2,3:2:0:0:
444,195,55579,2,0,P|385:216|322:234,1,97.5,8|0,0:2|0:2,0:0:0:0:
305,285,55979,1,8,0:2:0:0:
305,86,56179,38,0,P|375:87|395:151,1,130,10|0,0:2|3:2,0:0:0:0:
280,214,56779,1,2,0:2:0:0:
258,26,56979,6,0,P|206:49|139:64,1,97.5,6|0,3:2|0:2,0:0:0:0:
103,23,57379,1,2,0:2:0:0:
68,158,57579,1,2,0:2:0:0:
68,158,57779,2,0,P|63:117|43:81,1,65,8|0,0:2|0:2,0:0:0:0:
19,288,58179,6,0,P|69:255|126:255,1,97.5,2|0,3:2|0:2,0:0:0:0:
136,316,58579,2,0,B|199:313|167:354|245:343,1,97.5,2|0,3:2|0:2,0:0:0:0:
280,295,58979,1,2,0:2:0:0:
218,163,59179,1,2,0:2:0:0:
218,163,59379,2,0,P|199:189|196:250,1,65,8|0,0:2|0:2,0:0:0:0:
159,50,59779,1,2,3:2:0:0:
295,126,59979,2,0,L|325:119,2,21.6666666666667,2|0|0,1:2|1:2|1:2,0:0:0:0:
288,139,60179,38,0,P|322:186|336:248,1,97.5,2|0,3:2|0:2,0:0:0:0:
307,292,60579,1,2,0:2:0:0:
407,197,60779,2,0,P|444:213|484:219,1,65,2|8,0:2|0:2,0:0:0:0:
456,384,61179,1,2,0:2:0:0:
399,341,61379,2,0,P|367:348|337:361,1,65,2|0,3:2|0:2,0:0:0:0:
150,283,61779,38,0,B|230:292|193:333|273:341,1,130,0|0,3:2|0:2,0:0:0:0:
167,59,62579,2,0,P|116:58|99:146,1,130,8|2,0:2|3:2,0:0:0:0:
84,250,63179,2,0,L|54:243,2,21.6666666666667,2|0|0,1:2|1:2|1:2,0:0:0:0:
95,257,63379,6,0,P|108:201|126:170,1,65,2|0,3:2|0:2,0:0:0:0:
35,76,63779,1,2,0:2:0:0:
177,32,63979,1,2,0:2:0:0:
177,32,64179,2,0,P|221:48|267:56,1,65,8|0,0:2|0:2,0:0:0:0:
320,161,64579,5,2,3:2:0:0:
320,161,64779,2,0,P|288:169|258:181,1,65,2|0,0:2|3:2,0:0:0:0:
358,33,65179,2,0,B|432:36|408:85|489:83,1,130,2|0,0:2|0:2,0:0:0:0:
402,206,65779,2,0,P|394:166|421:136,1,65,8|0,0:2|0:2,0:0:0:0:
486,89,66179,1,2,3:2:0:0:
483,238,66379,2,0,L|513:245,2,21.6666666666667,2|0|0,1:2|1:2|1:2,0:0:0:0:
471,238,66579,38,0,P|429:248|371:285,1,97.5,2|0,3:2|0:2,0:0:0:0:
321,240,66979,1,2,0:2:0:0:
251,364,67179,2,0,P|213:340|171:328,1,65,2|8,0:2|0:2,0:0:0:0:
67,225,67579,1,2,0:2:0:0:
82,353,67779,2,0,P|121:311|120:270,1,97.5,2|0,3:2|0:2,0:0:0:0:
67,225,68179,38,0,P|129:245|216:257,1,126.749994197846,4|0,3:2|0:2,0:0:0:0:
254,221,68579,2,0,P|281:266|264:304,1,84.4999961318971,0|0,3:2|0:2,0:0:0:0:
155,165,68979,5,8,0:2:0:0:
287,113,69179,1,0,0:2:0:0:
227,14,69379,5,0,3:2:0:0:
419,71,69579,1,8,0:2:0:0:
254,221,69779,38,0,P|191:236|116:269,1,126.749994197846,0|0,3:2|0:2,0:0:0:0:
66,220,70179,1,4,0:2:0:0:
156,67,70379,1,8,0:2:0:0:
181,63,70479,1,0,3:2:0:0:
204,71,70579,1,8,0:3:0:0:
254,221,70779,1,8,0:3:0:0:
359,100,70979,38,0,P|339:108|309:113,1,42.2499980659486,2|0,3:2|0:2,0:0:0:0:
205,285,71179,2,0,P|185:277|155:272,1,42.2499980659486,2|0,3:2|0:2,0:0:0:0:
42,77,71379,6,0,P|141:101|153:166,1,146.250005578995,6|0,3:2|0:2,0:0:0:0:
115,200,71779,1,2,3:2:0:0:
208,365,71979,1,2,0:2:0:0:
208,365,72179,2,0,P|221:311|277:221,1,146.250005578995,8|0,0:2|0:2,0:0:0:0:
221,168,72579,1,2,3:2:0:0:
353,254,72779,1,2,0:2:0:0:
329,46,72979,6,0,P|391:89|360:185,1,146.250005578995,0|0,3:2|0:2,0:0:0:0:
466,192,73379,1,2,3:2:0:0:
499,33,73579,2,0,B|445:43|463:69|397:74,1,97.50000371933,2|8,0:2|0:2,0:0:0:0:
236,118,73979,2,0,P|282:143|323:193,1,97.50000371933,2|0,0:2|3:2,0:0:0:0:
433,318,74379,1,2,1:2:0:0:
434,308,74445,1,0,1:2:0:0:
435,298,74512,1,0,1:2:0:0:
436,288,74579,38,0,B|357:284|377:337|294:335,1,146.250005578995,2|0,3:2|0:2,0:0:0:0:
244,376,74979,1,2,3:2:0:0:
225,217,75179,2,0,P|173:239|121:250,1,97.50000371933,2|8,0:2|0:2,0:0:0:0:
12,372,75579,1,2,0:2:0:0:
112,323,75779,2,0,P|115:258|35:205,1,146.250005578995,2|0,3:2|0:2,0:0:0:0:
0,117,76179,38,0,B|88:122|55:53|171:60,1,146.250005578995,0|0,3:2|0:2,0:0:0:0:
193,101,76579,2,0,P|220:51|198:16,1,97.50000371933,0|0,3:2|0:2,0:0:0:0:
0,188,76979,6,0,P|79:207|146:261,1,146.250005578995,8|0,0:2|0:2,0:0:0:0:
198,185,77379,1,2,3:2:0:0:
345,312,77579,1,2,1:2:0:0:
343,321,77645,1,0,1:2:0:0:
341,330,77712,1,0,1:2:0:0:
339,339,77779,6,0,P|327:247|283:179,1,146.250005578995,6|0,3:2|0:2,0:0:0:0:
347,139,78179,1,2,3:2:0:0:
452,299,78379,1,2,0:2:0:0:
452,299,78579,2,0,B|367:316|398:245|296:277,1,146.250005578995,8|0,0:2|0:2,0:0:0:0:
255,326,78979,1,2,3:2:0:0:
204,193,79179,2,0,P|176:207|129:217,1,48.750001859665,2|0,0:2|0:2,0:0:0:0:
66,306,79379,38,0,P|32:242|79:184,1,146.250005578995,2|0,3:2|0:2,0:0:0:0:
159,212,79779,2,0,B|215:212|193:256|274:248,1,97.50000371933,2|0,3:2|0:2,0:0:0:0:
340,369,80179,2,0,P|399:325|465:295,1,146.250005578995,10|0,0:2|0:2,0:0:0:0:
492,227,80579,1,2,3:2:0:0:
354,167,80779,1,0,1:2:0:0:
344,168,80845,1,0,1:2:0:0:
334,170,80912,1,0,1:2:0:0:
324,172,80979,38,0,P|294:102|337:46,1,146.250005578995,6|0,3:2|0:2,0:0:0:0:
395,8,81379,2,0,P|441:34|505:51,1,97.50000371933,2|0,3:2|0:2,0:0:0:0:
382,232,81779,2,0,P|335:247|293:271,1,97.50000371933,8|0,0:2|0:2,0:0:0:0:
191,105,82179,2,0,B|108:123|146:173|29:178,1,146.250005578995,2|0,3:2|0:2,0:0:0:0:
1,133,82579,5,2,3:2:0:0:
194,181,82779,2,0,P|212:236|219:284,1,97.50000371933,10|0,0:2|3:2,0:0:0:0:
108,358,83179,1,2,0:2:0:0:
281,188,83379,5,10,0:2:0:0:
63,96,83579,1,2,0:2:0:0:
243,24,83779,37,2,3:2:0:0:
132,236,83979,1,2,0:2:0:0:
9,36,84179,38,0,P|107:86|159:136,1,146.250005578995,6|0,3:2|0:2,0:0:0:0:
201,82,84579,1,2,3:2:0:0:
257,258,84779,1,2,0:2:0:0:
257,258,84979,2,0,B|182:270|198:321|96:326,1,146.250005578995,8|0,0:2|0:2,0:0:0:0:
72,369,85379,1,2,3:2:0:0:
138,183,85579,1,2,0:2:0:0:
290,329,85779,6,0,P|339:259|299:197,1,146.250005578995,0|0,3:2|0:2,0:0:0:0:
249,175,86179,1,2,3:2:0:0:
424,151,86379,2,0,P|476:170|530:206,1,97.50000371933,2|8,0:2|0:2,0:0:0:0:
326,64,86779,2,0,B|272:76|301:93|238:104,1,97.50000371933,2|0,0:2|3:2,0:0:0:0:
422,10,87179,1,2,1:2:0:0:
431,12,87245,1,0,1:2:0:0:
440,14,87312,1,0,1:2:0:0:
449,16,87379,6,0,P|414:79|426:156,1,146.250005578995,6|0,3:2|0:2,0:0:0:0:
495,199,87779,1,2,3:2:0:0:
324,98,87979,1,2,0:2:0:0:
267,307,88179,2,0,P|334:276|409:259,1,146.250005578995,8|0,0:2|0:2,0:0:0:0:
486,286,88579,2,0,P|510:235|460:180,1,97.50000371933,2|2,3:2|0:2,0:0:0:0:
432,159,88879,1,2,0:2:0:0:
432,159,88979,38,0,B|376:167|397:194|316:202,1,97.50000371933,4|0,3:2|0:2,0:0:0:0:
261,319,89379,2,0,P|219:288|155:270,1,97.50000371933,0|0,3:2|0:2,0:0:0:0:
8,359,89779,37,10,0:2:0:0:
224,212,89979,1,8,0:2:0:0:
22,113,90179,5,2,3:2:0:0:
99,288,90379,1,2,1:2:0:0:
100,278,90445,1,0,1:2:0:0:
101,268,90512,1,0,1:2:0:0:
102,258,90579,6,0,B|184:259|155:314|257:311,1,146.250005578995,6|0,3:2|0:2,0:0:0:0:
294,266,90979,1,2,3:2:0:0:
170,159,91179,1,2,0:2:0:0:
304,71,91379,2,0,P|374:111|451:136,1,146.250005578995,8|0,0:2|0:2,0:0:0:0:
467,202,91779,2,0,P|510:164|508:119,1,97.50000371933,2|2,3:2|0:2,0:0:0:0:
295,151,92179,38,0,B|214:134|258:84|128:78,1,146.250005578995,2|0,3:2|0:2,0:0:0:0:
105,121,92579,2,0,P|66:101|20:67,1,97.50000371933,2|2,3:2|0:2,0:0:0:0:
7,288,92979,2,0,P|69:255|153:226,1,146.250005578995,8|0,0:2|0:2,0:0:0:0:
227,259,93379,2,0,P|244:303|217:353,1,97.50000371933,2|2,3:2|1:2,0:0:0:0:
224,346,93645,1,0,1:2:0:0:
224,346,93712,1,0,1:2:0:0:
224,346,93779,38,0,B|283:333|268:372|322:361,1,97.50000371933,6|2,3:2|0:2,0:0:0:0:
508,357,94179,2,0,P|444:309|354:282,1,146.250005578995,0|0,3:2|0:2,0:0:0:0:
358,180,94579,2,0,P|294:228|204:255,1,146.250005578995,8|0,0:2|0:2,0:0:0:0:
159,360,94979,6,0,P|145:331|121:304,1,48.750001859665,2|0,3:2|0:2,0:0:0:0:
227,177,95179,2,0,P|241:148|265:121,1,48.750001859665,10|0,0:2|0:2,0:0:0:0:
73,75,95379,6,0,B|82:12|155:19|209:101|120:205|120:205|16:204|-45:157|-41:89|9:23|70:99,1,572.000017456055,6|4,3:2|0:2,0:0:0:0:
72,101,97379,1,0,0:2:0:0:
49,251,97779,2,0,P|107:217|176:194,1,130,8|0,0:2|0:2,0:0:0:0:
166,196,98379,1,0,0:2:0:0:
225,82,98579,2,0,P|255:100|300:110,1,65,0|8,3:2|0:2,0:0:0:0:
407,183,98979,2,0,B|342:198|370:233|288:250,1,130,0|10,3:2|0:2,0:0:0:0:
293,355,99579,1,2,0:2:0:0:
417,260,99779,1,2,3:2:0:0:
287,165,99979,2,0,L|257:158,2,21.6666666666667,0|0|0,1:2|1:2|1:2,0:0:0:0:
294,173,100179,38,0,P|308:108|348:40,1,130,6|8,3:2|0:2,0:0:0:0:
200,58,100779,1,0,3:2:0:0:
388,6,100979,2,0,P|399:20|407:60,1,32.5,8|0,0:3|0:2,0:0:0:0:
458,272,101379,38,0,B|388:275|414:220|329:230,1,130,6|8,3:2|0:2,0:0:0:0:
340,229,102179,1,2,3:2:0:0:
266,327,102379,2,0,L|273:357,3,21.6666666666667,2|0|0|8,1:2|1:2|1:2|2:2,0:0:0:0:
197,232,102779,5,2,3:2:0:0:
118,211,102979,1,10,0:2:0:0:
69,277,103179,1,10,0:2:0:0:
0,137,103379,6,0,P|33:149|86:155,1,65,6|0,3:2|0:2,0:0:0:0:
157,74,103779,1,2,0:2:0:0:
121,254,103979,1,2,0:2:0:0:
121,254,104179,2,0,P|154:242|207:236,1,65,8|0,0:2|0:2,0:0:0:0:
317,122,104579,2,0,B|375:127|351:158|413:161,1,97.5,2|0,3:2|0:2,0:0:0:0:
474,143,104979,38,0,P|488:173|474:222,1,65,2|0,3:2|0:2,0:0:0:0:
371,322,105379,1,2,0:2:0:0:
314,196,105579,1,2,0:2:0:0:
314,196,105779,2,0,P|264:218|209:230,1,97.5,8|0,0:2|0:2,0:0:0:0:
228,305,106179,1,2,3:2:0:0:
94,270,106379,2,0,L|64:263,2,21.6666666666667,0|0|0,1:2|1:2|1:2,0:0:0:0:
106,279,106579,38,0,B|184:275|148:230|247:225,1,130,2|2,3:2|0:2,0:0:0:0:
119,152,107179,2,0,P|86:169|42:179,1,65,2|8,0:2|0:2,0:0:0:0:
0,307,107579,1,2,0:2:0:0:
0,307,107779,2,0,P|31:316|59:331,1,65,2|0,3:2|0:2,0:0:0:0:
219,174,108179,6,0,P|174:130|110:167,1,130,0|0,3:2|0:2,0:0:0:0:
345,375,108979,2,0,B|423:369|383:330|461:324,1,130,8|2,0:2|3:2,0:0:0:0:
468,196,109579,2,0,L|498:203,2,21.6666666666667,2|0|0,1:2|1:2|1:2,0:0:0:0:
457,193,109779,6,0,P|445:220|437:274,1,65,2|0,3:2|0:2,0:0:0:0:
366,143,110179,1,2,0:2:0:0:
446,49,110379,1,2,0:2:0:0:
446,49,110579,2,0,P|409:61|362:67,1,65,8|0,0:2|0:2,0:0:0:0:
247,184,110979,37,2,3:2:0:0:
247,184,111179,2,0,P|278:190|309:200,1,65,2|0,0:2|3:2,0:0:0:0:
260,52,111579,2,0,P|196:33|155:97,1,130,2|0,0:2|0:2,0:0:0:0:
41,174,112179,2,0,B|98:178|76:218|152:217,1,97.5,8|0,0:2|0:2,0:0:0:0:
181,169,112579,1,0,3:2:0:0:
109,323,112779,2,0,L|102:293,2,21.6666666666667,2|0|0,1:2|1:2|1:2,0:0:0:0:
114,338,112979,37,2,3:2:0:0:
195,253,113179,1,0,0:2:0:0:
329,304,113379,2,0,P|306:335|298:368,1,65,2|0,0:2|0:2,0:0:0:0:
276,217,113779,2,0,P|314:221|346:211,1,65,10|0,0:2|0:2,0:0:0:0:
228,307,114179,2,0,P|212:271|188:248,1,65,2|0,3:2|0:2,0:0:0:0:
260,88,114579,5,2,3:2:0:0:
305,151,114779,2,0,B|383:149|340:100|447:97,1,130,8|0,0:2|0:2,0:0:0:0:
486,315,115379,2,0,P|448:285|378:268,1,97.5,10|0,0:2|0:2,0:0:0:0:
350,221,115779,6,0,P|337:240|329:274,1,32.5,10|0,0:2|0:2,0:0:0:0:
268,314,115979,2,0,P|277:326|284:341,1,32.5,10|0,0:2|0:2,0:0:0:0:
225,173,116179,38,0,P|187:196|120:224,1,97.5,6|0,3:2|0:2,0:0:0:0:
65,196,116579,1,2,0:2:0:0:
76,346,116779,1,2,0:2:0:0:
76,346,116979,2,0,P|25:368|-4:391,1,65,8|0,0:2|0:2,0:0:0:0:
0,242,117379,1,2,3:2:0:0:
175,374,117579,38,0,P|196:328|178:289,1,65,2|0,0:2|3:2,0:0:0:0:
56,118,117979,2,0,P|35:164|53:203,1,65,2|0,0:2|0:2,0:0:0:0:
223,245,118379,1,2,0:2:0:0:
223,245,118579,2,0,B|297:240|262:197|353:196,1,130,8|2,0:2|3:2,0:0:0:0:
432,359,119179,2,0,L|462:366,2,21.6666666666667,0|0|0,1:2|1:2|1:2,0:0:0:0:
422,352,119379,6,0,P|435:295|465:249,1,97.5,2|0,3:2|0:2,0:0:0:0:
411,207,119779,1,2,0:2:0:0:
450,74,119979,2,0,P|479:89|510:96,1,65,2|8,0:2|0:2,0:0:0:0:
354,159,120379,1,2,0:2:0:0:
354,159,120579,2,0,B|299:161|324:196|236:202,1,97.5,2|0,3:2|0:2,0:0:0:0:
211,151,120979,5,2,3:2:0:0:
310,43,121179,1,10,0:2:0:0:
310,43,121579,37,10,0:2:0:0:
205,79,121779,1,10,0:2:0:0:
190,197,121979,37,2,3:2:0:0:
85,161,122179,1,8,0:3:0:0:
3,257,122379,2,0,L|10:287,2,21.6666666666667,2|0|0,1:2|1:2|1:2,0:0:0:0:
0,241,122579,5,6,3:2:0:0:
99,347,122779,2,0,P|136:332|181:322,1,65,8|2,0:2|0:2,0:0:0:0:
336,257,123179,1,2,0:2:0:0:
336,257,123379,2,0,B|284:249|305:226|237:223,1,97.5,8|0,0:2|0:2,0:0:0:0:
186,260,123779,1,2,3:2:0:0:
255,89,123979,6,0,P|241:46|218:11,1,65,2|0,0:2|3:2,0:0:0:0:
371,122,124379,1,2,0:2:0:0:
371,122,124579,2,0,P|356:150|347:182,1,65,2|0,0:2|0:2,0:0:0:0:
482,300,124979,2,0,B|433:308|449:335|392:345,1,97.5,8|0,0:2|0:2,0:0:0:0:
337,303,125379,1,2,3:2:0:0:
449,225,125579,2,0,L|419:218,2,21.6666666666667,2|0|0,1:2|1:2|1:2,0:0:0:0:
457,234,125779,38,0,P|451:181|424:122,1,97.5,2|0,3:2|0:2,0:0:0:0:
484,82,126179,1,2,0:2:0:0:
362,17,126379,2,0,P|328:29|293:35,1,65,2|8,0:2|0:2,0:0:0:0:
254,131,126779,1,2,0:2:0:0:
188,15,126979,38,0,P|161:25|131:33,1,32.5,10|0,0:2|0:2,0:0:0:0:
32,102,127179,2,0,P|47:107|62:113,1,32.5,8|0,0:2|0:2,0:0:0:0:
306,195,127361,6,0,P|266:205|206:239,1,84.4999961318971,4|8,3:2|0:2,0:0:0:0:
0,269,127761,2,0,B|74:269|38:322|143:319,1,126.749994197846,0|0,0:2|0:2,0:0:0:0:
163,384,128161,2,0,P|141:324|184:279,1,126.749994197846,12|0,0:2|0:2,0:0:0:0:
254,294,128561,1,0,3:2:0:0:
141,156,128761,1,8,0:2:0:0:
296,71,128961,6,0,P|353:105|431:122,1,126.749994197846,0|0,3:2|0:2,0:0:0:0:
512,185,129361,2,0,P|451:201|397:234,1,126.749994197846,12|0,0:2|0:2,0:0:0:0:
332,198,129761,37,8,0:2:0:0:
512,321,129961,1,0,3:2:0:0:
490,105,130161,37,8,0:3:0:0:
398,308,130361,1,2,1:2:0:0:
395,316,130427,1,0,1:2:0:0:
392,325,130494,1,0,1:2:0:0:
389,333,130561,6,0,B|310:346|331:283|236:301,1,146.250005578995,6|0,3:2|0:2,0:0:0:0:
200,348,130961,1,2,3:2:0:0:
124,128,131161,1,2,0:2:0:0:
124,128,131361,2,0,P|189:115|232:202,1,146.250005578995,8|0,0:2|0:2,0:0:0:0:
202,239,131761,1,2,3:2:0:0:
352,156,131961,1,2,0:2:0:0:
255,65,132161,6,0,P|188:105|124:127,1,146.250005578995,0|0,3:2|0:2,0:0:0:0:
78,57,132561,1,2,3:2:0:0:
304,131,132761,2,0,B|362:127|340:99|402:98,1,97.50000371933,2|8,0:2|0:2,0:0:0:0:
481,209,133161,2,0,P|422:178|367:172,1,97.50000371933,2|0,0:2|3:2,0:0:0:0:
237,272,133561,1,2,1:2:0:0:
238,281,133627,1,0,1:2:0:0:
239,290,133694,1,0,1:2:0:0:
239,299,133761,38,0,B|321:291|284:248|374:239,1,146.250005578995,2|0,3:2|0:2,0:0:0:0:
432,288,134161,1,2,3:2:0:0:
318,134,134361,2,0,P|271:128|205:108,1,97.50000371933,2|8,0:2|0:2,0:0:0:0:
58,196,134761,1,0,0:2:0:0:
168,182,134961,2,0,P|186:109|113:76,1,146.250005578995,2|0,3:2|0:2,0:0:0:0:
27,37,135361,38,0,P|52:80|66:151,1,97.50000371933,0|0,3:2|0:2,0:0:0:0:
15,318,135761,2,0,B|106:308|47:259|173:251,1,146.250005578995,0|0,3:2|0:2,0:0:0:0:
168,182,136161,2,0,P|232:223|322:244,1,146.250005578995,8|0,0:2|0:2,0:0:0:0:
359,193,136561,1,2,3:2:0:0:
463,332,136761,1,2,1:2:0:0:
460,340,136827,1,0,1:2:0:0:
458,349,136894,1,0,1:2:0:0:
455,358,136961,6,0,P|450:289|419:192,1,146.250005578995,6|0,3:2|0:2,0:0:0:0:
477,160,137361,1,2,3:2:0:0:
318,313,137561,1,2,0:2:0:0:
318,313,137761,2,0,B|236:308|268:263|169:257,1,146.250005578995,8|0,0:2|0:2,0:0:0:0:
140,317,138161,1,2,3:2:0:0:
5,224,138361,2,0,P|24:245|34:285,1,48.750001859665,2|0,0:2|0:2,0:0:0:0:
32,365,138561,6,0,P|63:281|137:216,1,146.250005578995,0|0,3:2|0:2,0:0:0:0:
111,166,138961,2,0,B|164:167|143:198|211:195,1,97.50000371933,2|0,3:2|0:2,0:0:0:0:
342,61,139361,2,0,P|289:30|237:103,1,146.250005578995,10|0,0:2|0:2,0:0:0:0:
264,147,139761,1,2,3:2:0:0:
88,29,139961,1,0,1:2:0:0:
79,31,140027,1,0,1:2:0:0:
69,33,140094,1,0,1:2:0:0:
59,35,140161,38,0,P|98:87|106:192,1,146.250005578995,6|0,3:2|0:2,0:0:0:0:
51,205,140561,2,0,P|110:216|152:231,1,97.50000371933,2|0,3:2|0:2,0:0:0:0:
257,20,140961,2,0,P|210:35|162:43,1,97.50000371933,8|0,0:2|0:2,0:0:0:0:
251,168,141361,1,2,3:2:0:0:
350,35,141561,1,2,0:2:0:0:
454,164,141761,37,2,3:2:0:0:
284,92,141961,1,10,0:2:0:0:
230,239,142161,5,0,3:2:0:0:
367,187,142361,1,8,0:3:0:0:
464,357,142561,5,10,0:2:0:0:
283,289,142761,1,2,3:2:0:0:
454,164,142961,37,2,3:2:0:0:
314,384,143161,1,2,1:2:0:0:
304,381,143227,1,0,1:2:0:0:
294,378,143294,1,0,1:2:0:0:
284,375,143361,38,0,P|268:319|214:215,1,146.250005578995,6|0,3:2|0:2,0:0:0:0:
278,184,143761,1,2,3:2:0:0:
227,33,143961,1,2,0:2:0:0:
227,33,144161,2,0,B|151:47|175:90|87:94,1,146.250005578995,8|0,0:2|0:2,0:0:0:0:
39,52,144561,1,2,3:2:0:0:
226,109,144761,1,2,0:2:0:0:
56,181,144961,6,0,P|128:237|118:305,1,146.250005578995,0|0,3:2|0:2,0:0:0:0:
69,341,145361,1,2,3:2:0:0:
245,183,145561,6,0,B|296:185|281:214|343:212,1,97.50000371933,2|8,0:2|0:2,0:0:0:0:
481,28,145961,2,0,P|439:54|388:70,1,97.50000371933,2|0,0:2|3:2,0:0:0:0:
463,209,146361,1,2,1:2:0:0:
465,199,146427,1,0,1:2:0:0:
467,189,146494,1,0,1:2:0:0:
469,179,146561,38,0,P|412:145|326:142,1,146.250005578995,6|0,3:2|0:2,0:0:0:0:
282,88,146961,1,2,3:2:0:0:
171,257,147161,2,0,P|159:191|135:146,1,97.50000371933,2|8,0:2|0:2,0:0:0:0:
144,27,147561,1,2,0:2:0:0:
282,88,147761,2,0,P|263:133|257:181,1,97.50000371933,2|0,3:2|0:2,0:0:0:0:
209,342,148161,38,0,P|123:275|47:280,1,146.250005578995,4|0,3:2|0:2,0:0:0:0:
32,324,148561,1,0,3:2:0:0:
31,133,148761,5,0,3:2:0:0:
52,143,148861,1,0,1:2:0:0:
76,145,148961,1,10,0:2:0:0:
163,61,149161,1,0,3:2:0:0:
214,201,149361,1,8,0:3:0:0:
295,94,149561,1,2,1:2:0:0:
285,96,149627,1,0,1:2:0:0:
275,98,149694,1,0,1:2:0:0:
265,100,149761,6,0,P|246:169|286:234,1,146.250005578995,4|0,3:2|0:2,0:0:0:0:
350,195,150161,1,2,3:2:0:0:
262,364,150361,1,2,0:2:0:0:
418,298,150561,2,0,P|469:310|518:325,1,97.50000371933,8|0,0:2|0:2,0:0:0:0:
482,163,150961,1,2,3:2:0:0:
352,256,151161,38,0,P|342:201|378:160,1,97.50000371933,2|0,0:2|3:2,0:0:0:0:
512,91,151561,1,0,0:2:0:0:
391,27,151761,2,0,P|351:45|295:57,1,97.50000371933,2|2,3:2|0:2,0:0:0:0:
260,213,152161,38,0,P|200:184|102:155,1,146.250005578995,8|0,0:2|0:2,0:0:0:0:
86,96,152561,1,2,3:2:0:0:
3,288,152748,2,0,L|-4:248,2,21.6666666666667,2|0|0,1:2|1:2|1:2,0:0:0:0:
7,299,153014,6,0,B|57:296|54:240|122:247,1,97.50000371933,4|2,3:2|0:2,0:0:0:0:
155,210,153314,1,2,0:2:0:0:
155,210,153414,2,0,P|209:259|165:338,1,146.250005578995,2|0,0:2|0:2,0:0:0:0:
136,384,153762,6,0,P|214:348|285:332,1,146.250005578995,8|0,0:2|0:2,0:0:0:0:
418,366,154161,38,0,P|407:344|393:325,1,48.750001859665,2|0,3:2|0:2,0:0:0:0:
488,217,154361,2,0,P|498:195|513:175,1,48.750001859665,10|0,0:2|0:2,0:0:0:0:
334,50,154562,38,0,B|325:-13|252:-6|198:76|287:180|287:180|391:179|452:132|448:64|398:-2|337:74,1,572.000017456055,6|4,3:2|0:2,0:0:0:0:
336,74,156561,1,0,0:2:0:0:
346,213,156962,2,0,P|287:177|224:159,1,130,8|0,0:2|3:2,0:0:0:0:
112,105,157561,5,8,0:2:0:0:
112,105,157661,1,0,1:2:0:0:
112,105,157761,1,0,3:2:0:0:
181,225,157961,1,8,0:2:0:0:
246,47,158161,1,4,3:2:0:0:
246,47,158562,6,0,P|264:84|270:126,1,65,8|0,0:2|3:2,0:0:0:0:
371,141,158961,2,0,P|340:201|329:260,1,97.5,8|0,0:3|0:2,0:0:0:0:
370,304,159361,38,0,P|330:260|251:278,1,130,6|2,3:2|1:2,0:0:0:0:
264,266,160161,1,10,0:0:0:0:
179,336,160361,1,8,0:2:0:0:
50,222,160562,2,0,P|91:227|128:239,1,65,6|8,3:2|0:2,0:0:0:0:
125,256,160861,1,8,2:2:0:0:
125,256,160961,2,0,P|120:214|171:132,1,130,8|2,0:2|3:2,0:0:0:0:
157,46,161561,2,0,L|187:53,2,21.6666666666667,10|0|0,1:2|1:2|1:2,0:0:0:0:
141,43,161761,37,8,0:2:0:0:
242,139,161961,1,8,0:3:0:0:
319,30,162162,2,0,P|352:42|407:50,1,65,2|0,3:2|1:2,0:0:0:0:
512,116,162562,6,0,P|455:109|414:201,1,143.000004364014,6|0,3:2|0:2,0:0:0:0:
265,368,163361,2,0,P|242:284|195:213,1,143.000004364014,10|0,0:2|3:2,0:0:0:0:
42,45,164162,6,0,B|91:49|68:70|125:69,1,71.5000021820069,6|8,3:2|0:2,0:0:0:0:
160,149,164562,2,0,P|217:107|277:82,1,107.25000327301,0|0,3:2|0:2,0:0:0:0:
247,19,164961,2,0,B|326:24|286:70|398:70,1,143.000004364014,10|0,0:2|0:2,0:0:0:0:
472,24,165561,2,0,L|503:32,2,23.833334060669,0|0|0,1:2|1:2|1:2,0:0:0:0:
458,21,165762,38,0,P|414:72|438:144,1,143.000004364014,6|2,3:2|0:2,0:0:0:0:
318,359,166561,2,0,B|408:345|359:299|462:296,1,143.000004364014,10|2,0:2|3:2,0:0:0:0:
228,162,167362,2,0,P|263:168|312:198,2,71.5000021820069,2|8|0,3:2|0:2|3:2,0:0:0:0:
228,162,167961,1,2,0:2:0:0:
128,260,168161,37,10,0:2:0:0:
76,133,168361,1,2,0:2:0:0:
189,98,168561,1,2,3:2:0:0:
14,77,168761,2,0,L|45:69,2,23.833334060669,2|0|0,1:2|1:2|1:2,0:0:0:0:
2,82,168961,6,0,P|46:127|36:225,1,143.000004364014,6|2,3:2|0:2,0:0:0:0:
193,349,169762,2,0,B|264:348|241:296|339:294,1,143.000004364014,10|2,0:2|0:2,0:0:0:0:
435,93,170561,6,0,P|411:128|405:177,1,71.5000021820069,2|8,3:2|0:2,0:0:0:0:
397,275,170962,2,0,P|362:229|291:228,1,107.25000327301,2|0,3:2|0:2,0:0:0:0:
272,152,171362,2,0,P|217:189|133:214,1,143.000004364014,10|0,0:2|0:2,0:0:0:0:
26,278,171961,2,0,L|18:247,2,23.833334060669,0|0|0,1:2|1:2|1:2,0:0:0:0:
31,292,172162,38,0,B|110:283|79:345|176:331,1,143.000004364014,6|2,3:2|0:2,0:0:0:0:
428,300,172962,2,0,P|443:331|433:365,1,71.5000021820069,10|0,0:2|0:2,0:0:0:0:
291,344,173362,2,0,P|257:359|213:382,1,71.5000021820069,2|0,3:2|0:2,0:0:0:0:
143,212,173761,37,2,3:2:0:0:
300,269,173961,1,8,0:2:0:0:
415,149,174161,1,2,3:2:0:0:
239,74,174361,5,0,3:2:0:0:
229,93,174461,1,0,1:2:0:0:
231,114,174561,1,10,0:2:0:0:
388,79,174761,1,2,3:2:0:0:
340,211,174961,5,10,0:2:0:0:
146,143,175161,1,10,0:2:0:0:
81,335,175361,38,0,P|189:294|267:275,2,168.999992263794,6|0|10,3:2|0:2|0:2,0:0:0:0:
17,74,176562,2,0,B|113:72|67:136|200:132,1,168.999992263794,6|0,3:2|3:2,0:0:0:0:
170,131,177161,1,2,0:2:0:0:
313,222,177361,38,0,P|381:186|444:170,1,126.749994197846,2|0,3:2|0:2,0:0:0:0:
494,214,177762,2,0,P|527:163|462:100,1,126.749994197846,10|0,0:2|0:2,0:0:0:0:
428,98,178161,1,2,1:2:0:0:
313,222,178361,1,8,0:2:0:0:
194,24,178562,6,0,B|292:18|253:86|382:72,2,168.999992263794,6|0|10,3:2|0:2|0:2,0:0:0:0:
0,296,179761,2,0,P|95:232|183:212,1,168.999992263794,2|2,3:2|3:2,0:0:0:0:
8,63,180361,5,10,0:2:0:0:
59,121,180562,2,0,B|132:103|110:159|195:134,1,126.749994197846,0|0,3:2|0:2,0:0:0:0:
249,100,180962,2,0,P|208:153|237:221,1,126.749994197846,10|0,0:2|0:2,0:0:0:0:
289,237,181361,1,2,3:2:0:0:
205,364,181561,1,2,1:2:0:0:
454,336,181761,38,0,B|381:326|420:288|319:288,1,126.749994197846,6|0,3:2|0:2,0:0:0:0:
284,239,182161,1,8,0:3:0:0:
444,148,182361,1,8,0:2:0:0:
296,52,182561,2,0,P|276:62|246:72,1,42.2499980659486,8|0,0:2|0:2,0:0:0:0:
338,117,182962,38,0,B|240:116|285:55|158:66,1,168.999992263794,6|8,3:2|0:2,0:0:0:0:
122,21,183461,1,0,1:2:0:0:
122,21,183561,1,0,3:2:0:0:
212,153,183761,5,2,3:2:0:0:
96,203,183961,1,2,1:2:0:0:
4,133,184161,5,2,3:2:0:0:
190,250,184361,2,0,P|193:274|183:306,1,42.2499980659486,6|0,0:2|0:2,0:0:0:0:
0,348,184561,37,8,0:2:0:0:
96,203,184761,1,8,0:2:0:0:
121,198,184861,1,8,0:2:0:0:
146,193,184961,2,0,B|206:219|295:244,1,126.749994197846,6|0,0:2|0:2,0:0:0:0:
309,297,185361,37,8,0:2:0:0:
487,198,185561,1,0,3:2:0:0:
489,331,185761,5,0,1:2:0:0:
346,229,185961,1,8,0:3:0:0:
453,114,186161,5,2,3:2:0:0:
312,64,186361,1,2,1:2:0:0:
214,194,186561,37,2,3:2:0:0:
371,165,186761,1,2,3:2:0:0:
380,141,186861,1,2,1:2:0:0:
374,116,186961,1,10,0:2:0:0:
230,33,187161,1,0,3:2:0:0:
109,162,187361,37,2,1:2:0:0:
214,194,187561,1,8,0:3:0:0:
210,315,187761,5,2,3:2:0:0:
373,261,187961,1,0,3:0:0:0:
216,121,188146,54,0,P|155:147|30:190,2,195.00000743866,6|2|8,3:2|0:2|0:2,0:0:0:0:
216,121,189346,1,2,3:2:0:0:
66,67,189546,2,0,P|42:105|41:134,1,48.750001859665,10|0,0:2|0:2,0:0:0:0:
7,301,189746,102,0,B|93:295|56:251|167:245,1,146.250005578995,0|0,3:2|0:2,0:0:0:0:
184,187,190146,1,2,0:2:0:0:
262,347,190346,1,2,0:2:0:0:
393,223,190546,101,8,0:2:0:0:
245,257,190746,1,2,0:2:0:0:
319,113,190946,21,2,3:2:0:0:
461,194,191146,1,2,1:2:0:0:
463,203,191213,1,0,1:2:0:0:
465,212,191279,1,0,1:2:0:0:
467,221,191346,102,0,B|384:228|407:279|324:278,1,146.250005578995,2|0,3:2|0:2,0:0:0:0:
290,339,191746,1,2,0:2:0:0:
282,148,191946,2,0,P|236:174|173:193,1,97.50000371933,2|8,0:2|0:2,0:0:0:0:
97,251,192346,1,2,0:2:0:0:
162,124,192546,2,0,P|131:109|94:111,1,48.750001859665,2|0,3:2|0:2,0:0:0:0:
9,286,192746,102,0,B|68:287|33:330|131:323,1,97.50000371933,10|0,0:2|3:2,0:0:0:0:
213,256,193146,1,2,0:2:0:0:
286,382,193346,2,0,P|334:353|392:333,1,97.50000371933,2|0,0:2|0:2,0:0:0:0:
485,248,193746,2,0,P|439:229|398:204,1,97.50000371933,8|0,0:2|0:2,0:0:0:0:
304,260,194146,21,2,3:2:0:0:
464,157,194346,1,2,1:2:0:0:
466,147,194413,1,0,1:2:0:0:
468,137,194479,1,0,1:2:0:0:
470,127,194546,102,0,P|409:158|302:168,1,146.250005578995,6|0,3:2|0:2,0:0:0:0:
304,260,194946,2,0,P|243:229|136:219,1,146.250005578995,2|0,0:2|0:2,0:0:0:0:
91,268,195346,2,0,P|46:212|116:141,1,146.250005578995,10|0,0:2|0:2,0:0:0:0:
163,126,195746,1,2,3:2:0:0:
130,334,195946,2,0,P|159:320|187:314,1,48.750001859665,8|0,0:2|0:2,0:0:0:0:
355,232,196146,102,0,P|373:278|346:332,1,97.50000371933,2|0,3:2|0:2,0:0:0:0:
166,216,196546,2,0,P|148:170|175:116,1,97.50000371933,2|0,0:2|0:2,0:0:0:0:
352,50,196946,2,0,P|403:67|460:80,1,97.50000371933,10|0,0:2|0:2,0:0:0:0:
300,145,197346,1,2,3:2:0:0:
458,203,197546,1,0,1:2:0:0:
460,193,197613,1,0,1:2:0:0:
462,183,197679,1,0,1:2:0:0:
464,173,197746,22,0,B|413:174|431:200|358:200,1,97.50000371933,2|2,3:2|0:2,0:0:0:0:
275,292,198146,1,2,0:2:0:0:
399,370,198346,1,2,0:2:0:0:
467,243,198546,101,10,0:2:0:0:
336,188,198746,1,2,0:2:0:0:
451,127,198946,101,2,3:2:0:0:
323,309,199146,2,0,P|319:285|311:263,1,48.750001859665,8|0,0:2|0:2,0:0:0:0:
467,243,199346,5,2,3:2:0:0:
263,145,199546,2,0,P|258:168|250:191,1,48.750001859665,8|0,0:2|0:2,0:0:0:0:
158,300,199746,101,0,3:2:0:0:
93,143,199946,1,0,3:2:0:0:
69,149,200046,1,0,1:2:0:0:
45,155,200146,1,8,0:2:0:0:
47,283,200346,53,8,0:2:0:0:
173,201,200546,1,8,0:3:0:0:
16,89,200746,69,0,3:0:0:0:
208,136,200946,2,0,B|300:138|262:86|370:88,1,146.250005578995,6|0,3:2|0:2,0:0:0:0:
408,137,201346,1,2,0:2:0:0:
287,251,201546,2,0,P|206:219|158:211,2,97.50000371933,2|8|0,0:2|0:2|0:2,0:0:0:0:
408,137,202146,1,2,3:2:0:0:
381,296,202346,102,0,B|326:300|355:329|265:333,1,97.50000371933,10|0,0:2|3:2,0:0:0:0:
196,216,202746,1,2,0:2:0:0:
118,338,202946,2,0,P|100:284|67:240,1,97.50000371933,2|0,3:2|0:2,0:0:0:0:
236,128,203346,2,0,P|209:168|195:215,1,97.50000371933,8|0,0:2|0:2,0:0:0:0:
84,127,203746,1,2,3:2:0:0:
220,54,203946,1,2,1:2:0:0:
210,55,204013,1,0,1:2:0:0:
200,57,204079,1,0,1:2:0:0:
190,60,204146,54,0,B|276:61|229:123|350:119,1,146.250005578995,2|0,3:2|0:2,0:0:0:0:
374,66,204546,1,2,0:2:0:0:
493,154,204746,1,2,3:2:0:0:
500,177,204846,1,0,1:2:0:0:
492,200,204946,1,8,0:2:0:0:
327,255,205146,1,10,0:2:0:0:
417,369,205346,2,0,P|458:343|521:318,2,97.50000371933,6|8|0,3:2|0:2|0:2,0:0:0:0:
327,255,205946,69,8,0:2:0:0:
259,348,206146,2,0,P|214:320|142:303,1,97.50000371933,0|0,3:2|0:2,0:0:0:0:
127,164,206546,2,0,P|82:192|10:209,1,97.50000371933,8|8,0:2|0:2,0:0:0:0:
16,363,206946,101,2,3:2:0:0:
129,246,207146,1,2,1:2:0:0:
15,96,207346,53,6,3:2:0:0:
196,190,207546,1,2,0:2:0:0:
245,31,207746,69,2,0:2:0:0:
92,118,207946,1,2,0:2:0:0:
220,270,208146,102,0,P|296:224|380:205,1,146.250005578995,10|0,0:2|0:2,0:0:0:0:
411,254,208546,1,2,0:2:0:0:
506,142,208746,1,8,0:2:0:0:
357,48,208946,54,0,B|300:54|335:88|233:88,1,97.50000371933,2|0,3:2|0:2,0:0:0:0:
196,190,209346,2,0,B|139:184|174:150|72:150,1,97.50000371933,2|0,3:2|0:2,0:0:0:0:
55,336,209746,69,10,0:2:0:0:
228,260,209946,1,0,3:2:0:0:
52,201,210146,101,10,0:2:0:0:
184,347,210346,1,0,3:2:0:0:
205,335,210446,1,0,1:2:0:0:
229,337,210546,54,0,P|246:269|293:196,1,146.250005578995,6|0,3:2|0:2,0:0:0:0:
241,143,210946,1,2,0:2:0:0:
367,45,211146,2,0,P|412:67|467:82,1,97.50000371933,2|8,0:2|0:2,0:0:0:0:
364,214,211546,53,10,0:2:0:0:
503,267,211746,1,2,3:2:0:0:
355,341,211946,1,2,3:2:0:0:
483,189,212146,54,0,B|413:182|426:138|343:140,1,146.250005578995,4|0,3:2|0:2,0:0:0:0:
310,38,212546,2,0,P|252:70|159:92,1,146.250005578995,8|0,0:2|0:2,0:0:0:0:
81,44,212946,53,8,0:2:0:0:
226,176,213146,1,0,3:2:0:0:
310,38,213346,53,8,0:2:0:0:
134,105,213546,1,0,1:2:0:0:
143,107,213613,1,0,1:2:0:0:
152,109,213679,1,0,1:2:0:0:
161,111,213746,54,0,P|199:173|209:282,1,146.250005578995,4|0,3:2|0:2,0:0:0:0:
173,333,214146,2,0,P|230:276|320:302,1,146.250005578995,8|0,0:2|0:2,0:0:0:0:
362,376,214546,54,0,B|450:360|400:315|512:305,1,146.250005578995,0|0,3:2|0:2,0:0:0:0:
506,180,214946,2,0,P|443:216|344:249,1,146.250005578995,8|0,0:2|0:2,0:0:0:0:
251,346,215346,54,0,P|206:308|128:289,1,97.50000371933,6|8,3:2|0:2,0:0:0:0:
116,340,215646,1,0,1:2:0:0:
116,340,215746,1,8,0:2:0:0:
62,190,215946,53,0,3:2:0:0:
81,204,216046,1,0,1:2:0:0:
105,202,216146,1,10,0:2:0:0:
193,76,216346,1,8,0:2:0:0:
7,118,216546,53,0,3:2:0:0:
198,212,216746,1,0,1:2:0:0:
64,325,216946,37,6,3:2:0:0:
170,293,217146,1,8,0:0:0:0:
188,143,217346,117,10,0:2:0:0:
294,175,217546,1,0,1:2:0:0:
429,282,217746,118,0,P|395:292|361:313,1,48.750001859665,6|0,3:2|0:2,0:0:0:0:
264,366,217946,2,0,P|261:342|240:302,1,48.750001859665,0|0,3:2|0:2,0:0:0:0:
116,137,218146,118,0,P|150:147|184:168,1,48.750001859665,12|0,0:3|0:2,0:0:0:0:
281,221,218346,2,0,P|284:197|305:157,1,48.750001859665,8|0,0:3|0:2,0:0:0:0:
389,42,218534,22,0,B|301:48|330:112|227:107,1,165.75000316143,6|0,3:2|0:2,0:0:0:0:
186,58,218934,1,2,3:2:0:0:
55,200,219134,1,2,0:2:0:0:
55,200,219334,2,0,P|24:106|111:78,1,165.75000316143,8|0,0:2|0:2,0:0:0:0:
135,107,219734,1,2,3:2:0:0:
233,208,219934,1,2,0:2:0:0:
104,275,220134,6,0,P|128:262|155:255,1,55.2500010538101,0|0,3:2|0:2,0:0:0:0:
231,111,220334,2,0,P|255:123|282:130,1,55.2500010538101,8|0,0:2|0:2,0:0:0:0:
213,312,220534,1,2,3:2:0:0:
423,200,220734,2,0,P|374:160|328:208,1,110.50000210762,2|8,0:2|0:2,0:0:0:0:
242,384,221134,2,0,P|286:358|368:335,1,110.50000210762,2|0,0:2|3:2,0:0:0:0:
477,351,221534,1,2,1:2:0:0:
479,340,221600,1,0,1:2:0:0:
481,329,221667,1,0,1:2:0:0:
483,318,221734,6,0,B|382:315|435:261|324:260,1,165.75000316143,2|0,3:2|0:2,0:0:0:0:
279,308,222134,1,2,3:2:0:0:
151,172,222334,2,0,P|197:137|271:155,1,110.50000210762,2|8,0:2|0:2,0:0:0:0:
398,260,222734,1,2,0:2:0:0:
391,36,222934,2,0,P|336:67|288:81,1,110.50000210762,2|0,3:2|0:2,0:0:0:0:
89,39,223334,86,0,P|145:59|158:141,1,110.50000210762,0|8,3:2|0:2,0:0:0:0:
64,340,223734,2,0,P|128:291|222:261,1,165.75000316143,0|0,3:2|0:2,0:0:0:0:
284,301,224134,2,0,P|326:246|267:158,1,165.75000316143,8|0,0:2|0:2,0:0:0:0:
214,161,224534,1,2,3:2:0:0:
417,75,224734,1,2,1:2:0:0:
426,80,224800,1,0,1:2:0:0:
435,85,224867,1,0,1:2:0:0:
444,90,224934,6,0,P|418:162|402:276,1,165.75000316143,6|0,3:2|0:2,0:0:0:0:
448,308,225334,1,2,3:2:0:0:
313,96,225534,1,2,0:2:0:0:
313,96,225734,2,0,B|239:112|259:171|135:168,1,165.75000316143,8|0,0:2|0:2,0:0:0:0:
125,113,226134,1,2,3:2:0:0:
248,234,226334,1,2,0:2:0:0:
112,311,226534,6,0,P|49:326|0:347,1,110.50000210762,0|8,3:2|0:2,0:0:0:0:
16,137,226934,2,0,P|92:178|187:195,1,165.75000316143,2|0,3:2|0:2,0:0:0:0:
240,168,227334,2,0,P|268:203|233:264,1,110.50000210762,10|0,0:2|0:2,0:0:0:0:
161,110,227734,1,2,3:2:0:0:
370,225,227934,1,0,1:2:0:0:
360,231,228000,1,0,1:2:0:0:
350,237,228067,1,0,1:2:0:0:
340,243,228134,86,0,B|251:254|295:312|166:326,1,165.75000316143,6|0,3:2|0:2,0:0:0:0:
107,343,228534,2,0,P|59:279|128:192,1,165.75000316143,2|0,3:2|0:2,0:0:0:0:
134,131,228934,2,0,P|204:160|314:182,1,165.75000316143,8|0,0:2|0:2,0:0:0:0:
340,243,229334,1,2,3:2:0:0:
290,58,229534,1,0,1:2:0:0:
489,107,229734,5,0,3:2:0:0:
291,179,229934,1,8,0:2:0:0:
353,319,230134,5,0,3:2:0:0:
145,245,230334,1,2,3:2:0:0:
173,65,230534,85,8,0:2:0:0:
215,178,230734,1,2,3:2:0:0:
55,130,230934,5,2,3:2:0:0:
83,62,231134,1,2,1:2:0:0:
421,146,231334,6,0,P|333:188|253:244,1,165.75000316143,6|0,3:2|0:2,0:0:0:0:
253,296,231734,1,2,3:2:0:0:
445,369,231934,1,2,0:2:0:0:
445,369,232134,2,0,P|501:316|453:238,1,165.75000316143,8|0,0:2|0:2,0:0:0:0:
398,267,232534,1,2,3:2:0:0:
501,146,232734,1,2,0:2:0:0:
353,61,232934,86,0,P|320:76|287:83,1,55.2500010538101,0|0,3:2|0:2,0:0:0:0:
182,175,233134,2,0,P|157:163|131:156,1,55.2500010538101,8|0,0:2|0:2,0:0:0:0:
209,18,233334,1,2,3:2:0:0:
41,113,233534,2,0,P|58:175|65:258,1,110.50000210762,2|8,0:2|0:2,0:0:0:0:
160,351,233934,1,2,0:2:0:0:
254,187,234134,1,2,3:2:0:0:
111,280,234334,1,2,1:2:0:0:
102,287,234400,1,0,1:2:0:0:
96,294,234467,1,0,1:2:0:0:
90,303,234534,6,0,P|165:274|259:258,1,165.75000316143,6|0,3:2|0:2,0:0:0:0:
301,313,234934,1,2,3:2:0:0:
430,185,235134,2,0,P|462:228|433:299,1,110.50000210762,2|8,0:2|0:2,0:0:0:0:
346,369,235534,2,0,P|292:355|237:352,1,110.50000210762,2|2,0:2|3:2,0:0:0:0:
191,299,235833,1,2,0:2:0:0:
191,299,235933,1,2,0:2:0:0:
58,378,236134,6,0,P|30:331|69:263,1,110.50000210762,4|8,3:2|0:2,0:0:0:0:
204,196,236534,2,0,P|255:223|310:239,1,110.50000210762,0|0,3:2|0:2,0:0:0:0:
415,384,236934,85,10,0:2:0:0:
506,244,237134,1,0,0:2:0:0:
368,181,237334,5,2,3:2:0:0:
472,321,237534,1,2,1:2:0:0:
461,318,237600,1,0,1:2:0:0:
450,315,237667,1,0,1:2:0:0:
439,313,237734,2,0,P|442:241|469:135,1,165.75000316143,4|0,3:2|0:2,0:0:0:0:
398,104,238134,1,2,3:2:0:0:
300,226,238334,2,0,P|253:175|266:132,2,110.50000210762,2|8|0,0:2|0:2|0:2,0:0:0:0:
476,38,238934,2,0,B|381:35|416:97|296:84,1,165.75000316143,2|0,3:2|0:2,0:0:0:0:
245,25,239334,6,0,P|191:52|128:72,1,110.50000210762,6|8,3:2|0:2,0:0:0:0:
25,182,239734,2,0,P|128:176|161:232,1,165.75000316143,2|0,3:2|0:2,0:0:0:0:
119,295,240134,2,0,P|190:245|289:234,1,165.75000316143,10|0,0:2|0:2,0:0:0:0:
349,172,240534,2,0,P|394:216|369:281,1,110.50000210762,2|0,3:2|0:2,0:0:0:0:
206,382,240934,86,0,P|129:345|25:330,1,165.75000316143,4|0,3:2|0:2,0:0:0:0:
0,277,241334,2,0,P|27:207|119:207,1,165.75000316143,2|0,3:2|0:2,0:0:0:0:
152,270,241734,2,0,B|256:258|198:212|327:200,1,165.75000316143,10|0,0:2|0:2,0:0:0:0:
346,106,242134,2,0,P|406:132|479:140,1,110.50000210762,2|8,3:2|0:3,0:0:0:0:
439,309,242534,5,4,3:2:0:0:
196,83,242734,1,0,3:2:0:0:
496,82,242934,5,0,1:0:0:0:
229,279,243134,1,8,0:0:0:0:
240,28,243334,86,0,P|278:42|315:51,1,55.2500010538101,10|0,0:2|0:2,0:0:0:0:
451,140,243534,2,0,P|424:147|398:157,1,55.2500010538101,2|0,3:2|0:2,0:0:0:0:
181,336,243734,6,0,P|161:309|162:268,1,55.2500010538101,6|0,3:2|0:2,0:0:0:0:
370,58,243934,2,0,P|364:84|346:105,1,55.2500010538101,8|0,0:3|0:2,0:0:0:0:
122,82,244134,6,0,P|203:109|299:157,1,165.75000316143,6|0,3:2|0:2,0:0:0:0:
345,105,244534,1,2,3:2:0:0:
405,298,244734,1,2,0:2:0:0:
480,114,244934,86,0,B|368:132|404:219|278:222,1,221.000004215241,8|0,0:2|3:2,0:0:0:0:
294,221,245534,1,2,0:2:0:0:
512,324,245734,6,0,P|434:300|378:300,1,110.50000210762,2|8,3:2|0:2,0:0:0:0:
298,225,246134,1,2,3:2:0:0:
480,95,246334,2,0,B|426:103|445:141|371:144,1,110.50000210762,2|8,0:2|0:2,0:0:0:0:
315,59,246734,1,2,0:2:0:0:
244,178,246934,1,2,3:2:0:0:
225,39,247134,1,2,1:2:0:0:
227,28,247200,1,0,1:2:0:0:
229,17,247267,1,0,1:2:0:0:
231,6,247334,6,0,B|157:39|64:56,1,165.75000316143,2|0,3:2|0:2,0:0:0:0:
34,119,247734,1,2,3:2:0:0:
177,219,247934,2,0,P|193:143|215:103,1,110.50000210762,2|8,0:2|0:2,0:0:0:0:
56,232,248334,1,2,0:2:0:0:
56,232,248534,2,0,P|162:256|188:323,1,165.75000316143,2|0,3:2|0:2,0:0:0:0:
156,368,248934,85,2,3:2:0:0:
325,221,249134,1,8,0:2:0:0:
412,376,249334,5,2,3:2:0:0:
282,313,249534,1,0,0:2:0:0:
416,204,249734,5,10,0:2:0:0:
378,292,249934,1,0,0:2:0:0:
287,114,250134,85,10,0:2:0:0:
490,165,250334,1,2,3:2:0:0:
498,138,250434,1,0,1:2:0:0:
487,112,250534,6,0,B|397:118|434:171|329:173,1,165.75000316143,6|0,3:2|0:2,0:0:0:0:
285,233,250934,1,2,3:2:0:0:
112,126,251134,1,2,0:2:0:0:
112,126,251334,2,0,P|155:76|251:105,1,165.75000316143,8|0,0:2|0:2,0:0:0:0:
248,166,251734,1,2,3:2:0:0:
328,25,251934,1,2,0:2:0:0:
393,170,252134,6,0,P|445:190|498:203,1,110.50000210762,0|8,3:2|0:2,0:0:0:0:
309,340,252534,2,0,P|291:250|271:201,1,110.50000210762,2|0,3:2|0:2,0:0:0:0:
506,384,252934,2,0,P|454:311|356:323,1,165.75000316143,10|0,0:2|0:2,0:0:0:0:
309,340,253334,1,2,3:2:0:0:
264,178,253534,1,0,1:2:0:0:
261,189,253600,1,0,1:2:0:0:
258,200,253667,1,0,1:2:0:0:
255,211,253734,86,0,B|172:207|195:275|102:267,1,165.75000316143,6|0,3:2|0:2,0:0:0:0:
71,335,254134,2,0,P|52:236|8:177,1,165.75000316143,2|0,3:2|0:2,0:0:0:0:
48,120,254534,1,8,0:2:0:0:
176,31,254734,1,0,0:2:0:0:
286,158,254934,2,0,P|224:180|182:211,1,110.50000210762,2|8,3:2|0:2,0:0:0:0:
301,353,255334,5,0,3:2:0:0:
451,255,255534,1,10,0:2:0:0:
210,103,255734,5,6,3:2:0:0:
429,185,255934,1,0,3:2:0:0:
445,162,256034,1,0,1:2:0:0:
445,134,256134,85,10,0:2:0:0:
281,209,256334,1,2,0:2:0:0:
267,45,256534,6,0,P|297:59|333:63,1,55.2500010538101,2|0,3:2|0:2,0:0:0:0:
399,239,256734,2,0,P|372:244|347:256,1,55.2500010538101,2|0,1:2|0:2,0:0:0:0:
134,141,256934,6,0,B|227:141|201:222|325:208,1,165.75000316143,6|0,3:2|0:2,0:0:0:0:
337,153,257334,1,2,3:2:0:0:
244,304,257534,1,2,0:2:0:0:
244,304,257734,2,0,P|176:324|88:375,1,165.75000316143,8|0,0:2|0:2,0:0:0:0:
41,318,258134,1,2,3:2:0:0:
148,215,258334,1,2,0:2:0:0:
3,135,258534,86,0,P|23:191|35:266,1,110.50000210762,0|8,3:2|0:2,0:0:0:0:
101,75,258934,1,2,3:2:0:0:
148,215,259134,2,0,B|209:199|188:171|254:158,1,110.50000210762,2|8,0:2|0:2,0:0:0:0:
337,284,259534,1,2,0:2:0:0:
432,135,259734,1,0,3:2:0:0:
275,60,259934,1,2,1:2:0:0:
264,64,260000,1,0,1:2:0:0:
253,68,260067,1,0,1:2:0:0:
242,72,260134,6,0,P|279:161|280:255,1,165.75000316143,6|0,3:2|0:2,0:0:0:0:
337,284,260534,1,2,3:2:0:0:
487,172,260734,2,0,P|449:156|391:192,1,110.50000210762,2|8,0:2|0:2,0:0:0:0:
283,334,261134,2,0,P|254:317|229:275,1,55.2500010538101,2|0,0:2|0:2,0:0:0:0:
283,229,261334,2,0,P|188:284|110:300,1,165.75000316143,2|0,3:2|0:2,0:0:0:0:
97,364,261734,5,4,3:2:0:0:
0,189,261934,1,8,0:2:0:0:
219,145,262134,85,0,3:2:0:0:
70,257,262334,1,0,3:2:0:0:
65,229,262434,1,0,1:2:0:0:
77,204,262534,5,10,0:2:0:0:
279,255,262734,1,8,0:2:0:0:
226,371,262934,5,2,3:2:0:0:
392,313,263134,1,2,1:2:0:0:
279,163,263334,86,0,P|354:200|465:225,1,165.75000316143,4|0,3:2|0:2,0:0:0:0:
483,277,263734,1,2,3:2:0:0:
446,76,263934,1,2,0:2:0:0:
446,76,264134,2,0,P|371:103|361:155,1,110.50000210762,8|0,0:2|0:2,0:0:0:0:
393,315,264534,1,2,3:2:0:0:
497,186,264734,1,2,0:2:0:0:
290,94,264934,6,0,P|239:124|175:133,1,110.50000210762,4|8,3:2|0:2,0:0:0:0:
132,241,265334,1,2,3:2:0:0:
132,241,265534,2,0,B|78:242|98:193|34:196,2,110.50000210762,2|8|0,0:2|0:2|0:2,0:0:0:0:
228,355,266134,1,2,3:2:0:0:
325,248,266334,1,2,3:2:0:0:
189,133,266534,6,0,P|127:166|16:200,1,165.75000316143,4|0,3:2|0:2,0:0:0:0:
0,260,266934,2,0,P|12:321|92:317,1,110.50000210762,0|0,3:2|3:2,0:0:0:0:
101,289,267234,1,0,1:2:0:0:
109,281,267334,2,0,B|197:274|158:341|264:321,1,165.75000316143,8|0,0:2|0:2,0:0:0:0:
391,370,267734,86,0,P|426:353|481:333,1,55.2500010538101,2|0,3:2|0:2,0:0:0:0:
506,236,267934,2,0,P|480:225|455:212,1,55.2500010538101,10|0,0:2|0:2,0:0:0:0:
265,112,268134,6,0,B|296:60|361:94|378:191|256:252|256:252|160:210|123:143|153:82|225:41|254:132,1,570.375002175808,6|0,0:2|0:2,0:0:0:0:
254,132,269710,6,0,B|345:145|325:74|425:92,2,168.999992263794,6|2|10,0:2|0:2|0:2,0:0:0:0:
84,21,270910,1,2,3:2:0:0:
84,21,271110,1,10,0:2:0:0:
139,77,271310,86,0,P|114:126|104:162,1,84.4999961318971,2|10,3:2|0:2,0:0:0:0:
33,189,271710,2,0,P|69:262|78:357,1,168.999992263794,2|10,3:2|0:2,0:0:0:0:
78,348,272310,1,2,0:2:0:0:
158,259,272510,1,2,0:2:0:0:
239,335,272710,2,0,L|232:297,2,28.1666653772991,0|0|0,1:2|1:2|1:2,0:0:0:0:
241,349,272910,6,0,P|312:306|403:293,1,168.999992263794,6|0,3:2|3:2,0:0:0:0:
297,199,273510,1,2,0:2:0:0:
394,150,273710,2,0,P|461:174|492:178,1,84.4999961318971,8|0,0:2|0:2,0:0:0:0:
512,337,274110,2,0,P|470:346|432:363,1,84.4999961318971,2|10,3:2|0:2,0:0:0:0:
237,279,274510,6,0,P|222:222|251:197,1,84.4999961318971,6|8,3:2|0:2,0:0:0:0:
371,82,274910,2,0,P|330:94|274:99,1,84.4999961318971,2|2,3:2|0:2,0:0:0:0:
147,163,275310,2,0,P|106:151|50:146,1,84.4999961318971,10|2,0:2|0:2,0:0:0:0:
191,47,275710,1,2,3:2:0:0:
234,205,275910,2,0,L|272:198,2,28.1666653772991,10|0|0,1:2|1:2|1:2,0:0:0:0:
222,209,276110,86,0,P|255:279|265:372,2,168.999992263794,6|2|10,3:2|3:2|0:2,0:0:0:0:
386,62,277310,1,2,3:2:0:0:
355,153,277510,2,0,L|393:146,2,28.1666653772991,10|0|0,1:2|1:2|1:2,0:0:0:0:
343,162,277710,6,0,P|370:213|376:251,1,84.4999961318971,0|8,3:2|0:2,0:0:0:0:
444,351,278110,1,2,3:2:0:0:
444,351,278310,2,0,P|454:310|476:274,1,84.4999961318971,2|8,0:2|0:2,0:0:0:0:
375,238,278710,1,2,0:2:0:0:
476,116,278910,2,0,P|439:131|369:142,1,84.4999961318971,0|8,3:2|0:2,0:0:0:0:
319,183,279210,1,0,1:2:0:0:
311,190,279310,6,0,B|223:193|249:135|154:140,2,168.999992263794,6|0|8,3:2|3:2|0:2,0:0:0:0:
311,190,280310,1,2,0:2:0:0:
325,58,280510,2,0,P|284:73|202:84,1,84.4999961318971,2|8,3:2|0:2,0:0:0:0:
80,135,280910,85,2,3:2:0:0:
113,204,281110,1,10,0:2:0:0:
180,318,281310,5,8,0:3:0:0:
213,249,281510,1,2,0:2:0:0:
303,156,281710,5,10,0:2:0:0:
408,208,281910,1,2,3:2:0:0:
371,332,282110,85,2,3:2:0:0:
476,280,282310,1,2,1:2:0:0:
372,126,282510,6,0,B|274:146|325:192|196:211,1,168.999992263794,6|0,3:2|3:2,0:0:0:0:
226,205,283110,1,0,0:2:0:0:
52,32,283310,2,0,P|136:72|239:93,1,168.999992263794,14|0,0:2|3:2,0:0:0:0:
69,177,283910,2,0,L|107:170,2,28.1666653772991,0|0|0,1:2|1:2|1:2,0:0:0:0:
55,181,284110,6,0,P|81:220|88:257,1,84.4999961318971,6|8,3:2|0:2,0:0:0:0:
209,89,284510,2,0,P|172:103|116:109,1,84.4999961318971,0|2,3:2|0:2,0:0:0:0:
14,271,284910,85,8,0:2:0:0:
213,369,285110,1,2,0:2:0:0:
178,174,285310,1,2,3:2:0:0:
88,323,285510,2,0,L|81:361,2,28.1666653772991,0|0|0,1:2|1:2|1:2,0:0:0:0:
92,312,285710,6,0,P|139:306|193:287,1,84.4999961318971,6|0,3:2|0:2,0:0:0:0:
258,191,286110,2,0,B|358:201|307:253|434:258,2,168.999992263794,2|10|2,0:2|0:2|0:2,0:0:0:0:
412,97,287110,2,0,L|405:135,2,28.1666653772991,0|0|0,1:2|1:2|1:2,0:0:0:0:
411,86,287310,6,0,P|366:104|297:114,1,84.4999961318971,2|8,3:2|0:2,0:0:0:0:
208,49,287710,1,0,3:2:0:0:
209,192,287910,2,0,B|258:191|242:218|300:222,1,84.4999961318971,2|8,0:2|0:2,0:0:0:0:
151,258,288310,1,2,0:2:0:0:
250,121,288510,1,0,3:2:0:0:
84,161,288710,2,0,L|122:154,2,28.1666653772991,10|0|0,1:2|1:2|1:2,0:0:0:0:
76,170,288910,86,0,P|110:247|123:371,2,168.999992263794,6|2|10,3:2|3:2|0:2,0:0:0:0:
316,337,290110,1,0,3:2:0:0:
224,203,290310,1,0,1:2:0:0:
231,200,290376,1,0,1:2:0:0:
239,197,290443,1,0,1:2:0:0:
247,194,290510,6,0,B|300:193|282:225|341:225,1,97.50000371933,6|8,3:2|0:2,0:0:0:0:
483,193,290910,2,0,P|431:261|410:387,1,195.00000743866,2|10,3:2|0:2,0:0:0:0:
482,38,291710,2,0,P|461:49|420:63,1,48.750001859665,2|0,3:2|0:2,0:0:0:0:
404,153,291910,2,0,P|383:142|342:128,1,48.750001859665,0|0,3:2|0:2,0:0:0:0:
298,33,292110,6,0,P|213:70|141:86,1,146.250005578995,6|0,3:2|0:2,0:0:0:0:
64,73,292510,86,0,P|38:131|91:182,1,146.250005578995,2|0,3:2|0:2,0:0:0:0:
189,250,292910,6,0,B|265:247|246:199|349:197,1,146.250005578995,8|0,0:2|0:2,0:0:0:0:
412,271,293310,6,0,P|454:237|436:165,1,97.50000371933,10|0,0:2|3:2,0:0:0:0:
370,56,293710,85,6,3:2:0:0:
258,129,293910,1,0,3:2:0:0:
329,242,294110,5,0,3:2:0:0:
127,182,294310,1,0,3:2:0:0:
124,191,294376,1,0,1:2:0:0:
121,200,294443,1,0,1:2:0:0:
118,209,294510,6,0,P|149:214|181:226,1,48.750001859665,10|0,0:2|0:2,0:0:0:0:
252,324,294710,2,0,P|259:351|255:392,1,48.750001859665,2|0,3:2|0:2,0:0:0:0:
463,127,294910,86,0,P|432:132|400:144,1,48.750001859665,6|0,3:2|0:2,0:0:0:0:
329,242,295110,2,0,P|322:269|326:310,1,48.750001859665,2|0,0:2|0:2,0:0:0:0:
194,33,295310,5,6,3:2:0:0:
256,192,295410,12,0,300110,0:2:0:0:
