osu file format v14

[General]
AudioFilename: audio.mp3
AudioLeadIn: 0
PreviewTime: -1
Countdown: 1
SampleSet: None
StackLeniency: 0.7
Mode: 0
LetterboxInBreaks: 0
WidescreenStoryboard: 0

[Editor]
DistanceSpacing: 0.8
BeatDivisor: 4
GridSize: 16
TimelineZoom: 1

[Metadata]
Title:Now On Stage!!
TitleUnicode:Now On Stage!!
Artist:nonet
ArtistUnicode:nonet
Creator:aritakun
Version:Time to Shine!!
Source:
Tags:
BeatmapID:2015205
BeatmapSetID:962411

[Difficulty]
HPDrainRate:7
CircleSize:4.1
OverallDifficulty:8
ApproachRate:9.3
SliderMultiplier:1.4
SliderTickRate:1

[Events]
//Background and Video events
0,0,"BG1.jpg",0,0
//Break Periods
//Storyboard Layer 0 (Background)
//Storyboard Layer 1 (Fail)
//Storyboard Layer 2 (Pass)
//Storyboard Layer 3 (Foreground)
//Storyboard Sound Samples

[TimingPoints]
741,352.941176470588,4,2,0,100,1,0
4270,-80,4,2,0,100,0,0
4976,-100,4,2,0,100,0,0
7093,-66.6666666666667,4,2,0,100,0,0
8505,-100,4,2,0,100,0,0
11329,-100,4,2,0,100,0,0
14858,-200,4,2,0,100,0,0
16093,-66.6666666666667,4,2,0,100,0,0
16976,-100,4,2,0,100,0,0
17329,-100,4,2,0,100,0,0
34270,-200,4,2,0,100,0,0
34623,-100,4,2,0,100,0,0
49623,-66.6666666666667,4,2,0,100,0,0
67093,-50,4,2,0,100,0,0
68152,-33.3333333333333,4,2,0,100,0,0
68505,-66.6666666666667,4,2,0,100,0,0
79446,-133.333333333333,4,2,0,100,0,0
79799,-66.6666666666667,4,2,0,100,0,0
80152,-50,4,2,0,100,0,0
80505,-40,4,2,0,100,0,0
81035,-66.6666666666667,4,2,0,100,0,0
88270,-133.333333333333,4,2,0,100,0,0
88976,-50,4,2,0,100,0,0
89505,-66.6666666666667,4,2,0,100,0,0
90035,-50,4,2,0,100,0,0
90388,-66.6666666666667,4,2,0,100,0,0
90740,-66.6666666666667,4,2,0,100,0,0
93035,-133.333333333333,4,2,0,100,0,0
93917,-66.6666666666667,4,2,0,100,0,0
94623,-33.3333333333333,4,2,0,100,0,0
95152,-50,4,2,0,100,0,0
96035,-33.3333333333333,4,2,0,100,0,0
96135,-66.6666666666667,4,2,0,100,0,0
106446,-123.456790123457,4,2,0,100,0,0

[HitObjects]
58,79,741,5,0,0:0:0:0:
272,33,1446,1,0,0:0:0:0:
154,149,1799,1,0,0:0:0:0:
440,196,2152,5,0,0:0:0:0:
293,263,2858,5,0,0:0:0:0:
80,312,3211,1,0,0:0:0:0:
164,218,3564,6,0,P|189:162|153:84,1,140
146,67,4093,1,0,0:0:0:0:
176,45,4270,2,0,P|229:75|341:57,1,175
382,40,4799,1,0,0:0:0:0:
448,79,4976,6,0,P|435:131|410:146,1,70
449,213,5329,2,0,P|464:254|492:274,1,70
309,259,5682,1,0,0:0:0:0:
365,200,5858,1,0,0:0:0:0:
257,134,6035,2,0,P|311:123|326:102,1,70
279,40,6388,5,0,0:0:0:0:
258,134,6740,2,0,P|247:189|273:224,1,70
265,230,7093,2,0,P|293:294|272:344,1,105.000004005432
367,260,7446,5,0,0:0:0:0:
398,63,7623,1,0,0:0:0:0:
447,184,7799,1,0,0:0:0:0:
168,45,8152,1,0,0:0:0:0:
337,130,8329,1,0,0:0:0:0:
76,162,8505,2,0,L|232:142,1,140
250,138,9035,5,0,0:0:0:0:
250,138,9123,1,0,0:0:0:0:
250,138,9211,1,0,0:0:0:0:
204,336,9388,1,0,0:0:0:0:
318,76,9564,5,0,0:0:0:0:
384,341,9740,1,0,0:0:0:0:
140,224,9917,5,0,0:0:0:0:
437,276,10093,1,0,0:0:0:0:
185,63,10270,5,0,0:0:0:0:
295,317,10446,1,0,0:0:0:0:
337,0,10623,2,0,P|352:47|388:67,1,70
437,120,10976,1,0,0:0:0:0:
373,207,11329,5,0,0:0:0:0:
330,77,11505,1,0,0:0:0:0:
330,77,11593,1,0,0:0:0:0:
330,77,11682,2,0,P|287:52|265:56,1,70
77,104,12035,6,0,P|125:117|160:150,1,70
242,210,12388,1,0,0:0:0:0:
209,52,12564,2,0,P|264:54|301:72,1,70
432,157,12917,1,0,0:0:0:0:
432,157,13005,1,0,0:0:0:0:
432,157,13093,2,0,P|343:139|336:142,1,70
193,127,13446,5,0,0:0:0:0:
103,234,13623,1,0,0:0:0:0:
240,258,13799,1,0,0:0:0:0:
193,127,13976,2,0,P|137:108|157:141,1,140
168,186,14417,1,0,0:0:0:0:
168,186,14505,2,0,P|151:244|131:261,1,70
65,338,14858,6,0,L|109:335,1,35
312,321,15211,2,0,L|263:308,1,35
33,253,15564,2,0,L|58:247,1,17.5
316,196,15740,1,0,0:0:0:0:
10,122,16093,6,0,P|98:74|218:84,1,210.000008010865
343,130,16623,1,0,0:0:0:0:
158,189,16799,1,0,0:0:0:0:
258,13,16976,2,0,P|277:66|313:91,1,70
316,231,17329,2,0,P|291:277|255:296,1,70
107,253,17682,6,0,P|161:284|186:286,1,70
212,292,18035,1,0,0:0:0:0:
106,256,18211,2,0,P|118:193|148:140,1,105
161,136,18564,1,0,0:0:0:0:
161,136,18652,1,0,0:0:0:0:
161,136,18740,1,0,0:0:0:0:
26,176,18917,1,0,0:0:0:0:
104,349,19093,5,0,0:0:0:0:
208,335,19270,1,0,0:0:0:0:
312,321,19446,1,0,0:0:0:0:
211,208,19623,2,0,P|282:166|362:164,1,140
365,167,20064,1,0,0:0:0:0:
365,167,20152,1,0,0:0:0:0:
230,63,20329,1,0,0:0:0:0:
265,288,20505,5,0,0:0:0:0:
103,256,20682,1,0,0:0:0:0:
201,341,20858,1,0,0:0:0:0:
169,157,21035,1,0,0:0:0:0:
93,338,21211,2,0,L|155:312,1,35
332,232,21388,1,0,0:0:0:0:
144,10,21564,5,0,0:0:0:0:
144,10,21652,1,0,0:0:0:0:
144,10,21740,2,0,B|224:63|322:13|322:13|312:77|312:77|419:40|539:134,1,490
502,230,23329,6,0,P|450:201|431:201,1,70
315,262,23682,1,0,0:0:0:0:
315,262,23858,2,0,P|354:289|404:285,1,70
233,172,24211,1,0,0:0:0:0:
233,172,24388,2,0,P|186:181|157:196,1,70
139,340,24740,6,0,L|101:266,1,70
96,253,25093,1,0,0:0:0:0:
249,278,25270,1,0,0:0:0:0:
249,278,25446,2,0,L|270:194,1,70
184,81,25799,2,0,L|255:155,1,70
312,143,26152,6,0,P|378:111|450:118,1,140
467,127,26682,2,0,P|425:181|422:282,1,140
426,290,27211,1,0,0:0:0:0:
55,50,27564,6,0,P|40:100|47:136,1,70
148,99,27917,2,0,P|166:141|164:188,1,70
15,204,28270,2,0,P|23:258|40:286,1,70
258,243,28623,2,0,P|247:292|220:323,1,70
67,192,28976,6,0,P|116:183|168:195,1,70
375,177,29329,2,0,P|316:165|286:147,1,70
166,73,29682,1,0,0:0:0:0:
212,193,29858,1,0,0:0:0:0:
311,42,30035,1,0,0:0:0:0:
302,233,30211,1,0,0:0:0:0:
414,102,30388,6,0,P|437:152|439:187,1,70
263,306,30740,2,0,P|320:323|353:311,1,70
471,283,31093,1,0,0:0:0:0:
341,206,31270,1,0,0:0:0:0:
448,73,31446,2,0,P|450:123|425:156,1,70
358,293,31799,6,0,B|272:305|307:261|214:279,1,140
186,272,32329,2,0,P|128:243|111:104,1,210
225,44,33211,5,0,0:0:0:0:
191,189,33388,1,0,0:0:0:0:
326,18,33564,1,0,0:0:0:0:
365,220,33740,1,0,0:0:0:0:
30,319,34270,6,0,P|74:313|77:313,1,35
213,291,34623,2,0,P|156:273|135:252,1,70
95,208,34976,2,0,P|71:168|64:137,1,70
222,26,35329,2,0,P|229:86|225:119,1,70
199,274,35682,1,0,0:0:0:0:
316,119,35858,5,0,0:0:0:0:
316,119,35946,1,0,0:0:0:0:
316,119,36035,2,0,P|373:152|394:150,1,70
334,233,36388,2,0,P|390:245|422:232,1,70
181,265,36740,2,0,P|157:301|105:323,1,70
194,168,37093,1,0,0:0:0:0:
248,342,37270,5,0,0:0:0:0:
248,342,37358,1,0,0:0:0:0:
248,342,37446,2,0,P|329:341|388:309,1,140
294,85,37976,2,0,P|327:119|337:150,1,70
315,275,38329,2,0,P|351:220|352:199,1,70
475,174,38682,2,0,B|355:139|397:226|259:179,1,210
140,34,39564,6,0,P|138:94|148:115,1,70
40,79,39917,1,0,0:0:0:0:
103,200,40093,1,0,0:0:0:0:
243,85,40270,2,0,P|249:146|217:244,1,140
343,162,40799,2,0,P|396:217|476:233,1,140
283,314,41329,5,0,0:0:0:0:
283,314,41417,1,0,0:0:0:0:
283,314,41505,2,0,P|274:241|236:182,1,140
128,87,42035,2,0,P|165:103|203:147,1,70
327,58,42388,2,0,P|269:87|250:116,1,70
392,156,42740,2,0,P|448:133|462:109,1,70
470,235,43093,5,0,0:0:0:0:
304,192,43270,5,0,0:0:0:0:
304,192,43446,2,0,L|344:282,1,70
145,128,43799,5,0,0:0:0:0:
89,225,43976,1,0,0:0:0:0:
225,203,44152,2,0,L|209:292,1,70
241,60,44505,5,0,0:0:0:0:
389,251,44682,1,0,0:0:0:0:
170,142,44858,1,0,0:0:0:0:
433,104,45035,5,0,0:0:0:0:
433,104,45123,1,0,0:0:0:0:
433,104,45211,1,0,0:0:0:0:
48,249,45564,5,0,0:0:0:0:
278,328,45917,5,0,0:0:0:0:
125,249,46093,1,0,0:0:0:0:
384,160,46270,1,0,0:0:0:0:
343,363,46623,5,0,0:0:0:0:
320,96,46976,1,0,0:0:0:0:
144,275,47152,1,0,0:0:0:0:
144,275,47240,1,0,0:0:0:0:
144,275,47329,1,0,0:0:0:0:
276,160,47505,5,0,0:0:0:0:
59,44,47682,1,0,0:0:0:0:
144,275,47858,2,0,L|151:222,1,35
164,136,48035,1,0,0:0:0:0:
5,275,48211,1,0,0:0:0:0:
24,314,48388,1,0,0:0:0:0:
40,348,48564,1,0,0:0:0:0:
224,352,48740,6,0,P|170:336|160:320,1,70
203,178,49093,2,0,P|201:243|180:268,1,70
313,274,49446,5,0,0:0:0:0:
313,274,49535,1,0,0:0:0:0:
313,274,49623,2,0,P|352:238|432:242,1,105.000004005432
492,246,49976,1,0,0:0:0:0:
468,327,50152,2,0,P|452:235|492:114,1,210.000008010865
264,71,50858,5,0,0:0:0:0:
400,34,51035,1,0,0:0:0:0:
364,171,51211,1,0,0:0:0:0:
264,71,51388,6,0,P|209:76|162:50,1,105.000004005432
65,91,51740,1,0,0:0:0:0:
65,91,51917,2,0,P|42:166|3:192,1,105.000004005432
97,326,52270,2,0,P|105:249|138:198,1,105.000004005432
189,134,52623,1,0,0:0:0:0:
6,275,52799,1,0,0:0:0:0:
249,328,52976,5,0,0:0:0:0:
232,334,53152,1,0,0:0:0:0:
216,340,53328,1,0,0:0:0:0:
200,347,53505,1,0,0:0:0:0:
349,142,53682,5,0,0:0:0:0:
476,245,53858,1,0,0:0:0:0:
239,268,54035,1,0,0:0:0:0:
280,59,54211,1,0,0:0:0:0:
174,143,54388,6,0,L|51:186,1,105.000004005432
279,216,54740,2,0,L|384:253,1,105.000004005432
203,43,55093,1,0,0:0:0:0:
76,78,55270,1,0,0:0:0:0:
332,132,55446,2,0,L|459:100,1,105.000004005432
335,275,55799,5,0,0:0:0:0:
252,82,55976,1,0,0:0:0:0:
202,301,56152,1,0,0:0:0:0:
364,120,56329,1,0,0:0:0:0:
316,359,56505,5,0,0:0:0:0:
158,117,56682,1,0,0:0:0:0:
412,210,56858,1,0,0:0:0:0:
103,257,57035,1,0,0:0:0:0:
165,31,57211,5,0,0:0:0:0:
369,131,57388,1,0,0:0:0:0:
102,157,57564,1,0,0:0:0:0:
333,48,57740,1,0,0:0:0:0:
311,294,57917,6,0,L|269:168,1,105.000004005432
93,93,58270,2,0,L|243:127,1,105.000004005432
416,164,58623,1,0,0:0:0:0:
341,344,58976,6,0,P|343:221|335:201,1,105.000004005432
267,71,59329,2,0,P|252:151|270:205,1,105.000004005432
118,304,59682,2,0,P|152:182|149:174,1,105.000004005432
100,87,60035,5,0,0:0:0:0:
245,40,60388,5,0,0:0:0:0:
150,231,60564,1,0,0:0:0:0:
455,115,60740,1,0,0:0:0:0:
220,186,60917,1,0,0:0:0:0:
512,276,61093,1,0,0:0:0:0:
257,115,61270,1,0,0:0:0:0:
323,356,61446,1,0,0:0:0:0:
429,65,61623,1,0,0:0:0:0:
130,156,61799,1,0,0:0:0:0:
130,156,62152,5,0,0:0:0:0:
130,156,62505,1,0,0:0:0:0:
87,30,62858,6,0,L|203:59,1,105.000004005432
288,79,63211,1,0,0:0:0:0:
130,156,63388,1,0,0:0:0:0:
349,211,63564,2,0,P|402:136|405:116,1,105.000004005432
418,23,63917,1,0,0:0:0:0:
509,173,64093,1,0,0:0:0:0:
261,103,64270,6,0,P|133:120|67:174,1,210.000008010865
8,256,64799,1,0,0:0:0:0:
109,352,64976,2,0,P|143:258|139:242,1,105.000004005432
125,148,65329,1,0,0:0:0:0:
125,148,65505,1,0,0:0:0:0:
33,54,65682,6,0,L|171:40,1,105.000004005432
234,35,66035,1,0,0:0:0:0:
234,35,66211,1,0,0:0:0:0:
128,229,66388,2,0,L|246:164,1,105.000004005432
313,127,66740,1,0,0:0:0:0:
215,349,66917,1,0,0:0:0:0:
368,265,67093,6,0,P|418:176|397:72,1,210
425,45,67446,2,0,P|481:188|460:303,1,210
458,339,67799,1,0,0:0:0:0:
342,177,67976,1,0,0:0:0:0:
298,317,68152,2,0,P|239:264|309:301,1,210
142,184,68505,6,0,P|232:136|239:116,1,105.000004005432
248,106,68858,2,0,L|208:275,1,157.500006008148
204,291,69211,2,0,L|229:184,1,105.000004005432
106,147,69564,1,0,0:0:0:0:
13,258,69740,1,0,0:0:0:0:
23,30,69917,6,0,P|21:105|-10:128,1,105.000004005432
191,97,70270,2,0,P|132:80|101:27,1,105.000004005432
39,192,70623,2,0,P|114:170|245:213,1,210.000008010865
39,192,71152,1,0,0:0:0:0:
127,347,71329,5,0,0:0:0:0:
39,192,71505,1,0,0:0:0:0:
222,228,71682,1,0,0:0:0:0:
62,83,71858,2,0,P|166:110|263:62,1,210.000008010865
330,20,72388,1,0,0:0:0:0:
306,148,72564,1,0,0:0:0:0:
494,58,72740,5,0,0:0:0:0:
483,109,72917,1,0,0:0:0:0:
472,160,73093,1,0,0:0:0:0:
444,271,73446,1,0,0:0:0:0:
280,320,73799,1,0,0:0:0:0:
349,24,74152,6,0,L|375:138,1,105.000004005432
394,224,74505,1,0,0:0:0:0:
252,119,74682,1,0,0:0:0:0:
210,301,74858,1,0,0:0:0:0:
39,207,75035,2,0,L|187:232,1,105.000004005432
288,251,75388,1,0,0:0:0:0:
80,327,75564,6,0,P|131:258|109:156,1,157.500006008148
112,143,75917,1,0,0:0:0:0:
230,332,76093,1,0,0:0:0:0:
29,230,76270,1,0,0:0:0:0:
236,172,76446,1,0,0:0:0:0:
107,384,76623,1,0,0:0:0:0:
116,118,76799,1,0,0:0:0:0:
289,280,76976,6,0,L|233:169,1,105.000004005432
202,98,77329,1,0,0:0:0:0:
202,98,77505,1,0,0:0:0:0:
451,162,77682,2,0,L|311:125,1,105.000004005432
202,98,78035,1,0,0:0:0:0:
407,29,78211,1,0,0:0:0:0:
373,285,78388,6,0,L|385:209,1,52.5000020027161
401,112,78564,1,0,0:0:0:0:
267,254,78740,6,0,L|264:187,1,52.5000020027161
256,67,78917,1,0,0:0:0:0:
40,147,79093,5,0,0:0:0:0:
79,181,79181,1,0,0:0:0:0:
106,226,79269,1,0,0:0:0:0:
117,277,79357,1,0,0:0:0:0:
111,329,79446,2,0,P|101:363|87:380,1,52.5000020027161
224,359,79799,6,0,P|291:330|405:337,1,183.750007009506
434,319,80152,2,0,P|326:271|227:259,1,210
248,241,80505,2,0,P|346:198|502:207,1,262.5
485,158,80858,1,0,0:0:0:0:
406,25,81035,1,0,0:0:0:0:
347,131,81211,6,0,L|204:103,1,105.000004005432
124,90,81564,1,0,0:0:0:0:
200,292,81740,1,0,0:0:0:0:
246,35,81917,2,0,L|209:248,1,210.000008010865
94,197,82446,5,0,0:0:0:0:
94,197,82535,1,0,0:0:0:0:
94,197,82623,1,0,0:0:0:0:
294,115,82799,1,0,0:0:0:0:
231,330,82976,1,0,0:0:0:0:
166,78,83152,1,0,0:0:0:0:
395,183,83329,1,0,0:0:0:0:
102,292,83505,1,0,0:0:0:0:
271,46,83682,1,0,0:0:0:0:
328,327,83858,1,0,0:0:0:0:
163,18,84035,5,0,0:0:0:0:
184,351,84211,5,0,0:0:0:0:
475,109,84388,5,0,0:0:0:0:
459,151,84740,5,0,0:0:0:0:
476,201,85093,2,0,P|473:271|416:353,1,157.500006008148
387,352,85446,6,0,B|313:284|262:378|166:299,1,210.000008010865
113,355,85976,2,0,P|84:269|151:137,1,210.000008010865
136,145,86417,1,0,0:0:0:0:
136,145,86505,1,0,0:0:0:0:
6,69,86682,5,0,0:0:0:0:
138,44,86858,2,0,L|281:20,1,105.000004005432
231,125,87211,1,0,0:0:0:0:
374,45,87388,2,0,B|425:106|425:106|381:248,1,210.000008010865
377,270,87829,1,0,0:0:0:0:
377,270,87917,1,0,0:0:0:0:
493,152,88093,1,0,0:0:0:0:
443,368,88270,6,0,P|482:349|490:323,1,52.5000020027161
308,256,88623,2,0,P|303:296|315:308,1,52.5000020027161
485,205,88976,2,0,P|408:184|360:187,1,70
399,150,89152,2,0,P|314:174|307:172,1,70
19,33,89505,6,0,P|92:65|10:66,1,210
153,135,90035,2,0,P|143:177|199:148,1,140
246,41,90388,2,0,P|305:6|314:4,1,52.5000020027161
308,121,90564,2,0,P|385:111|389:112,1,52.5000020027161
377,207,90740,2,0,P|463:265|487:320,1,157.500006008148
488,347,91093,6,0,P|378:310|281:356,1,210.000008010865
306,249,91623,2,0,P|217:261|120:343,1,210.000008010865
115,356,92064,1,0,0:0:0:0:
115,356,92152,1,0,0:0:0:0:
190,127,92329,1,0,0:0:0:0:
39,216,92505,6,0,L|16:99,1,105.000004005432
0,28,92858,1,0,0:0:0:0:
39,211,93035,2,0,L|15:103,1,105.000004005432
9,82,93476,1,0,0:0:0:0:
9,82,93564,1,0,0:0:0:0:
224,149,93740,1,0,0:0:0:0:
105,15,93917,6,0,P|121:80|109:134,1,105.000004005432
152,300,94270,2,0,P|121:220|116:177,1,105.000004005432
105,18,94623,2,0,P|70:148|67:152,1,105.000004005432
10,253,94799,1,0,0:0:0:0:
274,29,95152,6,0,B|411:59|411:59|532:219,1,280
404,190,95682,2,0,B|362:143|362:143|237:150,1,140
160,111,96035,2,0,P|224:217|203:305,1,210.000008010865
318,240,96388,1,0,0:0:0:0:
73,55,96740,5,0,0:0:0:0:
161,247,96917,1,0,0:0:0:0:
216,73,97093,1,0,0:0:0:0:
30,184,97270,1,0,0:0:0:0:
273,195,97446,5,0,0:0:0:0:
118,33,97623,1,0,0:0:0:0:
86,290,97799,1,0,0:0:0:0:
256,81,97976,1,0,0:0:0:0:
341,346,98152,5,0,0:0:0:0:
375,151,98329,1,0,0:0:0:0:
297,306,98505,1,0,0:0:0:0:
495,214,98682,1,0,0:0:0:0:
247,251,98858,5,0,0:0:0:0:
512,140,99035,1,0,0:0:0:0:
266,58,99211,1,0,0:0:0:0:
389,290,99388,1,0,0:0:0:0:
426,18,99564,6,0,L|439:141,1,105.000004005432
454,253,99917,1,0,0:0:0:0:
278,81,100093,1,0,0:0:0:0:
243,288,100270,2,0,L|255:216,1,52.5000020027161
278,81,100446,2,0,P|223:131|170:145,1,105.000004005432
79,164,100799,5,0,0:0:0:0:
317,223,100976,1,0,0:0:0:0:
145,56,101152,1,0,0:0:0:0:
127,278,101329,1,0,0:0:0:0:
241,78,101505,5,0,0:0:0:0:
282,336,101682,2,0,L|332:214,1,105.000004005432
403,45,102035,1,0,0:0:0:0:
440,339,102388,5,0,0:0:0:0:
378,188,102564,1,0,0:0:0:0:
212,280,102740,1,0,0:0:0:0:
442,248,102917,5,0,0:0:0:0:
318,129,103093,1,0,0:0:0:0:
141,294,103270,1,0,0:0:0:0:
374,334,103446,5,0,0:0:0:0:
187,114,103623,1,0,0:0:0:0:
125,348,103799,5,0,0:0:0:0:
73,152,103976,1,0,0:0:0:0:
230,271,104152,1,0,0:0:0:0:
263,50,104329,1,0,0:0:0:0:
112,185,104505,5,0,0:0:0:0:
384,124,104682,1,0,0:0:0:0:
173,27,104858,1,0,0:0:0:0:
329,240,105035,1,0,0:0:0:0:
14,152,105211,6,0,L|92:138,1,52.5000020027161
196,119,105388,1,0,0:0:0:0:
117,266,105564,2,0,L|188:228,1,52.5000020027161
292,169,105740,1,0,0:0:0:0:
239,296,105917,2,0,L|309:315,1,52.5000020027161
438,344,106093,1,0,0:0:0:0:
410,67,106270,5,0,0:0:0:0:
410,67,106358,1,0,0:0:0:0:
410,67,106446,2,0,B|329:24|262:70|262:70|189:40|189:40|96:86|31:18,1,396.900009689942
256,192,108035,12,0,109446,0:0:0:0:
256,192,109446,12,0,115093,0:0:0:0:
