osu file format v14

[General]
AudioFilename: audio.mp3
AudioLeadIn: 0
PreviewTime: 225597
Countdown: 0
SampleSet: Soft
StackLeniency: 0.4
Mode: 0
LetterboxInBreaks: 0
WidescreenStoryboard: 0

[Editor]
Bookmarks: 15277,16596,27145,37695,53519,62090,85826,95551,96046,96540,97035,97364,98354,118793,129343,134618,143189,160332,161651,170881,175497,180772,201870,226925,250662,272914
DistanceSpacing: 0.8
BeatDivisor: 4
GridSize: 32
TimelineZoom: 2.699999

[Metadata]
Title:Shikkoku o Nuritsubuse
TitleUnicode:漆黒を塗りつぶせ
Artist:Nomizu Iori
ArtistUnicode:野水 伊織
Creator:NEVlR
Version:Shocking truth!
Source:棺姫のチャイカ
Tags:Oiso Firika anime japanese opening paint it jet black Hitsugi no wo Chaika the coffin princess avenging battle season 2 full version
BeatmapID:1874351
BeatmapSetID:897189

[Difficulty]
HPDrainRate:6.5
CircleSize:4
OverallDifficulty:8.7
ApproachRate:9.4
SliderMultiplier:1.6
SliderTickRate:1

[Events]
//Background and Video events
0,0,"Chaika-chan.jpg",0,0
//Break Periods
//Storyboard Layer 0 (Background)
//Storyboard Layer 1 (Fail)
//Storyboard Layer 2 (Pass)
//Storyboard Layer 3 (Foreground)
//Storyboard Layer 4 (Overlay)
//Storyboard Sound Samples

[TimingPoints]
765,329.67032967033,4,2,1,60,1,0
3732,-120.481927710843,4,2,1,40,0,0
4638,-120.481927710843,4,2,1,5,0,0
4721,-100,4,2,1,60,0,0
9995,-142.857142857143,4,2,1,60,0,0
10325,-100,4,2,1,60,0,0
15270,-166.666666666667,4,2,1,40,0,0
15600,-166.666666666667,4,2,1,5,0,0
15765,-166.666666666667,4,2,1,40,0,0
15929,-166.666666666667,4,2,1,5,0,0
16094,-166.666666666667,4,2,1,40,0,0
16259,-166.666666666667,4,2,1,5,0,0
16424,-166.666666666667,4,2,1,40,0,0
16589,-117.647058823529,4,2,1,40,0,0
24501,-714.285714285714,4,2,1,40,0,0
27138,-100,4,2,1,55,0,0
38677,-76.9230769230769,4,2,1,55,0,0
39006,-100,4,2,1,55,0,0
41314,-76.9230769230769,4,2,1,55,0,0
41644,-100,4,2,1,55,0,0
43292,-111.111111111111,4,2,1,55,0,0
43539,-111.111111111111,4,2,1,5,0,0
43622,-71.4285714285714,4,2,1,55,0,0
44281,-111.111111111111,4,2,1,55,0,0
44940,-71.4285714285714,4,2,1,55,0,0
45600,-83.3333333333333,4,2,1,55,0,0
48237,-100,4,2,1,55,0,0
53512,-86.9565217391304,4,2,1,55,0,0
54006,-117.647058823529,4,2,1,55,0,0
54830,-83.3333333333333,4,2,1,55,0,0
55160,-111.111111111111,4,2,1,55,0,0
55490,-86.9565217391304,4,2,1,55,0,0
55984,-117.647058823529,4,2,1,55,0,0
57468,-62.5,4,2,1,55,0,0
57797,-90.9090909090909,4,2,1,55,0,0
58127,-74.0740740740741,4,2,1,55,0,0
58457,-62.5,4,2,1,55,0,0
58786,-90.9090909090909,4,2,1,55,0,0
59116,-74.0740740740741,4,2,1,55,0,0
61589,-400,4,2,1,55,0,0
62083,329.67032967033,4,2,1,75,1,0
62083,-80,4,2,1,75,0,0
64555,-105.263157894737,4,2,1,75,0,0
65050,-80,4,2,1,75,0,0
67852,-117.647058823529,4,2,1,75,0,0
69335,-80,4,2,1,75,0,0
77907,-90.9090909090909,4,2,1,75,0,0
83181,-142.857142857143,4,2,1,75,0,0
84500,-117.647058823529,4,2,1,75,0,0
85819,-100,4,2,1,60,0,0
91093,-142.857142857143,4,2,1,60,0,0
91588,-100,4,2,1,60,0,0
98346,-100,4,2,1,55,0,0
108236,-86.9565217391304,4,2,1,55,0,0
108566,-125,4,2,1,55,0,0
108896,-100,4,2,1,55,0,0
119775,-76.9230769230769,4,2,1,55,0,0
120104,-100,4,2,1,55,0,0
122412,-76.9230769230769,4,2,1,55,0,0
122742,-100,4,2,1,55,0,0
124061,-83.3333333333333,4,2,1,55,0,0
129335,-100,4,2,1,55,0,0
130901,-100,4,2,1,5,0,0
130984,-100,4,2,1,55,0,0
131066,-100,4,2,1,5,0,0
131148,-100,4,2,1,55,0,0
134610,-86.9565217391304,4,2,1,55,0,0
135104,-117.647058823529,4,2,1,55,0,0
135929,-83.3333333333333,4,2,1,55,0,0
136258,-111.111111111111,4,2,1,55,0,0
136588,-86.9565217391304,4,2,1,55,0,0
137083,-117.647058823529,4,2,1,55,0,0
138566,-62.5,4,2,1,55,0,0
138896,-90.9090909090909,4,2,1,55,0,0
139225,-74.0740740740741,4,2,1,55,0,0
139555,-62.5,4,2,1,55,0,0
139885,-90.9090909090909,4,2,1,55,0,0
140214,-74.0740740740741,4,2,1,55,0,0
142687,-400,4,2,1,55,0,0
143181,329.67032967033,4,2,1,60,1,0
143181,-80,4,2,1,80,0,0
145653,-105.263157894737,4,2,1,80,0,0
146148,-80,4,2,1,80,0,0
148950,-117.647058823529,4,2,1,80,0,0
150433,-80,4,2,1,80,0,0
159005,-90.9090909090909,4,2,1,80,0,0
161642,329.67032967033,7,2,1,60,1,0
161642,-333.333333333333,7,2,1,60,0,0
161806,-333.333333333333,7,2,1,25,0,0
169554,-166.666666666667,7,2,1,30,0,0
169801,-166.666666666667,7,2,1,30,0,0
169883,-133.333333333333,7,2,1,35,0,0
170048,-133.333333333333,7,2,1,5,0,0
170213,-133.333333333333,7,2,1,35,0,0
170378,-133.333333333333,7,2,1,5,0,0
170543,-90.9090909090909,7,2,1,35,0,0
170707,-90.9090909090909,7,2,1,5,0,0
170872,-111.111111111111,7,2,1,40,0,0
172850,-90.9090909090909,7,2,1,50,0,0
173180,-111.111111111111,7,2,1,40,0,0
174828,-166.666666666666,7,2,1,40,0,0
175488,329.67032967033,4,2,1,40,1,0
175488,-111.111111111111,7,2,1,40,0,0
177466,-153.846153846154,7,2,1,40,0,0
179444,-117.647058823529,7,2,1,40,0,0
180433,-117.647058823529,7,2,1,50,0,0
180762,-100,7,2,1,55,0,0
197905,-86.9565217391304,7,2,1,55,0,0
198564,-76.9230769230769,7,2,1,55,0,0
199224,-86.9565217391304,7,2,1,55,0,0
201861,-166.666666666667,7,2,1,55,0,0
204169,-117.647058823529,7,2,1,55,0,0
204498,-250,7,2,1,55,0,0
205488,-117.647058823529,7,2,1,55,0,0
205817,-90.9090909090909,7,2,1,55,0,0
206312,-117.647058823529,7,2,1,55,0,0
207795,-166.666666666667,7,2,1,55,0,0
209444,-117.647058823529,7,2,1,55,0,0
209773,-250,7,2,1,55,0,0
210762,-117.647058823529,7,2,1,55,0,0
213070,-166.666666666667,7,2,1,55,0,0
213729,-117.647058823529,7,2,1,55,0,0
214224,-100,7,2,1,55,0,0
214718,-117.647058823529,7,2,1,55,0,0
215707,-166.666666666667,7,2,1,55,0,0
216367,-117.647058823529,7,2,1,55,0,0
216861,-105.263157894737,7,2,1,55,0,0
217356,-90.9090909090909,7,2,1,55,0,0
217685,-83.3333333333333,7,2,1,55,0,0
218180,-117.647058823529,7,2,1,55,0,0
219004,-142.857142857143,7,2,1,55,0,0
219334,-100,7,2,1,55,0,0
220323,-93.4579439252336,7,2,1,55,0,0
220982,-114.942528735632,7,2,1,55,0,0
221641,-93.4579439252336,7,2,1,55,0,0
222301,-114.942528735632,7,2,1,55,0,0
225927,-151.515151515152,7,2,1,55,0,0
226422,-111.111111111111,7,2,1,55,0,0
226916,-74.0740740740741,7,2,1,90,0,1
232685,-111.111111111111,7,2,1,90,0,1
234169,-74.0740740740741,7,2,1,90,0,1
239938,-95.2380952380952,7,2,1,90,0,1
240433,-74.0740740740741,7,2,1,90,0,1
242740,-86.9565217391304,7,2,1,75,0,0
248015,-142.857142857143,7,2,1,75,0,0
250652,-90.9090909090909,7,2,1,75,0,0
255762,-133.333333333333,7,2,1,75,0,0
256257,-90.9090909090909,7,2,1,75,0,0
261202,-83.3333333333333,7,2,1,75,0,0
261696,-90.9090909090909,7,2,1,75,0,0
270433,-90.9090909090909,7,2,1,95,0,1
272905,-90.9090909090909,7,2,1,95,0,0

[Colours]
Combo1 : 1,221,239
Combo2 : 180,180,180
Combo3 : 128,75,148
Combo4 : 202,202,202

[HitObjects]
204,95,765,5,8,0:2:0:0:
310,293,929,1,8,0:2:0:0:
321,313,1259,1,8,0:2:0:0:
332,333,1589,1,8,0:2:0:0:
308,95,1754,5,8,0:2:0:0:
202,293,1918,1,8,0:2:0:0:
191,313,2248,1,8,0:2:0:0:
180,333,2578,1,8,0:2:0:0:
204,95,2743,5,8,0:2:0:0:
332,333,2907,1,8,0:2:0:0:
308,95,3072,1,8,0:2:0:0:
180,333,3237,1,8,0:2:0:0:
180,333,3732,6,0,B|149:308|149:308|179:279|179:279|149:255|149:255|178:228|178:228|148:206|148:206|177:179|177:179|148:156|148:156|177:122|177:122|159:108|148:84,1,365.200005293884,0|0,0:2|0:2,0:2:0:0:
136,55,4721,5,6,1:2:0:0:
59,146,4885,1,2,0:2:0:0:
233,40,5050,1,8,0:2:0:0:
233,40,5215,2,0,L|313:39,1,80,2|0,0:2|1:2,0:2:0:0:
390,100,5545,1,0,0:2:0:0:
342,194,5710,1,10,0:2:0:0:
419,285,5874,1,2,0:2:0:0:
245,179,6039,5,0,1:2:0:0:
245,179,6204,2,0,L|165:178,1,80,2|8,0:2|0:2,0:2:0:0:
87,239,6534,1,0,0:2:0:0:
151,79,6699,1,2,1:2:0:0:
73,140,6863,1,2,0:2:0:0:
111,331,7028,1,8,0:2:0:0:
111,331,7193,2,0,P|147:358|188:363,1,80,2|0,0:2|1:2,0:2:0:0:
277,310,7523,5,0,0:2:0:0:
402,350,7688,1,10,0:2:0:0:
376,213,7852,1,2,0:2:0:0:
492,267,8017,1,0,1:2:0:0:
492,267,8182,2,0,L|506:188,1,80,2|8,0:2|0:2,0:2:0:0:
382,68,8512,1,0,1:2:0:0:
366,72,8594,1,0,1:2:0:0:
350,76,8677,5,8,0:2:0:0:
505,188,8841,1,8,0:2:0:0:
242,79,9006,1,8,0:2:0:0:
500,79,9171,1,8,0:2:0:0:
237,188,9336,1,8,0:2:0:0:
366,72,9501,1,8,0:2:0:0:
305,290,9666,1,8,0:2:0:0:
146,128,9830,1,0,1:2:0:0:
146,128,9913,1,0,1:2:0:0:
146,128,9995,6,0,L|146:197,1,55.9999982910157,2|2,1:2|0:2,0:2:0:0:
106,338,10325,5,8,0:2:0:0:
183,309,10490,2,0,P|133:260|38:290,1,160,2|0,0:2|0:2,0:2:0:0:
226,155,10984,1,10,0:2:0:0:
49,118,11149,1,2,0:2:0:0:
210,47,11314,5,0,1:2:0:0:
210,47,11479,2,0,L|299:47,1,80,2|8,0:2|0:2,0:2:0:0:
368,126,11808,1,0,0:2:0:0:
397,18,11973,1,2,1:2:0:0:
261,155,12138,1,2,0:2:0:0:
475,155,12303,1,8,0:2:0:0:
475,155,12468,2,0,L|475:244,1,80,2|0,0:2|1:2,0:2:0:0:
476,341,12797,5,0,1:2:0:0:
260,249,12962,1,10,0:2:0:0:
381,247,13127,1,2,0:2:0:0:
181,293,13292,1,0,1:2:0:0:
181,293,13457,2,0,P|173:250|179:213,1,80,2|8,0:2|0:2,0:2:0:0:
446,54,13786,1,0,1:2:0:0:
446,54,13869,1,0,1:2:0:0:
446,54,13951,5,8,0:2:0:0:
367,262,14116,1,8,0:2:0:0:
467,181,14281,1,8,0:2:0:0:
347,135,14446,1,8,0:2:0:0:
488,308,14611,1,8,0:2:0:0:
248,217,14775,1,8,0:2:0:0:
347,135,14940,1,8,0:2:0:0:
105,45,15105,1,8,0:2:0:0:
211,116,15270,5,2,0:2:0:0:
140,218,15435,2,0,L|141:265,1,47.9999985351563,2|0,0:2|0:2,0:2:0:0:
125,228,15765,2,0,L|126:275,1,47.9999985351563,2|0,0:2|0:2,0:2:0:0:
110,238,16094,2,0,L|111:285,1,47.9999985351563,2|0,0:2|0:2,0:2:0:0:
95,248,16424,1,2,0:2:0:0:
258,332,16589,5,0,1:2:0:0:
258,332,17248,1,2,0:2:0:0:
258,332,17413,2,0,L|404:326,1,136.000002593994,2|2,0:2|0:2,0:2:0:0:
470,202,18072,2,0,P|417:157|337:165,1,136.000002593994,2|2,0:2|0:2,0:2:0:0:
314,240,18732,2,0,P|354:246|391:232,1,68.0000012969971,2|0,0:2|0:2,0:2:0:0:
395,58,19061,1,2,0:2:0:0:
395,58,19885,5,2,0:2:0:0:
395,58,20050,2,0,L|315:58,1,68.0000012969971,2|0,0:2|0:2,0:2:0:0:
171,82,20380,2,0,P|221:89|266:164,1,136.000002593994,2|2,0:2|0:2,0:2:0:0:
187,299,21039,2,0,P|181:252|186:159,1,136.000002593994,2|2,0:2|0:2,0:2:0:0:
86,322,21699,1,2,0:2:0:0:
86,322,22852,5,2,0:2:0:0:
86,322,23017,2,0,P|81:274|84:246,1,68.0000012969971,2|0,0:2|0:2,0:2:0:0:
95,128,23347,1,2,0:2:0:0:
166,98,23512,2,0,P|171:146|168:174,1,68.0000012969971,2|0,0:2|0:2,0:2:0:0:
240,331,23841,5,2,0:2:0:0:
240,331,24006,2,0,P|235:283|238:255,1,68.0000012969971,2|0,0:2|0:2,0:2:0:0:
249,137,24336,1,2,0:2:0:0:
320,107,24501,6,0,P|324:150|321:175,1,67.2000008203125,2|2,0:2|0:2,0:2:0:0:
414,91,25655,1,2,0:2:0:0:
446,298,26314,1,0,1:2:0:0:
445,311,26396,1,0,1:2:0:0:
444,324,26479,5,8,0:2:0:0:
145,293,26644,1,8,0:2:0:0:
145,293,27138,6,0,P|159:230|147:117,1,160,4|8,1:2|0:2,0:2:0:0:
74,218,27633,1,0,0:2:0:0:
241,142,27797,1,2,1:2:0:0:
286,236,27962,2,0,L|374:251,1,80,2|8,0:2|0:2,0:2:0:0:
455,160,28292,2,0,L|367:145,1,80,2|0,0:2|1:2,0:2:0:0:
309,29,28622,6,0,L|397:44,1,80,2|8,0:2|0:2,0:2:0:0:
241,142,28951,2,0,L|153:127,1,80,2|0,0:2|1:2,0:2:0:0:
71,217,29281,2,0,L|159:232,1,80,2|8,0:2|0:2,0:2:0:0:
189,43,29611,1,0,1:2:0:0:
189,43,29693,1,0,1:2:0:0:
189,43,29775,6,0,P|100:62|73:135,1,160,0|8,1:2|0:2,0:2:0:0:
149,230,30270,1,0,0:2:0:0:
320,180,30435,1,2,0:2:0:0:
241,142,30600,2,0,L|226:230,1,80,2|8,0:2|0:2,0:2:0:0:
399,218,30929,2,0,L|414:130,1,80,2|0,0:2|1:2,0:2:0:0:
161,103,31259,6,0,L|146:191,1,80,2|8,0:2|0:2,0:2:0:0:
30,303,31589,2,0,L|45:215,1,80,2|0,0:2|1:2,0:2:0:0:
241,142,31918,1,2,1:2:0:0:
131,276,32083,1,8,0:2:0:0:
121,27,32248,1,0,1:2:0:0:
121,27,32330,1,0,1:2:0:0:
121,27,32413,6,0,B|161:14|199:28|199:28|237:43|277:27,1,160,0|8,1:2|0:2,0:2:0:0:
362,67,32907,1,0,0:2:0:0:
362,67,33072,2,0,L|361:148,1,80,0|0,1:2|0:2,0:2:0:0:
298,326,33402,1,10,0:2:0:0:
159,181,33567,2,0,P|154:129|164:94,1,80,2|0,0:2|1:2,0:2:0:0:
346,248,33896,5,2,0:2:0:0:
154,320,34061,2,0,L|60:318,1,80,10|0,0:2|0:2,0:2:0:0:
241,183,34391,1,2,1:2:0:0:
302,367,34556,1,2,0:2:0:0:
431,223,34721,1,8,0:2:0:0:
247,276,34885,1,0,1:2:0:0:
247,276,34968,1,0,1:2:0:0:
247,276,35050,6,0,P|294:258|327:158,1,160,0|8,1:2|0:2,0:2:0:0:
214,53,35545,1,0,0:2:0:0:
214,53,35710,2,0,L|128:53,1,80,0|0,1:2|0:2,0:2:0:0:
78,176,36039,1,10,0:2:0:0:
165,296,36204,2,0,B|145:257|165:217|165:217|184:179|168:139,1,160,2|0,0:2|0:2,0:2:0:0:
325,168,36699,5,8,0:2:0:0:
242,262,36863,1,0,0:2:0:0:
374,76,37028,1,8,0:2:0:0:
391,75,37111,1,8,0:2:0:0:
408,74,37193,1,8,0:2:0:0:
383,224,37358,1,0,1:2:0:0:
267,112,37523,1,8,0:2:0:0:
337,329,37688,5,6,1:2:0:0:
122,245,37852,1,8,0:2:0:0:
122,245,38017,1,8,0:2:0:0:
383,224,38182,5,2,1:2:0:0:
175,41,38346,1,8,0:2:0:0:
175,41,38511,1,8,0:2:0:0:
65,131,38677,6,0,P|125:143|175:131,1,103.999995239258,6|0,1:2|0:2,0:2:0:0:
379,98,39006,2,0,P|337:76|280:156,1,160,2|2,1:2|0:2,0:2:0:0:
183,255,39501,2,0,P|247:248|359:257,1,160,2|2,1:2|1:2,0:2:0:0:
414,315,39995,1,2,0:2:0:0:
283,334,40160,1,0,0:2:0:0:
152,353,40325,5,6,0:2:0:0:
63,214,40490,1,8,0:2:0:0:
50,176,40572,1,8,0:2:0:0:
51,136,40655,1,8,0:2:0:0:
67,100,40737,1,8,0:2:0:0:
95,72,40819,2,0,P|114:65|146:59,1,40,10|8,0:2|0:2,0:2:0:0:
279,181,40984,1,0,1:2:0:0:
152,167,41149,1,8,0:2:0:0:
152,167,41232,1,8,0:2:0:0:
152,167,41314,6,0,L|164:273,1,103.999995239258,12|0,0:2|0:2,0:2:0:0:
362,158,41644,2,0,P|323:107|230:110,1,160,2|2,0:2|0:2,0:2:0:0:
372,240,42138,2,0,P|407:228|436:196,1,80,2|8,0:2|0:2,0:2:0:0:
418,76,42468,1,2,0:2:0:0:
279,181,42633,2,0,P|273:228|279:269,1,80,2|0,0:2|0:2,0:2:0:0:
352,350,42962,5,0,1:2:0:0:
371,362,43045,1,0,1:2:0:0:
371,362,43292,2,0,P|321:350|249:363,1,107.999996704102,0|0,1:2|0:2,0:2:0:0:
175,367,43622,6,0,B|167:282|167:282|186:237|186:237|178:142,1,223.999993164063,4|0,0:2|0:2,0:2:0:0:
88,70,44116,1,0,1:2:0:0:
88,70,44199,1,0,1:2:0:0:
88,70,44281,6,0,L|50:65,2,35.9999989013672,0|0|0,1:2|1:2|1:2,1:2:0:0:
123,62,44528,1,0,1:2:0:0:
154,43,44611,1,0,1:2:0:0:
154,43,44940,6,0,B|202:49|248:31|248:31|272:53|272:53|313:29|365:44,1,223.999993164063,4|0,0:2|0:2,0:2:0:0:
416,190,45435,1,0,1:2:0:0:
415,206,45517,1,0,1:2:0:0:
414,222,45600,6,0,P|376:279|274:225,1,191.999994140625,2|8,1:2|0:2,0:2:0:0:
76,145,46094,2,0,P|127:136|273:156,1,191.999994140625,6|0,0:2|0:2,0:2:0:0:
225,337,46589,1,0,1:2:0:0:
225,337,46671,1,0,1:2:0:0:
225,337,46754,1,0,1:2:0:0:
225,337,46836,1,0,1:2:0:0:
225,337,46918,6,0,L|112:335,1,95.9999970703126,2|0,1:2|0:2,0:2:0:0:
76,145,47248,1,8,0:2:0:0:
172,56,47413,2,0,P|180:139|168:260,1,191.999994140625,6|0,0:2|1:2,0:2:0:0:
54,40,47907,1,8,0:2:0:0:
290,72,48072,1,0,1:2:0:0:
290,72,48155,1,0,1:2:0:0:
290,72,48237,6,0,L|381:76,1,80,4|0,1:2|0:2,0:2:0:0:
481,197,48567,2,0,L|390:193,1,80,8|0,0:2|0:2,0:2:0:0:
291,302,48896,2,0,P|342:314|381:306,1,80,2|0,1:2|0:2,0:2:0:0:
234,191,49226,2,0,P|194:187|156:199,1,80,10|0,0:2|0:2,0:2:0:0:
165,354,49556,6,0,P|187:321|196:282,1,80,2|0,1:2|0:2,0:2:0:0:
183,102,49885,1,10,0:2:0:0:
104,275,50050,2,0,B|71:234|71:234|71:120,1,160,10|0,0:2|0:2,0:2:0:0:
183,62,50545,1,8,0:2:0:0:
305,98,50710,1,0,1:2:0:0:
315,83,50792,1,0,1:2:0:0:
325,68,50874,6,0,L|317:154,1,80,0|0,1:2|0:2,0:2:0:0:
399,314,51204,2,0,L|407:228,1,80,8|0,0:2|0:2,0:2:0:0:
233,198,51534,2,0,P|262:229|307:243,1,80,2|0,1:2|0:2,0:2:0:0:
490,183,51863,2,0,P|461:152|416:138,1,80,10|0,0:2|0:2,0:2:0:0:
176,134,52193,6,0,P|147:203|193:274,1,160,2|8,1:2|0:2,0:2:0:0:
302,114,52688,1,8,0:2:0:0:
302,98,52770,1,8,0:2:0:0:
302,82,52852,1,8,0:2:0:0:
426,139,53017,1,0,1:2:0:0:
296,241,53182,1,8,0:2:0:0:
420,298,53347,1,0,1:2:0:0:
302,82,53512,6,0,B|256:43|256:43|122:43,1,184.000003509522,6|0,1:2|0:2,0:2:0:0:
155,197,54006,2,0,P|175:148|172:112,1,68.0000012969971,2|0,1:2|0:2,0:2:0:0:
50,118,54336,1,8,0:2:0:0:
101,315,54501,1,2,1:2:0:0:
101,315,54830,5,8,0:2:0:0:
174,366,54940,2,0,P|209:371|251:366,1,63.9999980468751,8|8,0:2|0:2,0:2:0:0:
334,232,55160,5,0,1:2:0:0:
372,211,55270,2,0,P|399:210|432:218,1,47.9999985351563,0|0,1:2|1:2,0:2:0:0:
296,309,55490,6,0,P|248:231|300:153,1,184.000003509522,4|0,1:2|0:2,0:2:0:0:
441,65,55984,2,0,P|400:81|369:81,1,68.0000012969971,2|0,1:2|0:2,0:2:0:0:
206,40,56314,1,8,0:2:0:0:
164,268,56479,1,0,1:2:0:0:
164,268,56808,5,8,0:2:0:0:
163,287,56891,1,8,0:2:0:0:
162,306,56973,1,8,0:2:0:0:
70,193,57138,2,0,L|34:194,2,34.0000006484985,0|0|0,1:2|1:2|1:2,0:2:0:0:
271,253,57468,6,0,P|362:250|410:142,1,192,8|0,0:2|0:2,0:2:0:0:
208,179,57797,2,0,P|174:237|202:319,1,132.00000402832,8|0,0:2|0:2,0:2:0:0:
315,164,58127,2,0,P|282:98|193:70,1,162.000000617981,8|0,0:2|0:2,0:2:0:0:
124,128,58457,6,0,B|104:100|105:70|105:70|83:132|126:138|93:210,1,192,8|0,0:2|0:2,0:2:0:0:
0,278,58786,2,0,P|48:281|105:327,1,88.000002685547,8|0,0:2|1:2,0:2:0:0:
135,370,59034,1,0,1:2:0:0:
135,370,59116,2,0,B|173:384|173:384|249:366,1,108.000000411987,8|0,0:2|0:2,0:2:0:0:
358,70,59446,5,10,0:2:0:0:
165,168,59611,1,2,0:2:0:0:
385,60,59775,1,2,0:2:0:0:
154,70,59940,5,10,0:2:0:0:
347,168,60105,1,2,0:2:0:0:
127,60,60269,1,2,0:2:0:0:
385,60,60435,5,10,0:2:0:0:
165,168,60600,1,2,0:2:0:0:
448,272,60765,5,6,0:2:0:0:
460,147,60929,1,2,0:2:0:0:
256,321,61094,1,6,0:2:0:0:
256,321,61589,6,0,L|258:277,1,40,2|0,0:2|0:2,0:2:0:0:
402,320,62083,6,0,P|409:266|405:219,1,100,6|0,1:2|0:2,0:2:0:0:
227,50,62412,2,0,P|220:104|224:151,1,100,10|0,0:2|0:2,0:2:0:0:
486,184,62742,2,0,P|433:134|340:159,1,150,2|0,1:2|0:2,0:2:0:0:
323,158,63072,2,0,L|320:263,1,100,8|0,0:2|0:2,0:2:0:0:
142,345,63401,5,2,1:2:0:0:
18,128,63566,2,0,L|122:135,1,100,2|8,0:2|0:2,0:2:0:0:
230,247,63896,2,0,L|126:240,1,100,2|0,0:2|1:2,0:2:0:0:
104,28,64225,1,2,1:2:0:0:
19,252,64390,1,8,0:2:0:0:
307,126,64555,6,0,P|289:77|196:104,1,151.999995941162,4|0,1:2|1:2,0:2:0:0:
364,205,64967,1,0,1:2:0:0:
364,205,65050,2,0,P|393:172|405:115,1,100,10|0,0:2|0:2,0:2:0:0:
232,183,65379,2,0,P|221:227|227:283,1,100,2|0,1:2|0:2,0:2:0:0:
454,322,65709,2,0,P|392:301|335:306,1,100,10|0,0:2|0:2,0:2:0:0:
232,369,66039,5,2,1:2:0:0:
136,228,66203,2,0,L|36:223,1,100,2|8,0:2|0:2,0:2:0:0:
320,132,66533,2,0,L|420:137,1,100,2|0,0:2|1:2,0:2:0:0:
143,54,66863,1,2,0:2:0:0:
366,226,67028,1,8,0:2:0:0:
341,36,67192,1,2,1:2:0:0:
341,36,67275,1,0,1:2:0:0:
341,36,67357,6,0,P|249:65|229:165,1,200,2|8,1:2|0:2,0:2:0:0:
276,292,67852,2,0,B|297:327|297:327|241:314|193:337,1,136.000002593994,2|0,0:2|0:2,0:2:0:0:
80,125,68346,1,8,0:2:0:0:
193,191,68511,5,0,0:2:0:0:
66,232,68676,1,0,1:2:0:0:
93,101,68841,1,0,0:2:0:0:
100,327,69006,2,0,P|51:329|28:324,1,68.0000012969971,10|0,0:2|0:2,0:2:0:0:
185,93,69335,2,0,P|243:105|271:132,1,100,2|0,1:2|0:2,0:2:0:0:
66,232,69665,2,0,L|68:129,1,100,8|0,0:2|0:2,0:2:0:0:
265,271,69995,5,0,1:2:0:0:
265,271,70159,1,0,1:2:0:0:
470,44,70324,2,0,L|367:66,1,100,8|0,0:2|0:2,0:2:0:0:
265,271,70654,5,0,1:2:0:0:
265,271,70818,1,0,1:2:0:0:
60,44,70983,2,0,L|163:66,1,100,8|0,0:2|0:2,0:2:0:0:
363,188,71313,5,2,0:2:0:0:
167,188,71478,1,2,0:2:0:0:
264,18,71643,1,2,0:2:0:0:
461,183,71808,1,0,1:2:0:0:
450,231,71890,1,0,1:2:0:0:
418,268,71972,1,8,0:2:0:0:
371,285,72055,1,0,1:2:0:0:
322,277,72137,6,0,P|294:258|277:234,1,50,2|0,1:2|1:2,0:2:0:0:
296,92,72302,2,0,P|294:126|281:152,1,50,10|0,0:2|1:2,0:2:0:0:
149,206,72467,2,0,P|179:191|209:189,1,50,2|0,1:2|1:2,0:2:0:0:
164,304,72632,6,0,P|85:280|66:156,1,200,6|10,1:2|0:2,0:2:0:0:
183,85,73126,1,0,0:2:0:0:
283,245,73291,2,0,P|282:294|268:344,1,100,2|0,1:2|0:2,0:2:0:0:
423,147,73621,2,0,P|422:97|408:47,1,100,10|0,0:2|0:2,0:2:0:0:
288,125,73951,5,2,1:2:0:0:
382,259,74115,2,0,L|491:267,1,100,2|8,1:2|0:2,0:2:0:0:
288,125,74445,2,0,L|179:117,1,100,2|0,1:2|0:2,0:2:0:0:
153,302,74775,1,10,0:2:0:0:
153,302,74857,1,8,0:2:0:0:
153,302,74940,1,8,0:2:0:0:
383,148,75104,6,0,P|355:56|259:31,1,200,6|0,1:2|1:2,0:2:0:0:
121,190,75599,2,0,P|171:213|226:209,1,100,10|0,0:2|0:2,0:2:0:0:
49,121,75929,2,0,P|26:171|30:226,1,100,2|0,1:2|0:2,0:2:0:0:
287,280,76258,2,0,P|310:230|306:175,1,100,10|0,0:2|0:2,0:2:0:0:
188,117,76588,5,2,1:2:0:0:
424,33,76753,2,0,L|324:33,1,100,2|8,0:2|0:2,0:2:0:0:
68,123,77083,2,0,L|168:123,1,100,2|0,0:2|1:2,0:2:0:0:
459,154,77412,1,0,1:2:0:0:
206,300,77577,1,8,0:2:0:0:
347,132,77742,1,0,1:2:0:0:
347,132,77824,1,0,1:2:0:0:
347,132,77907,6,0,L|336:309,1,176.000005371094,4|8,1:2|0:2,0:2:0:0:
270,367,78401,1,0,0:2:0:0:
161,213,78566,2,0,P|202:202|248:211,1,88.000002685547,0|0,1:2|0:2,0:2:0:0:
98,354,78896,2,0,L|85:258,1,88.000002685547,10|0,0:2|0:2,0:2:0:0:
183,27,79225,6,0,L|196:123,1,88.000002685547,2|0,1:2|0:2,0:2:0:0:
414,354,79555,2,0,L|427:258,1,88.000002685547,10|0,0:2|0:2,0:2:0:0:
329,27,79885,2,0,L|316:123,1,88.000002685547,2|0,1:2|0:2,0:2:0:0:
256,364,80214,2,0,L|256:272,1,88.000002685547,10|0,0:2|0:2,0:2:0:0:
406,93,80544,6,0,P|391:165|280:199,1,176.000005371094,2|8,1:2|0:2,0:2:0:0:
204,137,81039,1,0,0:2:0:0:
141,246,81203,2,0,P|93:258|49:253,1,88.000002685547,0|0,1:2|0:2,0:2:0:0:
267,28,81533,2,0,P|315:16|359:21,1,88.000002685547,8|0,0:2|0:2,0:2:0:0:
105,70,81863,6,0,P|61:67|19:78,1,88.000002685547,0|0,1:2|0:2,0:2:0:0:
215,300,82192,2,0,P|230:256|225:212,1,88.000002685547,10|0,0:2|0:2,0:2:0:0:
33,215,82522,2,0,P|53:256|88:284,1,88.000002685547,2|0,1:2|0:2,0:2:0:0:
213,96,82852,1,10,0:2:0:0:
310,299,83017,1,0,1:2:0:0:
310,299,83099,1,0,1:2:0:0:
310,299,83181,6,0,P|356:303|386:120,1,279.999991455078,6|0,0:2|0:2,0:2:0:0:
196,35,84170,1,10,0:2:0:0:
297,156,84335,1,0,1:2:0:0:
319,181,84418,1,0,1:2:0:0:
341,206,84500,6,0,L|269:195,1,68.0000012969971,14|0,0:2|0:2,0:2:0:0:
102,42,84830,2,0,L|174:53,1,68.0000012969971,2|0,0:2|0:2,0:2:0:0:
314,223,85159,2,0,L|242:212,1,68.0000012969971,2|0,0:2|0:2,0:2:0:0:
75,59,85489,2,0,L|147:70,1,68.0000012969971,2|0,0:2|0:2,0:2:0:0:
266,311,85819,5,6,1:2:0:0:
171,279,85984,1,2,0:2:0:0:
86,331,86148,1,8,0:2:0:0:
86,331,86313,2,0,L|75:249,1,80,2|0,0:2|1:2,0:2:0:0:
62,152,86643,1,0,0:2:0:0:
144,83,86808,1,10,0:2:0:0:
44,47,86973,1,2,0:2:0:0:
162,188,87137,5,0,1:2:0:0:
162,188,87302,2,0,L|252:180,1,80,2|8,0:2|0:2,0:2:0:0:
335,226,87632,1,0,0:2:0:0:
351,323,87797,1,2,0:2:0:0:
419,156,87962,1,2,0:2:0:0:
252,293,88126,1,8,0:2:0:0:
252,293,88291,2,0,L|162:301,1,80,2|0,0:2|1:2,0:2:0:0:
84,241,88621,5,0,0:2:0:0:
77,347,88786,1,10,0:2:0:0:
91,135,88951,1,2,0:2:0:0:
180,195,89115,1,0,1:2:0:0:
180,195,89280,2,0,P|197:158|195:110,1,80,2|8,0:2|0:2,0:2:0:0:
40,42,89610,1,0,1:2:0:0:
40,42,89692,1,0,1:2:0:0:
40,42,89775,5,8,0:2:0:0:
76,256,89940,1,8,0:2:0:0:
244,118,90104,1,8,0:2:0:0:
40,153,90269,1,8,0:2:0:0:
244,118,90434,1,8,0:2:0:0:
172,312,90599,1,8,0:2:0:0:
136,101,90764,1,8,0:2:0:0:
330,186,90929,1,0,1:2:0:0:
330,186,91011,1,0,1:2:0:0:
330,186,91093,6,0,L|335:127,1,55.9999982910157,2|2,1:2|0:2,0:2:0:0:
179,204,91423,1,8,0:2:0:0:
334,280,91588,2,0,P|388:261|421:165,1,160,2|0,0:2|0:2,0:2:0:0:
343,37,92083,1,10,0:2:0:0:
244,118,92247,1,2,0:2:0:0:
138,56,92412,5,0,1:2:0:0:
138,56,92577,2,0,L|56:56,1,80,2|8,0:2|0:2,0:2:0:0:
40,258,92907,1,0,0:2:0:0:
132,216,93072,1,2,1:2:0:0:
49,157,93236,1,2,0:2:0:0:
123,317,93401,1,8,0:2:0:0:
123,317,93566,2,0,P|167:308|209:277,1,80,2|0,0:2|1:2,0:2:0:0:
224,174,93896,5,0,0:2:0:0:
278,347,94061,1,8,0:2:0:0:
331,127,94225,1,8,0:2:0:0:
331,113,94308,1,8,0:2:0:0:
331,99,94390,1,8,0:2:0:0:
117,221,94555,1,8,0:2:0:0:
117,235,94638,1,8,0:2:0:0:
117,249,94720,1,8,0:2:0:0:
404,279,94885,1,8,0:2:0:0:
404,279,94967,1,8,0:2:0:0:
404,279,95050,5,10,1:2:0:0:
310,218,95214,1,2,0:2:0:0:
410,166,95379,1,2,0:2:0:0:
304,331,95544,5,10,1:2:0:0:
316,105,95709,1,2,0:2:0:0:
116,209,95874,1,2,0:2:0:0:
310,218,96039,5,10,1:2:0:0:
22,148,96203,1,2,0:2:0:0:
310,218,96368,1,2,0:2:0:0:
111,321,96533,5,10,1:2:0:0:
220,45,96698,1,2,0:2:0:0:
116,209,96863,1,2,0:2:0:0:
410,166,97028,1,10,1:2:0:0:
121,57,97192,5,10,0:2:0:0:
121,57,97275,1,8,0:2:0:0:
121,57,97357,2,10,L|120:103,1,40,10|10,1:2|0:2,0:2:0:0:
211,269,97522,1,10,0:2:0:0:
211,269,98346,5,6,0:2:0:0:
302,327,98511,2,0,L|388:317,1,80,2|8,0:2|0:2,0:2:0:0:
464,190,98841,2,0,L|378:200,1,80,2|0,0:2|1:2,0:2:0:0:
301,90,99170,2,0,L|387:80,1,80,2|8,0:2|0:2,0:2:0:0:
258,210,99500,2,0,L|172:220,1,80,2|0,0:2|1:2,0:2:0:0:
95,110,99830,2,0,L|181:100,1,80,2|8,0:2|0:2,0:2:0:0:
181,337,100159,1,0,1:2:0:0:
181,337,100242,1,0,1:2:0:0:
181,337,100324,6,0,P|107:315|64:240,1,160,0|8,1:2|0:2,0:2:0:0:
174,100,100819,1,0,0:2:0:0:
289,233,100984,1,2,0:2:0:0:
386,160,101148,2,0,L|376:74,1,80,2|8,0:2|0:2,0:2:0:0:
174,100,101478,2,0,L|184:186,1,80,2|0,0:2|1:2,0:2:0:0:
289,233,101808,6,0,L|279:147,1,80,2|8,0:2|0:2,0:2:0:0:
66,92,102137,2,0,L|76:178,1,80,2|0,0:2|1:2,0:2:0:0:
185,294,102467,1,2,1:2:0:0:
279,34,102632,1,8,0:2:0:0:
183,179,102797,1,2,0:2:0:0:
305,111,102962,6,0,B|269:127|231:101|231:101|195:77|154:92,1,160,0|8,1:2|0:2,0:2:0:0:
75,171,103456,1,0,0:2:0:0:
75,171,103621,2,0,L|72:254,1,80,0|0,1:2|0:2,0:2:0:0:
300,336,103951,1,10,0:2:0:0:
250,243,104115,2,0,P|206:235|155:249,1,80,2|0,0:2|1:2,0:2:0:0:
121,334,104445,5,2,0:2:0:0:
356,247,104610,2,0,L|365:151,1,80,10|0,0:2|0:2,0:2:0:0:
232,54,104940,1,2,0:2:0:0:
176,137,105104,2,0,P|222:152|263:146,1,80,2|8,0:2|0:2,0:2:0:0:
465,105,105434,1,2,1:2:0:0:
465,105,105517,1,0,1:2:0:0:
465,105,105599,6,0,B|424:68|424:68|300:68,1,160,2|8,1:2|0:2,0:2:0:0:
176,137,106093,1,0,0:2:0:0:
176,137,106258,2,0,L|84:142,1,80,0|0,1:2|0:2,0:2:0:0:
30,227,106588,1,10,0:2:0:0:
248,177,106753,2,0,P|258:134|249:98,1,80,2|0,0:2|1:2,0:2:0:0:
109,48,107083,5,0,1:2:0:0:
152,239,107247,1,8,0:2:0:0:
96,141,107412,1,0,1:2:0:0:
139,332,107576,1,8,0:2:0:0:
283,200,107742,1,0,1:2:0:0:
139,332,107907,1,0,1:2:0:0:
217,118,108072,1,8,0:2:0:0:
226,111,108154,1,0,1:2:0:0:
235,104,108236,6,0,P|278:94|332:104,1,92.0000017547608,2|2,1:2|1:2,0:2:0:0:
314,301,108566,2,0,P|277:305|246:300,1,64,2|10,1:2|0:2,0:2:0:0:
448,61,108896,5,6,1:2:0:0:
362,200,109061,2,0,L|277:199,1,80,2|8,0:2|0:2,0:2:0:0:
42,349,109390,2,0,L|127:350,1,80,2|0,0:2|1:2,0:2:0:0:
185,247,109720,2,0,L|100:246,1,80,2|8,0:2|0:2,0:2:0:0:
41,142,110050,2,0,L|126:143,1,80,2|0,0:2|1:2,0:2:0:0:
183,39,110379,2,0,L|98:38,1,80,2|8,0:2|0:2,0:2:0:0:
240,145,110709,1,2,1:2:0:0:
240,145,110791,1,0,1:2:0:0:
240,145,110874,6,0,P|289:150|402:140,1,160,0|8,1:2|0:2,0:2:0:0:
310,56,111368,1,0,0:2:0:0:
483,101,111533,1,2,0:2:0:0:
380,244,111698,2,0,L|379:329,1,80,2|8,0:2|0:2,0:2:0:0:
482,287,112028,2,0,L|483:202,1,80,2|0,0:2|1:2,0:2:0:0:
278,207,112357,6,0,L|277:292,1,80,2|8,0:2|0:2,0:2:0:0:
175,323,112687,2,0,L|176:238,1,80,2|0,0:2|1:2,0:2:0:0:
73,206,113017,2,0,L|72:291,1,80,2|8,0:2|0:2,0:2:0:0:
351,141,113346,1,2,1:2:0:0:
351,141,113429,1,0,1:2:0:0:
351,141,113511,6,0,P|273:109|204:144,1,160,0|8,1:2|0:2,0:2:0:0:
282,272,114006,1,0,0:2:0:0:
282,272,114170,2,0,L|370:272,1,80,0|0,1:2|0:2,0:2:0:0:
351,141,114500,1,10,0:2:0:0:
195,225,114665,2,0,P|184:263|193:313,1,80,2|0,0:2|1:2,0:2:0:0:
354,364,114995,5,2,0:2:0:0:
470,197,115159,2,0,L|469:106,1,80,10|0,0:2|0:2,0:2:0:0:
277,139,115489,1,2,1:2:0:0:
353,232,115654,1,2,0:2:0:0:
349,40,115819,1,8,0:2:0:0:
185,140,115984,1,2,1:2:0:0:
185,140,116066,1,0,1:2:0:0:
185,140,116148,6,0,B|182:193|182:193|199:244|199:244|196:302,1,160,0|8,1:2|0:2,0:2:0:0:
96,358,116643,1,0,0:2:0:0:
96,358,116808,2,0,L|100:268,1,80,0|0,1:2|0:2,0:2:0:0:
273,160,117137,1,10,0:2:0:0:
132,41,117302,2,0,L|47:36,1,80,2|0,0:2|1:2,0:2:0:0:
267,54,117632,5,0,1:2:0:0:
80,157,117797,1,8,0:2:0:0:
370,241,117962,1,0,1:2:0:0:
183,344,118126,1,8,0:2:0:0:
183,344,118209,1,8,0:2:0:0:
183,344,118291,1,8,0:2:0:0:
199,152,118456,1,0,1:2:0:0:
249,244,118621,1,8,0:2:0:0:
417,65,118786,5,6,1:2:0:0:
168,44,118951,1,8,0:2:0:0:
168,44,119115,1,8,0:2:0:0:
414,220,119280,5,2,1:2:0:0:
118,272,119445,1,8,0:2:0:0:
118,272,119610,1,8,0:2:0:0:
285,177,119775,6,0,P|296:124|288:68,1,103.999995239258,6|0,1:2|0:2,0:2:0:0:
79,196,120104,2,0,P|139:189|204:266,1,160,2|2,1:2|0:2,0:2:0:0:
309,319,120599,2,0,P|348:320|386:307,1,80,2|8,1:2|0:2,0:2:0:0:
358,166,120929,1,2,1:2:0:0:
481,199,121093,1,2,0:2:0:0:
358,166,121258,1,0,0:2:0:0:
235,133,121423,5,6,0:2:0:0:
133,216,121588,1,8,0:2:0:0:
113,250,121670,1,8,0:2:0:0:
107,289,121753,1,8,0:2:0:0:
114,328,121835,1,8,0:2:0:0:
135,362,121918,2,0,P|155:371|177:375,1,40,10|8,0:2|0:2,0:2:0:0:
347,192,122083,1,0,1:2:0:0:
193,292,122247,1,0,1:2:0:0:
193,292,122330,1,8,0:2:0:0:
193,292,122412,6,0,L|303:292,1,103.999995239258,2|0,1:2|0:2,0:2:0:0:
350,94,122742,2,0,P|274:126|253:219,1,160,2|0,0:2|0:2,0:2:0:0:
445,190,123236,1,2,0:2:0:0:
409,286,123401,1,8,0:2:0:0:
439,88,123566,1,2,0:2:0:0:
192,80,123731,2,0,L|102:78,1,80,2|8,1:2|0:2,0:2:0:0:
186,199,124061,6,0,P|217:191|252:195,1,63.9999980468751,2|0,1:2|0:2,0:2:0:0:
146,342,124280,2,0,P|114:344|83:336,1,63.9999980468751,2|0,1:2|0:2,0:2:0:0:
326,119,124500,5,0,1:2:0:0:
345,213,124610,1,0,1:2:0:0:
285,288,124720,2,0,L|210:287,1,63.9999980468751,8|0,0:2|1:2,0:2:0:0:
126,265,124940,1,0,1:2:0:0:
97,249,125050,1,0,1:2:0:0:
159,50,125214,1,0,1:2:0:0:
159,50,125297,1,0,1:2:0:0:
159,50,125379,6,0,L|231:50,1,63.9999980468751,2|0,1:2|0:2,0:2:0:0:
415,192,125599,2,0,L|343:192,1,63.9999980468751,2|0,1:2|0:2,0:2:0:0:
53,240,125819,5,0,1:2:0:0:
102,321,125929,1,0,1:2:0:0:
195,344,126039,2,0,P|228:325|257:287,1,63.9999980468751,8|0,0:2|1:2,0:2:0:0:
267,213,126258,1,0,1:2:0:0:
257,177,126368,1,0,1:2:0:0:
168,58,126533,1,0,1:2:0:0:
168,58,126615,1,0,1:2:0:0:
168,58,126698,6,0,P|161:151|166:251,1,191.999994140625,2|8,1:2|0:2,0:2:0:0:
399,179,127192,2,0,P|380:128|240:98,1,191.999994140625,6|0,0:2|1:2,0:2:0:0:
114,349,127687,1,0,1:2:0:0:
146,351,127768,1,0,1:2:0:0:
178,353,127851,1,0,1:2:0:0:
210,355,127934,1,0,1:2:0:0:
240,355,128017,6,0,B|287:324|287:324|293:169,1,191.999994140625,0|8,1:2|0:2,0:2:0:0:
485,152,128511,2,0,P|480:218|370:265,1,191.999994140625,6|0,0:2|0:2,0:2:0:0:
394,90,129006,1,0,1:2:0:0:
396,110,129088,1,0,1:2:0:0:
398,130,129170,2,0,L|399:183,1,47.9999985351563,0|0,1:2|1:2,1:2:0:0:
195,253,129335,6,0,L|108:251,1,80,4|0,1:2|0:2,0:2:0:0:
32,131,129665,2,0,L|119:133,1,80,8|0,0:2|0:2,0:2:0:0:
286,229,129995,2,0,P|287:273|270:311,1,80,2|0,1:2|0:2,0:2:0:0:
36,303,130324,2,0,P|21:265|23:226,1,80,10|0,0:2|0:2,0:2:0:0:
99,50,130654,6,0,P|155:62|194:132,1,120,2|0,0:2|0:2,0:2:0:0:
192,142,130984,2,0,L|192:190,1,40,10|0,0:2|0:2,0:2:0:0:
331,79,131148,1,10,0:2:0:0:
240,259,131313,1,0,1:2:0:0:
406,153,131478,1,0,1:2:0:0:
281,169,131643,1,8,0:2:0:0:
397,257,131808,1,0,1:2:0:0:
397,257,131890,1,0,1:2:0:0:
397,257,131973,6,0,B|363:243|323:259|323:259|279:275|241:260,1,160,0|8,1:2|0:2,0:2:0:0:
146,310,132467,1,0,0:2:0:0:
146,310,132632,2,0,L|58:313,1,80,2|0,1:2|0:2,0:2:0:0:
281,169,132962,2,0,L|369:166,1,80,10|0,0:2|0:2,0:2:0:0:
99,82,133291,6,0,P|86:132|98:178,1,80,2|0,1:2|0:2,0:2:0:0:
312,69,133621,1,10,0:2:0:0:
179,136,133786,1,2,1:2:0:0:
179,136,133868,1,0,1:2:0:0:
179,136,133951,1,8,0:2:0:0:
304,218,134115,1,0,1:2:0:0:
232,17,134280,1,0,1:2:0:0:
187,259,134445,1,8,0:2:0:0:
419,176,134610,6,0,L|505:140,1,92.0000017547608,4|0,0:2|1:2,0:2:0:0:
503,140,134857,1,0,1:2:0:0:
503,140,134940,1,8,0:2:0:0:
346,31,135104,2,0,P|339:68|344:100,1,68.0000012969971,2|0,0:2|0:2,0:2:0:0:
438,280,135434,1,2,0:2:0:0:
187,170,135599,1,2,0:2:0:0:
187,170,135929,5,8,0:2:0:0:
224,255,136039,2,0,P|220:295|210:320,1,63.9999980468751,8|8,0:2|0:2,0:2:0:0:
87,349,136258,5,0,1:2:0:0:
56,317,136368,2,0,P|47:292|46:264,1,47.9999985351563,0|0,1:2|1:2,0:2:0:0:
92,106,136588,6,0,B|133:140|133:140|133:282,1,184.000003509522,4|0,1:2|0:2,0:2:0:0:
254,65,137083,2,0,P|242:101|221:122,1,68.0000012969971,2|0,1:2|0:2,0:2:0:0:
49,188,137412,1,10,0:2:0:0:
314,334,137577,1,6,0:2:0:0:
314,334,137907,5,8,0:2:0:0:
333,327,137989,1,8,0:2:0:0:
352,320,138072,1,8,0:2:0:0:
259,221,138236,2,0,L|220:223,2,34.0000006484985,0|0|0,1:2|1:2|1:2,0:2:0:0:
452,63,138566,6,0,P|421:128|287:104,1,192,12|0,0:2|0:2,0:2:0:0:
222,65,138896,2,0,B|190:42|158:52|158:52|141:87|101:99,1,132.00000402832,8|0,0:2|0:2,0:2:0:0:
81,183,139225,2,0,P|35:147|39:36,1,162.000000617981,8|0,0:2|0:2,0:2:0:0:
207,167,139555,6,0,B|216:206|203:243|178:263|178:263|152:255|120:259|91:287,1,192,12|0,0:2|0:2,0:2:0:0:
154,342,139885,2,0,L|251:347,1,88.000002685547,8|0,0:2|1:2,0:2:0:0:
307,278,140132,1,0,1:2:0:0:
310,238,140214,2,0,P|314:296|412:325,1,162.000000617981,8|0,0:2|0:2,0:2:0:0:
472,198,140544,5,10,0:2:0:0:
401,68,140709,1,2,0:2:0:0:
401,329,140874,1,2,0:2:0:0:
259,68,141039,5,10,0:2:0:0:
259,329,141203,1,2,0:2:0:0:
117,68,141368,1,2,0:2:0:0:
117,329,141533,5,10,0:2:0:0:
330,198,141698,1,2,0:2:0:0:
46,198,141863,5,6,0:2:0:0:
401,68,142028,1,4,0:2:0:0:
188,198,142192,1,6,0:2:0:0:
188,198,142687,6,0,L|186:238,1,40,2|0,0:2|0:2,0:2:0:0:
234,116,143181,6,0,P|192:104|135:120,1,100,6|0,1:2|0:2,0:2:0:0:
94,225,143510,2,0,L|88:325,1,100,10|0,0:2|0:2,0:2:0:0:
321,168,143840,2,0,L|326:67,1,100,2|0,1:2|0:2,0:2:0:0:
275,250,144170,2,0,P|317:262|374:246,1,100,10|0,0:2|0:2,0:2:0:0:
432,88,144499,5,2,1:2:0:0:
222,154,144664,1,2,1:2:0:0:
463,271,144829,1,8,0:2:0:0:
164,311,144994,1,2,1:2:0:0:
343,175,145159,1,0,1:2:0:0:
136,83,145323,1,8,0:2:0:0:
136,83,145406,1,8,0:2:0:0:
136,83,145488,1,8,0:2:0:0:
44,266,145653,6,0,P|112:254|164:342,1,151.999995941162,6|0,1:2|1:2,0:2:0:0:
294,185,146065,1,0,1:2:0:0:
294,185,146148,2,0,L|185:182,1,100,10|0,0:2|0:2,0:2:0:0:
341,63,146477,2,0,L|450:66,1,100,2|0,1:2|0:2,0:2:0:0:
342,271,146807,2,0,P|304:283|240:267,1,100,10|0,0:2|0:2,0:2:0:0:
85,108,147137,5,2,1:2:0:0:
194,182,147301,1,2,1:2:0:0:
75,239,147466,1,8,0:2:0:0:
204,50,147631,5,2,0:2:0:0:
184,314,147796,1,0,1:2:0:0:
313,125,147961,5,2,0:2:0:0:
75,239,148126,1,8,0:2:0:0:
368,217,148290,1,2,1:2:0:0:
368,217,148373,1,0,1:2:0:0:
368,217,148455,6,0,P|417:144|375:40,1,200,2|8,1:2|0:2,0:2:0:0:
204,50,148950,1,2,0:2:0:0:
133,111,149115,2,0,L|132:187,1,68.0000012969971,2|0,1:2|0:2,0:2:0:0:
313,319,149444,1,8,0:2:0:0:
247,239,149609,5,0,0:2:0:0:
221,366,149774,1,0,1:2:0:0:
344,326,149939,1,0,0:2:0:0:
124,279,150104,2,0,L|33:278,1,68.0000012969971,10|0,0:2|0:2,0:2:0:0:
343,177,150433,2,0,L|444:175,1,100,2|0,1:2|0:2,0:2:0:0:
167,95,150763,2,0,L|65:93,1,100,10|0,0:2|0:2,0:2:0:0:
357,48,151093,5,0,1:2:0:0:
357,48,151257,1,0,1:2:0:0:
90,189,151422,2,0,L|193:189,1,100,12|0,0:2|0:2,0:2:0:0:
155,48,151752,5,0,1:2:0:0:
155,48,151916,1,0,1:2:0:0:
422,189,152082,2,0,L|319:189,1,100,12|0,0:2|0:2,0:2:0:0:
256,32,152411,5,2,0:2:0:0:
256,252,152576,1,2,0:2:0:0:
54,64,152741,1,6,0:2:0:0:
343,216,152906,1,0,1:2:0:0:
346,277,152988,1,0,1:2:0:0:
311,327,153071,1,8,2:2:0:0:
252,346,153153,1,0,1:2:0:0:
195,324,153235,6,0,P|176:303|166:273,1,50,2|0,1:2|1:2,2:2:0:0:
400,178,153400,2,0,P|392:205|371:229,1,50,10|0,2:2|1:2,2:2:0:0:
172,73,153565,2,0,P|199:67|230:73,1,50,2|0,1:2|1:2,2:2:0:0:
212,179,153730,6,0,P|122:176|60:73,1,200,6|8,1:2|0:2,0:2:0:0:
348,57,154224,1,0,0:2:0:0:
150,299,154389,2,0,L|50:314,1,100,2|0,0:2|0:2,0:2:0:0:
346,85,154719,2,0,L|361:185,1,100,10|0,0:2|0:2,0:2:0:0:
148,119,155049,5,8,0:2:0:0:
148,119,155131,1,8,0:2:0:0:
148,119,155213,1,8,0:2:0:0:
251,239,155378,2,0,L|240:186,1,50,8|8,0:2|0:2,0:2:0:0:
55,49,155543,1,8,0:2:0:0:
255,74,155708,1,8,0:2:0:0:
41,164,155873,1,8,0:2:0:0:
41,164,155955,1,8,0:2:0:0:
41,164,156038,1,8,0:2:0:0:
126,314,156202,6,0,B|101:258|120:208|139:224|155:168|127:118,1,200,6|0,1:2|0:2,0:2:0:0:
310,255,156697,2,0,P|251:269|209:265,1,100,10|0,0:2|0:2,0:2:0:0:
381,52,157027,2,0,P|430:49|478:62,1,100,2|0,1:2|0:2,0:2:0:0:
249,155,157356,2,0,L|240:43,1,100,8|0,0:2|0:2,0:2:0:0:
107,102,157685,5,2,1:2:0:0:
413,170,157851,2,0,L|516:168,1,100,2|8,0:2|0:2,0:2:0:0:
125,294,158180,1,2,0:2:0:0:
314,337,158344,1,0,1:2:0:0:
285,25,158510,1,8,0:2:0:0:
125,294,158675,1,8,0:2:0:0:
451,72,158840,1,8,0:2:0:0:
451,72,158922,1,8,0:2:0:0:
451,72,159005,6,0,L|357:89,1,88.000002685547,6|0,1:2|0:2,0:2:0:0:
257,130,159334,1,8,0:2:0:0:
246,161,159417,1,0,1:2:0:0:
245,194,159499,1,8,0:2:0:0:
252,226,159582,1,8,0:2:0:0:
268,255,159664,2,0,L|174:272,1,88.000002685547,0|0,1:2|0:2,0:2:0:0:
163,45,159994,1,8,0:2:0:0:
163,45,160076,1,0,1:2:0:0:
163,45,160159,2,0,L|171:92,1,44.0000013427735,0|0,1:2|1:2,0:2:0:0:
74,313,160323,5,14,0:2:0:0:
438,71,161642,5,2,1:2:0:0:
438,71,161806,1,2,0:2:0:0:
327,111,161971,1,2,0:2:0:0:
404,223,162136,2,0,P|408:197|409:176,1,47.9999985351563,2|2,0:2|0:2,0:2:0:0:
233,33,162795,1,2,0:2:0:0:
233,33,162960,2,0,P|234:56|237:80,2,47.9999985351563,2|2|2,0:2|0:2|0:2,0:2:0:0:
117,173,163949,6,0,L|63:166,1,47.9999985351563,2|2,0:2|0:2,0:2:0:0:
113,84,164444,1,2,0:2:0:0:
91,257,164773,2,0,L|87:284,1,23.9999992675781,2|0,0:2|0:2,0:2:0:0:
21,347,165103,1,2,0:2:0:0:
188,347,165268,5,2,0:2:0:0:
270,341,165433,1,2,0:2:0:0:
264,258,165598,1,2,0:2:0:0:
182,264,165762,1,2,0:2:0:0:
338,294,165927,5,2,0:2:0:0:
286,132,166092,1,2,3:3:0:0:
286,132,166174,1,2,3:3:0:0:
286,132,166257,6,0,L|289:78,1,47.9999985351563,2|2,0:2|0:2,0:2:0:0:
199,79,166751,2,0,L|196:133,1,47.9999985351563,2|2,0:2|0:2,0:2:0:0:
106,120,167411,1,2,0:2:0:0:
124,31,167576,5,2,0:2:0:0:
133,14,167740,1,0,3:3:0:0:
20,150,167905,5,2,0:2:0:0:
0,150,168070,1,0,3:2:0:0:
176,181,168235,5,2,0:2:0:0:
186,197,168400,1,0,3:2:0:0:
318,60,168565,5,2,0:2:0:0:
490,62,168894,1,2,0:2:0:0:
490,62,169059,2,0,P|466:51|441:48,1,47.9999985351563,2|2,0:2|0:2,0:2:0:0:
339,138,169554,6,0,L|281:140,1,47.9999985351563,0|0,3:2|0:2,0:2:0:0:
262,166,169801,1,0,0:2:0:0:
262,166,169883,2,0,P|241:192|228:223,1,60.0000022888184,2|0,0:2|0:2,0:2:0:0:
191,315,170213,2,0,P|178:287|159:264,1,60.0000022888184,2|0,0:2|0:2,0:2:0:0:
68,162,170543,2,0,P|108:179|155:176,1,88.000002685547,2|0,1:2|0:2,0:2:0:0:
425,136,170872,6,0,P|394:72|325:52,1,143.999995605469,6|0,1:2|3:2,0:2:0:0:
302,62,171532,1,0,3:2:0:0:
276,73,171861,1,0,3:2:0:0:
250,84,172191,1,0,3:2:0:0:
224,95,172521,1,0,3:2:0:0:
198,106,172850,2,0,P|195:151|198:203,1,88.000002685547,0|0,1:2|0:2,0:2:0:0:
220,232,173098,1,8,0:2:0:0:
220,232,173180,6,0,P|171:211|103:268,1,143.999995605469,0|0,1:2|3:2,0:2:0:0:
103,289,173839,1,0,3:2:0:0:
102,317,174169,1,0,3:2:0:0:
297,172,174499,1,8,0:2:0:0:
378,278,174663,1,0,0:2:0:0:
462,240,174828,2,0,L|471:189,1,47.9999985351563,0|0,1:2|0:2,0:2:0:0:
284,274,175158,2,0,L|275:325,1,47.9999985351563,0|0,1:2|0:2,0:2:0:0:
357,107,175488,6,0,P|291:84|231:119,1,143.999995605469,4|0,1:2|3:2,0:2:0:0:
218,148,176147,1,0,3:2:0:0:
205,178,176477,1,0,3:2:0:0:
79,326,176806,2,0,P|95:287|85:174,1,143.999995605469,4|0,1:2|3:2,0:2:0:0:
76,29,177466,2,0,P|91:73|143:114,1,103.999995239258,0|0,3:2|3:2,0:2:0:0:
418,79,178125,6,0,L|300:66,1,103.999995239258,4|2,1:2|3:3,0:2:0:0:
418,305,178784,2,0,L|300:318,1,103.999995239258,4|2,1:2|3:3,0:2:0:0:
307,323,179444,2,0,L|234:321,1,68.0000012969971,4|0,1:2|0:2,0:2:0:0:
82,228,179773,2,0,L|155:230,1,68.0000012969971,4|0,1:2|0:2,0:2:0:0:
330,342,180103,2,0,L|257:340,1,68.0000012969971,4|0,1:2|0:2,0:2:0:0:
124,141,180433,1,8,0:2:0:0:
167,140,180515,1,8,0:2:0:0:
204,158,180597,1,8,0:2:0:0:
230,192,180680,1,8,0:2:0:0:
238,233,180762,6,0,P|280:242|329:234,1,80,12|0,1:2|0:2,0:2:0:0:
289,48,181092,2,0,L|283:130,1,80,8|0,0:2|0:2,0:2:0:0:
420,283,181422,2,0,L|426:201,1,80,0|0,1:2|0:2,0:2:0:0:
392,93,181751,1,8,0:2:0:0:
297,225,181916,6,0,B|257:229|224:205|224:205|188:180|145:184,1,160,2|2,0:2|0:2,0:2:0:0:
76,244,182411,1,10,0:2:0:0:
151,361,182575,2,0,L|160:267,1,80,2|0,0:2|1:2,0:2:0:0:
189,88,182905,1,2,0:2:0:0:
44,268,183070,1,10,0:2:0:0:
272,303,183235,6,0,P|350:287|379:218,1,160,6|0,0:2|0:2,0:2:0:0:
373,177,183647,1,0,0:2:0:0:
373,177,183729,1,10,0:2:0:0:
504,230,183894,1,2,0:2:0:0:
297,225,184059,2,0,L|211:215,1,80,2|0,1:2|0:2,0:2:0:0:
280,79,184389,1,10,0:2:0:0:
127,256,184553,6,0,B|111:208|133:160|133:160|116:131|116:131|136:81|116:24,1,240,2|8,0:2|0:2,0:2:0:0:
30,80,185213,1,0,0:2:0:0:
30,80,185378,2,0,L|27:163,1,80,0|0,1:2|0:2,0:2:0:0:
217,215,185707,1,10,0:2:0:0:
345,121,185872,1,2,0:2:0:0:
345,121,185955,1,2,0:2:0:0:
345,121,186037,6,0,L|368:31,1,80,2|2,1:2|0:2,0:2:0:0:
222,106,186367,2,0,L|241:183,1,80,10|2,0:2|0:2,0:2:0:0:
333,323,186696,1,2,1:2:0:0:
237,285,186861,1,2,0:2:0:0:
141,319,187026,1,10,0:2:0:0:
233,361,187191,6,0,B|246:324|246:324|238:285,1,80,2|0,0:2|1:2,0:2:0:0:
141,319,187520,1,2,0:2:0:0:
344,286,187685,2,0,L|434:267,1,80,10|0,0:2|0:2,0:2:0:0:
451,159,188015,1,2,1:2:0:0:
451,159,188180,2,0,B|444:78|444:78|406:54|351:79,1,160,2|0,0:2|0:2,0:2:0:0:
147,168,188674,5,0,1:2:0:0:
147,168,188839,1,0,1:2:0:0:
392,345,189004,2,0,L|307:326,1,80,12|0,0:2|0:2,0:2:0:0:
367,160,189334,5,0,1:2:0:0:
367,160,189499,1,0,1:2:0:0:
124,345,189663,2,0,L|209:326,1,80,12|0,0:2|0:2,0:2:0:0:
305,78,189993,5,2,0:2:0:0:
207,78,190103,1,2,0:2:0:0:
256,160,190213,1,2,0:2:0:0:
256,0,190323,5,4,1:2:0:0:
186,229,190488,1,8,0:2:0:0:
219,250,190570,1,8,0:2:0:0:
258,257,190652,1,8,0:2:0:0:
297,248,190735,1,8,0:2:0:0:
329,224,190817,2,0,L|337:183,1,40,8|0,1:2|0:2,0:2:0:0:
156,80,190982,2,0,L|163:119,1,40,8|0,1:2|0:2,0:2:0:0:
410,60,191147,1,8,0:2:0:0:
410,60,191229,1,8,0:2:0:0:
410,60,191312,5,6,1:2:0:0:
373,44,191394,1,2,0:2:0:0:
333,39,191477,1,2,0:2:0:0:
294,44,191559,1,2,0:2:0:0:
258,61,191641,1,10,0:2:0:0:
227,86,191724,1,2,0:2:0:0:
204,119,191806,1,2,0:2:0:0:
192,157,191889,1,2,0:2:0:0:
190,197,191971,5,2,0:2:0:0:
199,236,192053,1,2,0:2:0:0:
218,270,192136,1,2,0:2:0:0:
246,299,192218,1,2,0:2:0:0:
282,314,192301,2,0,L|333:320,1,40,10|2,0:2|0:2,0:2:0:0:
376,189,192466,2,0,L|325:183,1,40,2|2,0:2|0:2,0:2:0:0:
73,247,192630,5,2,0:2:0:0:
33,202,192712,1,2,0:2:0:0:
19,145,192794,1,2,0:2:0:0:
34,87,192877,1,2,0:2:0:0:
75,44,192959,1,10,0:2:0:0:
131,25,193042,1,2,0:2:0:0:
190,35,193124,1,2,0:2:0:0:
236,72,193206,1,2,0:2:0:0:
260,126,193290,6,0,L|253:180,1,40,2|2,0:2|0:2,0:2:0:0:
159,259,193455,1,2,1:2:0:0:
159,259,193537,1,2,1:2:0:0:
159,259,193619,2,0,L|153:219,1,40,10|2,0:2|0:2,0:2:0:0:
380,12,193784,1,6,0:2:0:0:
429,44,193866,1,2,0:2:0:0:
454,97,193948,5,2,0:2:0:0:
447,156,194031,1,2,0:2:0:0:
409,202,194113,1,2,0:2:0:0:
353,221,194196,1,2,0:2:0:0:
296,207,194278,1,10,0:2:0:0:
254,165,194361,1,2,0:2:0:0:
298,126,194443,1,2,0:2:0:0:
357,119,194525,1,2,0:2:0:0:
409,146,194608,5,2,0:2:0:0:
437,198,194690,1,2,0:2:0:0:
431,257,194773,1,2,0:2:0:0:
393,302,194855,1,2,0:2:0:0:
336,318,194937,1,10,0:2:0:0:
280,299,195020,1,2,0:2:0:0:
243,252,195103,2,0,L|245:207,1,40,2|0,0:2|0:2,0:2:0:0:
190,35,195268,5,0,0:2:0:0:
101,86,195378,2,0,L|42:89,1,53.3333333333333,2|2,0:2|0:2,0:2:0:0:
9,209,195597,5,10,0:2:0:0:
98,260,195707,2,0,L|157:263,1,53.3333333333333,2|2,0:2|0:2,0:2:0:0:
240,313,195927,1,2,0:2:0:0:
197,139,196092,1,8,0:2:0:0:
67,361,196257,1,8,0:2:0:0:
369,188,196422,1,0,1:2:0:0:
369,188,196504,1,0,1:2:0:0:
369,188,196586,5,6,1:2:0:0:
384,169,196669,1,2,0:2:0:0:
398,149,196751,2,0,P|405:124|408:102,1,40,2|0,0:2|0:2,0:2:0:0:
274,51,196916,5,10,1:2:0:0:
284,78,196999,1,2,0:2:0:0:
294,106,197081,2,0,P|294:137|290:163,1,40,2|0,0:2|0:2,0:2:0:0:
186,175,197246,5,2,1:2:0:0:
189,139,197329,1,2,0:2:0:0:
192,104,197411,2,0,P|182:67|170:38,1,40,2|0,0:2|0:2,0:2:0:0:
55,49,197575,5,10,1:2:0:0:
69,90,197658,1,2,0:2:0:0:
83,130,197740,2,0,P|83:161|80:187,1,40,2|0,0:2|0:2,0:2:0:0:
43,280,197905,5,2,1:2:0:0:
71,314,197988,1,2,0:2:0:0:
109,334,198070,2,0,P|140:334|166:331,1,46.0000008773804,2|0,0:2|0:2,0:2:0:0:
380,217,198235,5,10,1:2:0:0:
346,176,198318,1,2,0:2:0:0:
300,152,198400,2,0,P|262:151|231:155,1,46.0000008773804,2|0,0:2|0:2,0:2:0:0:
82,169,198564,5,2,1:2:0:0:
121,217,198647,1,2,0:2:0:0:
176,245,198729,2,0,B|206:245|206:245|232:242,1,51.999997619629,2|2,0:2|0:2,0:2:0:0:
486,154,198894,5,10,1:2:0:0:
439,96,198977,1,2,0:2:0:0:
373,62,199059,2,0,B|336:61|336:61|305:65,1,51.999997619629,2|2,0:2|0:2,0:2:0:0:
107,82,199224,6,0,B|107:144|107:144|80:200|80:200|80:270,1,184.000003509522,2|8,1:2|0:2,0:2:0:0:
140,335,199718,1,0,0:2:0:0:
140,335,199883,1,0,1:2:0:0:
346,195,200048,1,2,0:2:0:0:
248,333,200213,2,0,L|231:236,1,92.0000017547608,10|0,0:2|0:2,0:2:0:0:
251,206,200460,1,0,0:2:0:0:
251,206,200542,6,0,L|258:251,1,46.0000008773804,2|0,1:2|0:2,0:2:0:0:
161,110,200707,1,0,1:2:0:0:
161,110,200790,1,0,1:2:0:0:
161,110,200872,1,10,0:2:0:0:
273,70,201037,1,10,0:2:0:0:
139,246,201202,1,8,0:2:0:0:
251,206,201367,1,0,0:2:0:0:
35,25,201531,2,0,L|44:117,1,92.0000017547608,0|8,1:2|0:2,0:2:0:0:
49,150,201779,1,8,0:2:0:0:
49,150,201861,5,2,1:2:0:0:
191,323,202026,1,0,1:2:0:0:
177,136,202191,1,0,1:2:0:0:
63,337,202356,1,2,1:2:0:0:
120,258,202520,2,0,P|119:230|113:197,1,47.9999985351563,0|0,0:2|0:2,0:2:0:0:
154,61,202850,2,0,P|155:89|161:122,1,47.9999985351563,2|0,0:2|0:2,0:2:0:0:
314,211,203180,6,0,P|274:190|213:201,1,95.9999970703126,2|0,0:2|0:2,0:2:0:0:
170,327,203674,1,2,1:2:0:0:
165,345,203757,1,0,1:2:0:0:
160,363,203839,1,8,0:2:0:0:
424,216,204004,1,8,0:2:0:0:
253,287,204169,2,0,L|256:359,1,68.0000012969971,2|0,1:2|0:2,0:2:0:0:
461,305,204498,6,0,B|432:321|398:310|398:310|363:300|334:314,1,128,6|0,1:2|0:2,0:2:0:0:
203,207,205488,2,0,P|228:196|271:194,1,68.0000012969971,2|0,0:2|0:2,0:2:0:0:
253,287,205735,1,0,1:2:0:0:
253,287,205817,6,0,P|203:302|158:290,1,88.000002685547,14|0,0:2|1:2,0:2:0:0:
8,216,206147,1,0,0:2:0:0:
99,158,206312,2,0,L|88:296,1,136.000002593994,2|0,1:2|0:2,0:2:0:0:
64,76,206806,2,0,P|104:69|135:76,1,68.0000012969971,0|0,1:2|0:2,0:2:0:0:
169,102,207053,1,0,0:2:0:0:
169,102,207136,5,2,1:2:0:0:
325,101,207301,1,0,1:2:0:0:
326,257,207466,1,0,1:2:0:0:
170,258,207630,1,2,1:2:0:0:
237,180,207795,2,0,P|270:178|289:181,1,47.9999985351563,0|0,0:2|0:2,0:2:0:0:
415,334,208125,2,0,P|381:335|362:332,1,47.9999985351563,2|0,0:2|0:2,0:2:0:0:
163,293,208455,6,0,L|267:290,1,95.9999970703126,2|0,0:2|0:2,0:2:0:0:
67,346,208949,1,2,1:2:0:0:
44,349,209031,1,0,1:2:0:0:
21,352,209114,1,8,0:2:0:0:
64,217,209279,1,8,0:2:0:0:
107,82,209444,2,0,L|129:7,1,68.0000012969971,2|0,1:2|0:2,0:2:0:0:
203,187,209773,6,0,P|227:167|325:169,1,128,6|0,1:2|0:2,0:2:0:0:
342,250,210762,2,0,L|260:248,1,68.0000012969971,2|0,0:2|0:2,0:2:0:0:
342,80,211092,5,10,0:2:0:0:
425,134,211257,2,0,L|430:212,1,68.0000012969971,0|0,0:2|0:2,0:2:0:0:
427,300,211586,1,0,1:2:0:0:
320,345,211751,1,0,0:2:0:0:
320,345,211916,2,0,L|251:346,1,68.0000012969971,0|0,0:2|1:2,0:2:0:0:
87,152,212246,1,8,0:2:0:0:
87,152,212328,1,8,0:2:0:0:
87,152,212411,6,0,B|117:115|117:115|218:115,1,136.000002593994,4|0,1:2|0:2,0:2:0:0:
289,268,213070,2,0,P|264:269|230:266,1,47.9999985351563,0|0,0:2|0:2,0:2:0:0:
162,196,213400,1,2,0:2:0:0:
323,23,213564,1,8,0:2:0:0:
323,23,213647,1,8,0:2:0:0:
323,23,213729,6,0,P|392:80|394:142,1,136.000002593994,6|0,1:2|0:2,0:2:0:0:
321,271,214224,2,0,P|309:192|308:109,1,160,2|0,0:2|0:2,0:2:0:0:
205,47,214718,2,0,L|204:122,1,68.0000012969971,2|0,0:2|0:2,0:2:0:0:
190,257,214966,1,0,1:2:0:0:
201,286,215048,6,0,B|166:256|166:256|121:277|71:266,1,136.000002593994,6|0,1:2|0:2,0:2:0:0:
105,141,215707,2,0,P|138:144|155:141,1,47.9999985351563,0|0,0:2|0:2,0:2:0:0:
301,207,216037,2,0,P|267:203|250:206,1,47.9999985351563,0|0,0:2|0:2,0:2:0:0:
143,353,216367,6,0,P|214:371|274:340,1,136.000002593994,2|0,0:2|0:2,0:2:0:0:
361,85,216861,2,0,P|328:136|354:244,1,151.999995941162,2|0,0:2|0:2,0:2:0:0:
470,247,217356,2,0,P|456:190|423:163,1,88.000002685547,2|0,0:2|0:2,0:2:0:0:
227,177,217603,1,0,0:2:0:0:
205,190,217685,6,0,L|200:294,1,95.9999970703126,6|0,1:2|0:2,0:2:0:0:
306,341,218015,1,0,0:2:0:0:
246,102,218180,2,0,B|193:76|144:112|144:112|100:145|39:122,1,204.000003890991,2|0,0:2|0:2,0:2:0:0:
0,256,218922,1,0,0:2:0:0:
35,284,219004,6,0,L|100:291,1,55.9999982910157,0|0,0:2|0:2,0:2:0:0:
284,198,219334,2,0,L|192:188,1,80,0|0,0:2|0:2,0:2:0:0:
90,289,219663,1,8,0:2:0:0:
246,100,219828,1,8,0:2:0:0:
252,92,219911,1,8,0:2:0:0:
258,84,219993,1,8,0:2:0:0:
256,288,220158,1,8,0:2:0:0:
412,87,220323,6,0,P|440:69|455:40,1,57.0666649251303,10|0,0:2|0:2,0:2:0:0:
250,326,220542,2,0,P|251:359|269:386,1,57.0666649251303,10|0,0:2|0:2,0:2:0:0:
123,66,220762,2,0,P|93:50|60:52,1,57.0666649251303,10|0,0:2|0:2,0:2:0:0:
332,207,220982,6,0,L|382:244,1,46.4000003894043,10|0,0:2|0:2,0:2:0:0:
268,77,221202,2,0,L|275:15,1,46.4000003894043,10|0,0:2|0:2,0:2:0:0:
187,196,221422,2,0,L|129:220,1,46.4000003894043,10|0,0:2|0:2,0:2:0:0:
413,117,221641,6,0,P|395:75|364:47,1,57.0666649251303,10|0,0:2|0:2,0:2:0:0:
220,311,221861,2,0,P|266:317|305:303,1,57.0666649251303,10|0,0:2|0:2,0:2:0:0:
148,47,222081,2,0,P|121:83|112:124,1,57.0666649251303,10|0,0:2|0:2,0:2:0:0:
389,248,222301,6,0,L|345:215,1,46.4000003894043,10|0,0:2|0:2,0:2:0:0:
275,6,222521,2,0,L|269:61,1,46.4000003894043,10|0,0:2|0:2,0:2:0:0:
121,224,222741,2,0,L|172:202,1,46.4000003894043,10|0,0:2|0:2,0:2:0:0:
261,158,222960,5,12,0:2:0:0:
250,322,223125,1,0,1:2:0:0:
250,322,223207,1,0,1:2:0:0:
250,322,223290,2,0,L|250:274,1,34.8000002920532,0|0,1:2|0:2,0:2:0:0:
358,66,223455,1,8,0:2:0:0:
407,215,223619,1,0,1:2:0:0:
407,215,223702,1,0,1:2:0:0:
407,215,223784,1,0,1:2:0:0:
154,66,223949,1,8,0:2:0:0:
115,215,224114,1,0,1:2:0:0:
303,26,224279,5,4,1:2:0:0:
224,325,224444,1,4,0:2:0:0:
5,106,224608,1,4,1:2:0:0:
178,156,225927,6,0,L|181:272,1,105.599999677734,2|0,0:2|0:2,0:2:0:0:
257,97,226422,2,0,P|241:80|216:69,1,35.9999989013672,0|0,0:2|0:2,0:2:0:0:
90,264,226586,1,2,0:2:0:0:
112,321,226669,1,0,0:2:0:0:
166,351,226751,1,0,0:2:0:0:
226,338,226834,1,0,0:2:0:0:
264,290,226916,6,0,L|262:167,1,108.000000411987,6|0,1:2|0:2,0:2:0:0:
80,37,227246,2,0,L|81:144,1,108.000000411987,10|0,0:2|0:2,0:2:0:0:
351,217,227575,2,0,P|349:157|354:98,1,108.000000411987,2|0,1:2|0:2,0:2:0:0:
171,110,227905,2,0,P|174:163|172:217,1,108.000000411987,10|0,0:2|0:2,0:2:0:0:
443,37,228235,5,2,1:2:0:0:
482,262,228400,1,2,0:2:0:0:
262,40,228564,1,8,0:2:0:0:
308,309,228729,1,2,1:2:0:0:
87,105,228894,1,8,0:2:0:0:
75,74,228977,1,8,0:2:0:0:
63,44,229059,1,10,0:2:0:0:
126,330,229224,2,0,L|104:384,1,54.0000002059937,8|0,0:2|0:2,0:2:0:0:
82,237,229389,6,0,P|160:234|226:348,1,216.000000823975,6|0,0:2|1:2,0:2:0:0:
45,134,229801,1,0,1:2:0:0:
45,134,229883,2,0,L|162:132,1,108.000000411987,10|0,0:2|0:2,0:2:0:0:
425,284,230213,2,0,L|308:286,1,108.000000411987,2|0,1:2|0:2,0:2:0:0:
311,19,230542,2,0,L|313:136,1,108.000000411987,10|0,0:2|0:2,0:2:0:0:
158,292,230872,5,2,1:2:0:0:
312,126,231037,1,2,0:2:0:0:
152,132,231202,1,8,0:2:0:0:
317,285,231367,1,2,0:2:0:0:
152,132,231531,1,0,1:2:0:0:
395,203,231696,1,2,0:2:0:0:
235,209,231861,1,8,0:2:0:0:
472,120,232026,1,8,0:2:0:0:
472,120,232108,1,8,0:2:0:0:
472,120,232191,6,0,P|460:183|332:159,1,216.000000823975,2|8,1:2|0:2,0:2:0:0:
243,68,232685,2,0,P|204:61|150:73,1,71.9999978027344,2|0,0:2|1:2,0:2:0:0:
92,156,233015,1,0,0:2:0:0:
202,277,233180,1,8,0:2:0:0:
90,196,233345,5,0,0:2:0:0:
202,160,233509,1,0,1:2:0:0:
177,274,233674,1,0,0:2:0:0:
92,156,233839,2,0,L|92:71,1,71.9999978027344,10|0,0:2|0:2,0:2:0:0:
262,326,234169,2,0,P|217:363|151:372,1,108.000000411987,2|0,1:2|0:2,0:2:0:0:
202,160,234498,1,8,0:2:0:0:
420,269,234663,1,0,1:2:0:0:
420,296,234746,1,0,1:2:0:0:
420,324,234828,5,0,1:2:0:0:
420,324,234993,1,0,1:2:0:0:
73,52,235158,2,0,L|187:62,1,108.000000411987,4|0,0:2|0:2,0:2:0:0:
92,324,235488,5,0,1:2:0:0:
92,324,235653,1,0,1:2:0:0:
439,52,235818,2,0,L|325:62,1,108.000000411987,4|0,0:2|0:2,0:2:0:0:
211,192,236147,5,2,0:2:0:0:
362,192,236312,1,2,0:2:0:0:
125,44,236477,1,14,0:2:0:0:
158,311,236641,1,8,0:2:0:0:
210,322,236723,1,8,0:2:0:0:
262,309,236805,1,8,0:2:0:0:
314,297,236888,1,8,0:2:0:0:
367,307,236971,6,0,P|387:282|399:256,1,54.0000002059937,2|0,1:2|1:2,0:2:0:0:
205,120,237136,2,0,P|216:149|232:172,1,54.0000002059937,10|0,0:2|1:2,0:2:0:0:
448,73,237301,2,0,P|416:67|388:70,1,54.0000002059937,2|0,1:2|1:2,0:2:0:0:
486,238,237466,6,0,P|407:168|304:256,1,216.000000823975,6|10,1:2|0:2,0:2:0:0:
263,37,237960,1,0,0:2:0:0:
168,280,238125,2,0,P|113:305|62:307,1,108.000000411987,2|0,0:2|0:2,0:2:0:0:
66,76,238455,2,0,P|119:80|168:104,1,108.000000411987,10|0,0:2|0:2,0:2:0:0:
321,304,238784,5,10,0:2:0:0:
316,325,238867,1,8,0:2:0:0:
311,346,238949,2,0,L|248:343,1,54.0000002059937,2|0,1:2|0:2,0:2:0:0:
92,191,239114,2,0,L|155:194,1,54.0000002059937,0|0,1:2|0:2,0:2:0:0:
503,168,239279,5,10,0:2:0:0:
498,189,239362,1,8,0:2:0:0:
493,210,239444,2,0,L|430:207,1,54.0000002059937,0|0,1:2|0:2,0:2:0:0:
259,36,239608,1,2,1:2:0:0:
341,216,239773,2,0,L|350:281,1,54.0000002059937,8|0,0:2|0:2,0:2:0:0:
220,128,239938,6,0,B|260:143|302:126|302:126|346:109|388:128,1,167.999994873047,6|0,0:2|0:2,0:2:0:0:
404,346,240433,2,0,P|332:362|273:330,1,108.000000411987,10|0,0:2|0:2,0:2:0:0:
163,51,240762,2,0,P|235:35|294:67,1,108.000000411987,2|0,1:2|0:2,0:2:0:0:
260,239,241092,2,0,L|141:239,1,108.000000411987,10|0,0:2|0:2,0:2:0:0:
52,323,241422,5,2,1:2:0:0:
330,155,241586,1,2,0:2:0:0:
57,152,241751,1,10,0:2:0:0:
335,320,241916,2,0,L|451:320,1,108.000000411987,2|0,1:2|0:2,0:2:0:0:
194,84,242246,5,8,0:2:0:0:
191,350,242411,1,8,0:2:0:0:
423,220,242575,1,8,0:2:0:0:
423,220,242658,1,8,0:2:0:0:
423,220,242740,6,0,P|443:143|374:49,1,184.000003509522,4|8,1:2|0:2,0:2:0:0:
217,141,243235,1,0,0:2:0:0:
330,155,243400,2,0,L|298:69,1,92.0000017547608,0|0,1:2|0:2,0:2:0:0:
137,85,243729,2,0,P|120:130|126:178,1,92.0000017547608,10|0,0:2|0:2,0:2:0:0:
340,347,244059,6,0,L|442:351,1,92.0000017547608,2|0,1:2|0:2,0:2:0:0:
500,244,244389,2,0,L|398:240,1,92.0000017547608,10|0,0:2|0:2,0:2:0:0:
172,347,244718,2,0,L|70:351,1,92.0000017547608,2|0,1:2|0:2,0:2:0:0:
12,244,245048,2,0,L|114:240,1,92.0000017547608,10|0,0:2|0:2,0:2:0:0:
256,347,245378,6,0,L|255:151,1,184.000003509522,2|8,1:2|0:2,0:2:0:0:
256,64,245872,1,0,0:2:0:0:
375,114,246037,2,0,P|384:167|372:214,1,92.0000017547608,0|0,1:2|0:2,0:2:0:0:
133,204,246367,2,0,P|125:158|134:114,1,92.0000017547608,8|0,0:2|0:2,0:2:0:0:
255,163,246696,6,0,L|255:266,1,92.0000017547608,0|0,1:2|0:2,0:2:0:0:
129,305,247026,2,0,B|83:295|83:295|45:259,1,92.0000017547608,10|0,0:2|0:2,0:2:0:0:
341,309,247356,2,0,B|308:339|308:339|262:349,1,92.0000017547608,2|0,1:2|0:2,0:2:0:0:
133,204,247685,1,10,0:2:0:0:
197,71,247850,1,8,0:2:0:0:
197,71,247933,1,8,0:2:0:0:
197,71,248015,6,0,P|298:61|363:172,1,223.999993164063,6|0,1:2|1:2,0:2:0:0:
367,168,248757,1,0,1:2:0:0:
365,195,248839,1,0,1:2:0:0:
352,226,248922,1,0,1:2:0:0:
324,257,249004,1,0,1:2:0:0:
272,278,249086,1,0,1:2:0:0:
215,271,249169,1,8,0:2:0:0:
161,226,249251,1,8,0:2:0:0:
145,142,249334,5,6,0:2:0:0:
145,142,249993,5,8,0:2:0:0:
63,358,250158,2,0,L|56:237,1,111.999996582031,0|0,1:2|0:2,0:2:0:0:
23,98,250652,5,6,1:2:0:0:
152,41,250817,1,2,0:2:0:0:
280,99,250982,1,8,0:2:0:0:
280,99,251147,2,0,L|281:187,1,88.000002685547,2|0,0:2|1:2,0:2:0:0:
338,292,251477,1,0,0:2:0:0:
400,188,251641,1,10,0:2:0:0:
218,290,251806,1,2,0:2:0:0:
458,294,251971,5,0,1:2:0:0:
458,294,252136,2,0,B|484:272|484:272|484:212,1,88.000002685547,2|8,0:2|0:2,0:2:0:0:
383,87,252466,1,0,0:2:0:0:
400,188,252630,1,2,1:2:0:0:
237,46,252795,1,2,0:2:0:0:
254,147,252959,1,8,0:2:0:0:
254,147,253125,2,0,B|210:147|210:147|205:155|205:155|157:155,1,88.000002685547,2|0,0:2|1:2,0:2:0:0:
70,191,253455,5,0,0:2:0:0:
151,259,253619,1,8,0:2:0:0:
89,87,253784,1,2,0:2:0:0:
51,295,253949,1,0,1:2:0:0:
51,295,254114,2,0,P|72:330|110:357,1,88.000002685547,2|8,0:2|0:2,0:2:0:0:
293,259,254444,1,0,1:2:0:0:
293,259,254526,1,0,1:2:0:0:
293,259,254608,5,8,0:2:0:0:
158,61,254773,1,8,0:2:0:0:
151,259,254938,1,8,0:2:0:0:
286,61,255103,1,8,0:2:0:0:
435,259,255268,1,8,0:2:0:0:
224,159,255433,1,8,0:2:0:0:
480,159,255597,1,8,0:2:0:0:
244,341,255762,1,0,1:2:0:0:
244,341,255845,1,0,1:2:0:0:
244,341,255927,6,0,L|246:274,1,60.0000022888184,2|2,1:2|0:2,0:2:0:0:
151,259,256257,1,8,0:2:0:0:
343,199,256422,2,0,P|375:137|314:60,1,176.000005371094,2|0,0:2|0:2,0:2:0:0:
91,79,256916,1,10,0:2:0:0:
290,137,257081,1,2,0:2:0:0:
183,42,257246,5,0,1:2:0:0:
183,42,257411,2,0,L|182:146,1,88.000002685547,2|8,0:2|0:2,0:2:0:0:
116,297,257740,1,0,0:2:0:0:
97,165,257905,1,2,1:2:0:0:
73,303,258070,1,2,0:2:0:0:
205,254,258235,1,8,0:2:0:0:
205,254,258400,2,0,P|247:252|301:273,1,88.000002685547,2|0,0:2|1:2,0:2:0:0:
428,323,258729,5,0,0:2:0:0:
347,128,258894,1,10,0:2:0:0:
485,185,259059,1,2,0:2:0:0:
290,266,259224,1,0,1:2:0:0:
231,101,259389,1,10,0:2:0:0:
231,81,259471,1,8,0:2:0:0:
231,61,259553,1,8,0:2:0:0:
55,59,259718,1,8,0:2:0:0:
55,79,259801,1,8,0:2:0:0:
55,99,259883,5,8,0:2:0:0:
87,338,260048,1,8,0:2:0:0:
278,191,260213,1,8,0:2:0:0:
56,220,260378,1,8,0:2:0:0:
309,309,260542,1,8,0:2:0:0:
277,70,260707,1,8,0:2:0:0:
183,270,260872,1,8,0:2:0:0:
403,109,261037,1,0,1:2:0:0:
403,109,261119,1,0,1:2:0:0:
403,109,261202,6,0,L|401:214,1,95.9999970703126,6|2,1:2|0:2,0:2:0:0:
483,299,261531,1,8,0:2:0:0:
466,50,261696,2,0,P|424:25|317:98,1,176.000005371094,2|0,0:2|0:2,0:2:0:0:
265,304,262191,1,10,0:2:0:0:
97,142,262356,1,2,0:2:0:0:
204,159,262520,5,0,1:2:0:0:
204,159,262685,2,0,L|191:258,1,88.000002685547,2|8,0:2|0:2,0:2:0:0:
292,212,263015,1,0,0:2:0:0:
151,334,263180,1,2,1:2:0:0:
378,322,263345,1,2,0:2:0:0:
366,95,263509,1,8,0:2:0:0:
366,95,263674,2,0,L|362:5,1,88.000002685547,2|0,0:2|1:2,0:2:0:0:
250,47,264004,5,0,0:2:0:0:
482,143,264169,1,10,0:2:0:0:
254,178,264334,1,2,0:2:0:0:
486,274,264499,1,0,1:2:0:0:
486,274,264663,2,0,L|381:303,1,88.000002685547,2|8,0:2|0:2,0:2:0:0:
145,181,264993,2,0,L|159:226,1,44.0000013427735,0|0,1:2|1:2,0:2:0:0:
268,366,265158,5,8,0:2:0:0:
137,53,265323,1,8,0:2:0:0:
38,252,265488,1,8,0:2:0:0:
367,167,265653,1,8,0:2:0:0:
30,124,265817,1,8,0:2:0:0:
260,238,265982,1,8,0:2:0:0:
252,110,266147,1,8,0:2:0:0:
145,181,266312,1,0,1:2:0:0:
145,181,266394,1,0,1:2:0:0:
145,181,266477,6,0,L|145:279,1,88.000002685547,8|0,0:2|1:2,0:2:0:0:
367,167,266806,2,0,L|367:69,1,88.000002685547,8|0,0:2|1:2,0:2:0:0:
260,238,267136,5,8,0:2:0:0:
474,96,267301,1,0,1:2:0:0:
224,106,267466,1,8,0:2:0:0:
438,248,267631,1,0,1:2:0:0:
125,325,267795,5,8,0:2:0:0:
381,154,267960,1,0,1:2:0:0:
81,166,268125,1,8,0:2:0:0:
338,337,268290,1,0,1:2:0:0:
205,48,268455,5,8,0:2:0:0:
223,272,268619,1,0,1:2:0:0:
447,253,268784,1,8,0:2:0:0:
429,29,268949,1,0,1:2:0:0:
108,113,269114,6,0,P|60:110|12:86,1,88.000002685547,8|0,0:2|1:2,0:2:0:0:
404,113,269444,2,0,P|452:110|500:86,1,88.000002685547,8|0,0:2|1:2,0:2:0:0:
167,266,269691,1,8,0:2:0:0:
167,266,269773,2,0,P|119:269|71:293,1,88.000002685547,8|0,0:2|1:2,0:2:0:0:
345,266,270021,1,8,0:2:0:0:
345,266,270103,2,0,P|393:269|441:293,1,88.000002685547,8|0,0:2|1:2,0:2:0:0:
256,160,270350,1,8,0:2:0:0:
256,160,270433,5,6,1:2:0:0:
256,352,270597,1,2,0:2:0:0:
149,64,270762,1,2,0:2:0:0:
363,64,270927,5,6,1:2:0:0:
96,256,271092,1,2,0:2:0:0:
416,256,271257,1,2,0:2:0:0:
60,147,271422,5,6,1:2:0:0:
252,31,271586,1,2,0:2:0:0:
59,350,271751,1,10,0:2:0:0:
59,350,271834,1,10,0:2:0:0:
59,350,271916,1,14,1:2:0:0:
444,147,272081,5,2,1:2:0:0:
445,350,272246,1,2,0:2:0:0:
252,31,272411,1,6,1:2:0:0:
256,288,272575,5,2,0:2:0:0:
479,36,272740,1,2,0:2:0:0:
43,226,272905,1,14,1:2:0:0:
