osu file format v14

[General]
AudioFilename: kuusen madoushi kouhosei no kyoukan op - opening - dob.mp3
AudioLeadIn: 0
PreviewTime: 50001
Countdown: 0
SampleSet: Normal
StackLeniency: 0.7
Mode: 0
LetterboxInBreaks: 0
WidescreenStoryboard: 1

[Editor]
Bookmarks: 56950
DistanceSpacing: 1.5
BeatDivisor: 4
GridSize: 16
TimelineZoom: 1

[Metadata]
Title:D.O.B.
TitleUnicode:D.O.B.
Artist:Nomizu Iori
ArtistUnicode:野水いおり
Creator:Padge14
Version:Hard
Source:Kuusen Madoushi Kouhosei no Kyoukan
Tags:空戦魔導士候補生の教官 TVアニメ Sky Wizards Academy The Instructor of Aerial Combat Candidates xSiRix
BeatmapID:766501
BeatmapSetID:336573

[Difficulty]
HPDrainRate:6
CircleSize:3.5
OverallDifficulty:7
ApproachRate:8
SliderMultiplier:1.4
SliderTickRate:1

[Events]
//Background and Video events
0,0,"BACKGROUND.jpg",0,0
//Break Periods
2,3354,4811
2,6316,7774
//Storyboard Layer 0 (Background)
//Storyboard Layer 1 (Fail)
//Storyboard Layer 2 (Pass)
//Storyboard Layer 3 (Foreground)
//Storyboard Sound Samples

[TimingPoints]
2599,370.37037037037,4,1,1,50,1,0
2599,-100,4,1,1,50,0,0
38154,-117.647058823529,4,2,1,50,0,0
50006,-200,4,2,1,50,0,0
55191,-100,4,1,1,40,0,0
55932,-100,4,1,1,50,0,0
63339,-100,4,1,1,60,0,1
75191,-100,4,1,1,50,0,0
87043,-100,4,1,1,30,0,0
87228,-100,4,1,1,5,0,0

[Colours]
Combo1 : 255,81,81
Combo2 : 255,255,128
Combo3 : 128,0,255
Combo4 : 128,255,255

[HitObjects]
139,178,2599,6,0,P|121:127|118:56,2,105,2|2|10,0:0|0:0|0:2,0:0:0:0:
275,76,5561,6,0,P|326:58|397:55,2,105,2|2|10,0:0|0:0|0:2,0:0:0:0:
377,212,8524,6,0,P|395:263|398:334,2,105,10|2|2,0:2|0:0|0:0,0:0:0:0:
313,155,9265,1,8,0:2:0:0:
212,290,9636,6,0,P|161:308|90:311,2,105,10|2|2,0:2|0:0|0:0,0:0:0:0:
269,226,10376,2,0,P|223:178|249:105,2,140,8|8|8,0:2|0:2|0:2,0:0:0:0:
156,100,11487,6,0,P|103:104|54:122,2,105,10|2|2,0:2|0:0|0:0,0:0:0:0:
240,112,12228,2,0,P|276:121|318:116,2,70,8|8|8,0:2|0:2|0:0,0:0:0:0:
183,270,12969,6,0,P|132:284|60:208,1,140,10|8,0:0|0:2,0:0:0:0:
140,199,13524,1,2,0:0:0:0:
419,81,14450,6,0,L|409:155,1,70,8|0,0:2|0:0,0:0:0:0:
350,216,14821,2,0,P|331:187|324:152,1,70,8|0,0:0|0:0,0:0:0:0:
298,282,15191,2,0,P|221:303|146:283,1,140,8|8,0:2|0:0,0:0:0:0:
91,245,15747,1,0,0:0:0:0:
127,169,15932,6,0,L|133:89,1,70,8|0,0:2|0:0,0:0:0:0:
214,81,16302,2,0,L|208:150,1,70,8|0,0:0|0:0,0:0:0:0:
269,209,16673,2,0,P|305:219|355:214,1,70,8|0,0:2|0:0,0:0:0:0:
374,120,17043,2,0,P|337:109|288:115,1,70,8|0,0:0|0:0,0:0:0:0:
208,150,17413,6,0,L|56:149,1,140,8|8,0:2|0:0,0:0:0:0:
15,308,18154,2,0,L|154:308,1,140,8|8,0:2|0:0,0:0:0:0:
311,246,18895,6,0,L|210:246,1,70,8|0,0:2|0:0,0:0:0:0:
153,176,19265,2,0,L|246:165,1,70,8|0,0:0|0:0,0:0:0:0:
283,109,19636,1,8,0:2:0:0:
227,45,19821,1,0,0:0:0:0:
159,94,20006,1,8,0:0:0:0:
363,199,20376,6,0,P|398:175|412:143,1,70,8|0,0:2|0:0,0:0:0:0:
373,76,20747,2,0,P|337:99|324:132,1,70,8|0,0:0|0:0,0:0:0:0:
279,225,21117,2,0,P|208:241|135:224,1,140,8|8,0:2|0:0,0:0:0:0:
73,139,21673,1,0,0:0:0:0:
143,227,21858,6,0,B|166:259|153:320,1,70,8|0,0:2|0:0,0:0:0:0:
43,312,22228,2,0,B|20:280|33:219,1,70,8|0,0:0|0:0,0:0:0:0:
73,139,22598,2,0,B|107:160|146:144,2,70,8|0|8,0:2|0:0|0:0,0:0:0:0:
18,74,23154,1,0,0:0:0:0:
18,74,23339,6,0,L|24:228,1,140,8|8,0:2|0:0,0:0:0:0:
80,275,23895,1,0,0:0:0:0:
80,275,24080,2,0,P|148:298|227:277,1,140,8|8,0:2|0:0,0:0:0:0:
262,216,24636,2,0,L|256:76,1,140
337,130,25191,6,0,P|372:136|409:129,2,70,8|0|8,0:0|0:0|0:2,0:0:0:0:
256,76,25747,1,8,0:0:0:0:
165,259,26302,6,0,B|143:185|179:183|159:119,1,140,2|0,0:0|0:0,0:0:0:0:
210,53,26858,2,0,P|299:77|351:47,1,140,2|0,0:0|0:0,0:0:0:0:
416,80,27413,2,0,P|398:166|361:229,1,140,2|0,0:0|0:0,0:0:0:0:
257,291,28154,2,0,B|294:286|294:286|364:293|364:293|396:290,2,140,2|0|0,0:0|0:0|0:0,0:0:0:0:
145,141,29265,6,0,B|216:167|216:120|304:142,1,140,2|0,0:0|0:0,0:0:0:0:
253,216,29821,2,0,P|239:269|278:349,1,140,2|0,0:0|0:0,0:0:0:0:
327,273,30376,1,2,0:0:0:0:
497,156,30747,6,0,P|504:194|498:233,1,70,8|0,0:2|0:2,0:2:0:0:
393,197,31117,2,0,P|385:158|392:120,1,70,8|0,0:0|0:0,0:0:0:0:
359,28,31487,2,0,L|282:29,1,70,8|0,0:2|0:0,0:0:0:0:
195,78,31858,2,0,L|118:79,1,70,8|0,0:2|0:0,0:0:0:0:
51,163,32228,6,0,B|64:232|64:232|47:329,1,140,2|0,0:0|0:0,0:0:0:0:
137,346,32784,2,0,P|214:343|257:272,1,140,2|0,0:0|0:0,0:0:0:0:
172,270,33339,2,0,L|140:131,1,140,2|0,0:0|0:0,0:0:0:0:
318,79,34080,2,0,L|287:216,2,140,2|0|0,0:0|0:0|0:0,0:0:0:0:
140,133,35191,6,0,B|144:187|144:187|134:220|134:220|138:271,1,140,2|0,0:0|0:0,0:0:0:0:
215,236,35747,2,0,P|281:215|366:229,1,140,2|0,0:0|0:0,0:0:0:0:
408,162,36302,2,0,P|338:135|338:136,1,140
256,130,36858,1,0,0:0:0:0:
256,130,37043,2,0,P|218:124|178:103,1,70,0|0,0:0|0:2,0:0:0:0:
189,110,38154,6,0,L|197:182,1,59.5000011348725,8|0,0:0|3:0,0:0:0:0:
275,190,38524,2,0,P|289:225|283:262,1,59.5000011348725,8|0,0:0|3:0,0:0:0:0:
230,307,38895,2,0,L|172:317,1,59.5000011348725,8|0,0:0|3:0,0:0:0:0:
100,272,39265,2,0,L|79:207,1,59.5000011348725,8|0,0:0|3:0,0:0:0:0:
73,132,39636,6,0,P|109:136|151:127,1,59.5000011348725,8|0,0:0|3:0,0:0:0:0:
204,54,40006,2,0,P|168:50|126:59,1,59.5000011348725,8|0,0:0|3:0,0:0:0:0:
198,182,40376,2,0,P|256:193|325:176,2,119.000002269745,8|8|8,0:0|0:1|0:0,0:0:0:0:
130,231,41302,5,0,3:0:0:0:
158,309,41487,1,8,0:0:0:0:
239,289,41673,1,0,3:0:0:0:
293,352,41858,1,8,0:0:0:0:
293,352,42043,2,0,L|368:353,1,59.5000011348725,0|8,3:0|0:0,0:0:0:0:
444,270,42413,6,0,L|326:271,1,119.000002269745,0|0,3:0|3:0,0:0:0:0:
288,195,42969,2,0,P|276:160|273:116,1,59.5000011348725,8|0,0:0|3:0,0:0:0:0:
362,106,43339,2,0,P|371:134|377:164,1,59.5000011348725,8|0,0:0|3:0,0:0:0:0:
304,37,43710,2,0,P|331:27|361:23,1,59.5000011348725,8|0,0:1|3:0,0:0:0:0:
263,110,44080,6,0,P|231:117|188:111,1,59.5000011348725,8|0,0:0|3:0,0:0:0:0:
131,77,44450,2,0,P|101:75|72:82,1,59.5000011348725,8|0,0:0|3:0,0:0:0:0:
21,148,44821,2,0,L|20:224,1,59.5000011348725,8|0,0:0|3:0,0:0:0:0:
36,287,45191,2,0,P|70:294|112:288,1,59.5000011348725,8|0,0:0|3:0,0:0:0:0:
168,253,45561,5,8,0:0:0:0:
98,209,45747,1,0,3:0:0:0:
133,133,45932,1,8,0:0:0:0:
133,133,46117,2,0,B|252:132,1,119.000002269745,2|2,3:2|3:2,0:0:0:0:
325,171,46673,2,0,L|326:244,1,59.5000011348725,8|0,0:1|3:0,0:0:0:0:
406,251,47043,6,0,L|396:309,1,59.5000011348725,8|8,0:0|0:1,0:0:0:0:
322,348,47413,1,8,0:1:0:0:
155,335,47784,2,0,L|45:340,2,89.2500017023087,8|0|8,0:0|3:0|0:0,0:0:0:0:
166,179,48710,5,8,0:0:0:0:
209,258,48895,2,0,P|244:260|292:257,1,59.5000011348725,8|0,0:0|3:0,0:0:0:0:
307,132,49265,2,0,P|272:130|224:133,1,59.5000011348725,8|0,0:0|3:0,0:0:0:0:
343,216,49636,2,0,P|409:224|476:213,1,119.000002269745,8|8,0:1|0:0,0:0:0:0:
166,179,50561,5,8,0:0:0:0:
166,179,50747,2,0,L|161:103,1,70,8|0,0:1|0:0,0:0:0:0:
284,72,51487,2,0,L|336:73,2,52.5,8|8|8,0:0|0:0|0:0,0:0:0:0:
230,105,52228,2,0,P|196:111|146:105,1,70,8|0,0:1|0:0,0:0:0:0:
108,73,52784,1,8,0:0:0:0:
108,73,52969,6,0,L|107:192,1,105,8|8,0:0|0:0,0:0:0:0:
157,217,53710,2,0,P|209:229|267:210,1,105,8|8,0:1|0:0,0:0:0:0:
312,183,54450,2,0,L|311:136,2,35,8|8|8,0:0|0:0|0:0,0:0:0:0:
357,226,55006,1,0,3:0:0:0:
396,271,55191,6,0,L|397:329,4,35
462,189,55747,1,8,0:2:0:0:
462,189,55932,2,0,L|455:69,2,105,8|8|0,0:2|0:0|0:0,0:0:0:0:
375,127,56673,2,0,P|337:135|290:127,1,70,8|0,0:2|0:0,0:0:0:0:
232,14,57043,2,0,L|232:103,1,70,8|0,0:0|0:0,0:0:0:0:
139,208,57413,6,0,B|148:155|138:96|138:96|153:116|155:117,1,140,8|8,0:2|0:0,0:0:0:0:
232,212,57969,1,0,0:0:0:0:
232,212,58154,2,0,P|270:217|321:209,1,70,8|0,0:2|0:0,0:0:0:0:
308,62,58524,2,0,P|302:100|311:151,1,70,8|0,0:0|0:0,0:0:0:0:
411,172,58895,6,0,P|429:108|416:35,1,140,8|8,0:2|0:0,0:0:0:0:
308,62,59450,2,0,P|273:64|238:59,2,70,0|8|0,0:0|0:2|0:0,0:0:0:0:
158,32,60006,2,0,P|123:26|88:29,1,70,8|0,0:0|0:0,0:0:0:0:
36,111,60376,6,0,L|50:184,1,70,8|0,0:2|0:0,0:0:0:0:
137,223,60747,2,0,L|151:296,1,70,8|0,0:0|0:0,0:0:0:0:
244,352,61117,2,0,P|279:347|317:338,1,70,8|0,0:2|0:0,0:0:0:0:
329,214,61487,2,0,P|293:218|256:228,1,70,8|0,0:0|0:0,0:0:0:0:
150,291,61858,1,12,0:2:0:0:
101,181,62598,6,0,L|154:154,3,35
146,117,62969,2,0,L|199:90,3,35
218,73,63339,6,0,L|309:72,1,70,8|0,0:2|0:0,0:0:0:0:
364,134,63710,2,0,P|401:139|449:135,1,70,8|0,0:0|0:0,0:0:0:0:
292,181,64080,2,0,P|253:197|211:206,1,70,8|0,0:2|0:0,0:0:0:0:
205,297,64450,2,0,L|138:276,1,70,8|0,0:0|0:0,0:0:0:0:
119,179,64821,6,0,P|85:175|52:158,1,70,8|0,0:2|0:0,0:0:0:0:
68,34,65191,2,0,P|147:44|199:84,1,140,8|8,0:0|0:2,0:0:0:0:
214,175,65747,1,0,0:0:0:0:
214,175,65932,2,0,P|207:212|209:258,1,70,8|0,0:0|0:0,0:0:0:0:
301,217,66302,6,0,L|398:225,1,70,8|0,0:2|0:0,0:0:0:0:
318,139,66673,2,0,L|415:147,1,70,8|0,0:0|0:0,0:0:0:0:
339,59,67043,2,0,L|436:67,1,70,8|0,0:2|0:0,0:0:0:0:
472,139,67413,2,0,L|483:235,1,70,8|0,0:0|0:0,0:0:0:0:
439,298,67784,6,0,P|403:296|348:315,1,70,8|0,0:2|0:0,0:0:0:0:
288,358,68154,2,0,P|253:365|219:363,1,70,8|0,0:0|0:0,0:0:0:0:
155,272,68524,2,0,P|189:264|223:266,1,70,8|0,0:2|0:0,0:0:0:0:
303,187,68895,2,0,L|295:114,1,70,8|0,0:0|0:0,0:0:0:0:
216,59,69265,6,0,P|180:57|146:64,1,70,8|0,0:2|0:0,0:0:0:0:
122,155,69636,2,0,P|157:157|192:151,1,70,8|0,0:0|0:0,0:0:0:0:
30,125,70006,2,0,P|27:159|35:193,1,70,8|0,0:2|0:0,0:0:0:0:
101,266,70376,6,0,P|108:300|106:334,2,70,8|0|8,0:0|0:0|0:2,0:0:0:0:
35,193,70932,1,0,0:0:0:0:
105,124,71117,1,8,0:0:0:0:
105,124,71302,1,0,0:0:0:0:
175,191,71487,2,0,L|253:191,1,70,8|0,0:2|0:0,0:0:0:0:
283,100,71858,2,0,L|372:100,1,70,8|0,0:0|0:0,0:0:0:0:
439,146,72228,5,8,0:2:0:0:
352,190,72413,1,0,0:0:0:0:
286,262,72598,1,8,0:0:0:0:
373,308,72784,1,0,0:0:0:0:
373,308,72969,2,0,L|470:314,2,70,8|0|8,0:2|0:0|0:0,0:0:0:0:
281,341,73524,6,0,L|132:349,1,140,8|8,0:0|0:0,0:0:0:0:
67,283,74080,1,0,0:0:0:0:
140,198,74265,1,0,0:0:0:0:
68,113,74450,1,0,0:2:0:0:
163,51,74636,1,0,0:0:0:0:
163,51,75191,6,0,P|218:94|305:74,1,140,2|0,0:0|0:0,0:0:0:0:
372,60,75747,2,0,L|343:219,1,140,2|0,0:0|0:0,0:0:0:0:
298,268,76302,2,0,L|272:130,1,140,2|0,0:0|0:0,0:0:0:0:
251,334,77043,2,0,B|287:351|287:351|353:338|353:338|385:344,2,140,2|0|0,0:0|0:0|0:0,0:0:0:0:
89,165,78154,6,0,B|162:132|244:171,1,140,2|0,0:0|0:0,0:0:0:0:
291,215,78710,2,0,P|371:244|428:207,1,140,2|0,0:0|0:0,0:0:0:0:
357,154,79265,1,2,0:0:0:0:
493,69,79636,6,0,L|494:146,1,70,8|0,0:2|0:0,0:0:0:0:
415,221,80006,2,0,P|420:256|416:294,1,70,8|0,0:0|0:0,0:0:0:0:
357,154,80376,2,0,P|351:118|356:81,1,70,8|0,0:2|0:2,0:2:0:0:
242,84,80747,2,0,L|165:85,1,70,8|0,0:2|0:0,0:0:0:0:
60,169,81117,6,0,L|204:168,1,140,2|0,0:0|0:0,0:0:0:0:
267,219,81673,2,0,P|337:205|387:145,1,140,2|0,0:0|0:0,0:0:0:0:
333,79,82228,2,0,P|263:93|213:153,1,140,2|0,0:0|0:0,0:0:0:0:
388,242,82969,2,0,P|430:196|382:156,2,140,2|0|0,0:0|0:0|0:0,0:0:0:0:
221,237,84080,6,0,B|167:241|167:241|134:231|134:231|83:235,1,140,2|0,0:0|0:0,0:0:0:0:
79,143,84636,2,0,B|133:147|133:147|166:137|166:137|217:141,1,140,2|0,0:0|0:0,0:0:0:0:
299,122,85191,2,0,P|325:192|290:263,1,140,2|0,0:0|0:0,0:0:0:0:
261,324,85747,1,0,0:0:0:0:
180,349,85932,2,0,L|99:343,1,70,0|0,0:0|0:2,0:0:0:0:
256,192,86673,5,2,0:3:0:0:
256,192,87043,1,4,0:0:0:0:
256,192,87228,12,0,90006,2:0:0:0:
