osu file format v14

[General]
AudioFilename: audio.mp3
AudioLeadIn: 0
PreviewTime: 62703
Countdown: 0
SampleSet: Soft
StackLeniency: 0.7
Mode: 3
LetterboxInBreaks: 0
SpecialStyle: 0
WidescreenStoryboard: 1

[Editor]
Bookmarks: 11459,16459,22709,32709,42709,52709,57709,63959,68959,73959,78959,83959
DistanceSpacing: 1.1
BeatDivisor: 4
GridSize: 4
TimelineZoom: 1.100006

[Metadata]
Title:Black + White (TV Size)
TitleUnicode:Black † White (TV Size)
Artist:Nomizu Iori
ArtistUnicode:野水いおり
Creator:YuEast 2018
Version:Normal
Source:問題児たちが異世界から来るそうですよ?
Tags:japanese anime opening op mondaiji tachi ga isekai kara kuru soudesuyo? Problem Children Are Coming from Another World, Aren't They? manzo CHOKKAKU flying DOG jpop j-pop j pop short VTCL-35142
BeatmapID:2365144
BeatmapSetID:1130937

[Difficulty]
HPDrainRate:7
CircleSize:4
OverallDifficulty:7
ApproachRate:5
SliderMultiplier:1.4
SliderTickRate:1

[Events]
//Background and Video events
0,0,"usagi.jpg",0,0
//Break Periods
//Storyboard Layer 0 (Background)
//Storyboard Layer 1 (Fail)
//Storyboard Layer 2 (Pass)
//Storyboard Layer 3 (Foreground)
//Storyboard Layer 4 (Overlay)
//Storyboard Sound Samples

[TimingPoints]
203,312.5,4,2,1,80,1,0
63953,-100,4,2,1,80,0,1
83953,-100,4,2,1,80,0,0

[HitObjects]
192,192,203,5,0,0:0:0:0:
320,192,203,128,0,1453:0:0:0:80:key f#.wav
64,192,1453,128,0,2390:0:0:0:80:Key e.wav
448,192,2390,128,0,2703:0:0:0:80:key a7.wav
320,192,2703,128,0,3015:0:0:0:80:key g#.wav
64,192,3015,128,0,3328:0:0:0:80:Key e.wav
192,192,3328,128,0,4421:0:0:0:80:key f#.wav
192,192,5203,128,0,6453:0:0:0:80:Key d.wav
448,192,6453,128,0,7703:0:0:0:80:Key e.wav
64,192,7703,128,0,8328:0:0:0:80:Key c#.wav
320,192,8328,128,0,10828:0:0:0:80:Key d.wav
192,192,9578,128,0,10828:0:0:0:0:
320,192,11140,1,0,0:0:0:0:
192,192,11140,1,8,0:0:0:0:
64,192,11453,1,2,0:0:0:0:
448,192,11453,1,4,0:0:0:0:
192,192,11609,1,0,0:0:0:0:
320,192,11765,1,8,0:0:0:0:
64,192,11921,1,2,0:0:0:0:
192,192,12078,1,0,0:0:0:0:
448,192,12234,1,2,0:0:0:0:
64,192,12390,1,8,0:0:0:0:
192,192,12546,1,2,0:0:0:0:
448,192,12703,1,0,0:0:0:0:
64,192,12859,1,2,0:0:0:0:
320,192,13015,1,8,0:0:0:0:
448,192,13171,1,0,0:0:0:0:
192,192,13328,1,2,0:0:0:0:
320,192,13484,1,2,0:0:0:0:
448,192,13640,1,8,0:0:0:0:
64,192,13796,1,0,0:0:0:0:
320,192,13953,128,2,14265:0:0:0:0:
448,192,14265,1,8,0:0:0:0:
192,192,14421,128,2,14734:0:0:0:0:
320,192,14734,1,2,0:0:0:0:
64,192,14890,128,8,16453:0:0:0:0:
192,192,15359,1,2,0:0:0:0:
320,192,15515,1,8,0:0:0:0:
448,192,15828,1,2,0:0:0:0:
192,192,15984,1,2,0:0:0:0:
320,192,16140,1,8,0:0:0:0:
320,192,16453,1,2,0:0:0:0:
448,192,16453,1,4,0:0:0:0:
192,192,16609,1,0,0:0:0:0:
64,192,16765,1,8,0:0:0:0:
448,192,16921,1,2,0:0:0:0:
320,192,17078,1,0,0:0:0:0:
64,192,17234,1,2,0:0:0:0:
448,192,17390,1,8,0:0:0:0:
320,192,17546,1,2,0:0:0:0:
64,192,17703,1,0,0:0:0:0:
448,192,17859,1,2,0:0:0:0:
192,192,18015,1,8,0:0:0:0:
64,192,18171,1,0,0:0:0:0:
320,192,18328,1,2,0:0:0:0:
192,192,18484,1,2,0:0:0:0:
64,192,18640,1,8,0:0:0:0:
448,192,18796,1,0,0:0:0:0:
192,192,18953,128,4,19265:0:0:0:0:
320,192,18953,1,2,0:0:0:0:
64,192,19265,1,8,0:0:0:0:
320,192,19421,128,2,19734:0:0:0:0:
448,192,19421,1,4,0:0:0:0:
192,192,19734,1,8,0:0:0:0:
448,192,19890,1,4,0:0:0:0:
64,192,19890,128,2,20828:0:0:0:0:
448,192,20828,128,8,20984:0:0:0:0:
320,192,20984,128,8,21140:0:0:0:0:
192,192,21140,128,8,21296:0:0:0:0:
64,192,21296,128,8,21453:0:0:0:0:
448,192,21453,128,8,21609:0:0:0:0:
320,192,21609,128,8,21765:0:0:0:0:
192,192,21765,128,8,21921:0:0:0:0:
64,192,21921,128,8,22078:0:0:0:0:
320,192,22078,1,4,0:0:0:0:
448,192,22078,1,2,0:0:0:0:
320,192,22390,1,4,0:0:0:0:
64,192,22390,1,2,0:0:0:0:
64,192,22703,1,8,0:0:0:0:
192,192,22703,1,0,0:0:0:70:tom4.wav
320,192,22859,1,0,0:0:0:70:tom4.wav
448,192,22859,1,8,0:0:0:0:
192,192,23015,1,2,0:0:0:0:
320,192,23171,1,0,0:0:0:70:tom4.wav
448,192,23171,1,8,0:0:0:0:
64,192,23328,1,2,0:0:0:0:
64,192,23640,1,2,0:0:0:0:
320,192,23953,1,2,0:0:0:0:
320,192,24265,1,2,0:0:0:0:
320,192,24578,1,2,0:0:0:0:
320,192,24890,1,2,0:0:0:0:
448,192,25203,1,2,0:0:0:0:
64,192,25203,1,8,0:0:0:0:
192,192,25359,1,0,0:0:0:70:tom4.wav
320,192,25359,1,8,0:0:0:0:
64,192,25515,1,2,0:0:0:0:
448,192,25671,1,0,0:0:0:70:tom4.wav
320,192,25671,1,8,0:0:0:0:
192,192,25828,1,2,0:0:0:0:
192,192,26140,1,2,0:0:0:0:
448,192,26453,1,2,0:0:0:0:
448,192,26765,1,2,0:0:0:0:
448,192,27078,1,2,0:0:0:0:
448,192,27390,1,2,0:0:0:0:
320,192,27703,1,2,0:0:0:0:
192,192,27703,1,8,0:0:0:0:
64,192,27859,1,0,0:0:0:70:tom4.wav
448,192,27859,1,8,0:0:0:0:
192,192,28015,1,2,0:0:0:0:
320,192,28171,1,0,0:0:0:70:tom4.wav
448,192,28171,1,8,0:0:0:0:
64,192,28328,1,2,0:0:0:0:
64,192,28640,1,2,0:0:0:0:
320,192,28953,1,2,0:0:0:0:
320,192,29265,1,2,0:0:0:0:
320,192,29578,1,2,0:0:0:0:
320,192,29890,1,2,0:0:0:0:
192,192,29890,1,8,0:0:0:0:
64,192,30203,1,4,0:0:0:0:
448,192,30203,1,2,0:0:0:0:
64,192,30515,1,0,0:0:0:0:
192,192,30515,1,8,0:0:0:0:
320,192,30671,1,4,0:0:0:0:
448,192,30671,1,2,0:0:0:0:
192,192,30984,1,0,0:0:0:0:
320,192,30984,1,8,0:0:0:0:
64,192,31140,1,4,0:0:0:0:
448,192,31140,1,2,0:0:0:0:
320,192,31609,1,8,0:0:0:0:
448,192,31687,1,8,0:0:0:0:
192,192,31765,1,0,0:0:0:70:tom1.wav
64,192,31921,1,8,0:0:0:0:
448,192,32078,1,0,0:0:0:0:
320,192,32078,1,8,0:0:0:0:
192,192,32234,1,0,0:0:0:70:tom1.wav
448,192,32390,1,0,0:0:0:70:tom2.wav
320,192,32546,1,0,0:0:0:70:tom3.wav
64,192,32703,1,2,0:0:0:0:
192,192,32703,1,8,0:0:0:0:
320,192,32859,1,0,0:0:0:70:tom4.wav
448,192,32859,1,8,0:0:0:0:
64,192,33015,1,2,0:0:0:0:
192,192,33171,1,0,0:0:0:70:tom4.wav
448,192,33171,1,8,0:0:0:0:
320,192,33328,1,2,0:0:0:0:
320,192,33640,1,2,0:0:0:0:
64,192,33953,1,2,0:0:0:0:
64,192,34265,1,2,0:0:0:0:
64,192,34578,1,2,0:0:0:0:
64,192,34890,1,2,0:0:0:0:
320,192,35203,1,8,0:0:0:0:
448,192,35203,1,2,0:0:0:0:
64,192,35359,1,0,0:0:0:70:tom4.wav
192,192,35359,1,8,0:0:0:0:
448,192,35515,1,2,0:0:0:0:
64,192,35671,1,0,0:0:0:70:tom4.wav
320,192,35671,1,8,0:0:0:0:
192,192,35828,1,2,0:0:0:0:
192,192,36140,1,2,0:0:0:0:
320,192,36453,1,2,0:0:0:0:
320,192,36765,1,2,0:0:0:0:
320,192,37078,1,2,0:0:0:0:
320,192,37390,1,2,0:0:0:0:
192,192,37703,1,8,0:0:0:0:
64,192,37703,1,2,0:0:0:0:
448,192,37859,1,8,0:0:0:0:
320,192,37859,1,0,0:0:0:70:tom4.wav
64,192,38015,1,2,0:0:0:0:
320,192,38171,1,0,0:0:0:70:tom4.wav
192,192,38171,1,8,0:0:0:0:
448,192,38328,1,2,0:0:0:0:
448,192,38640,1,2,0:0:0:0:
192,192,38953,1,2,0:0:0:0:
192,192,39265,1,2,0:0:0:0:
192,192,39578,1,2,0:0:0:0:
320,192,39890,1,2,0:0:0:0:
192,192,39890,1,8,0:0:0:0:
64,192,40203,1,4,0:0:0:0:
448,192,40203,1,2,0:0:0:0:
64,192,40515,1,0,0:0:0:0:
320,192,40515,1,8,0:0:0:0:
192,192,40671,1,4,0:0:0:0:
448,192,40671,1,2,0:0:0:0:
192,192,40984,1,0,0:0:0:0:
320,192,40984,1,8,0:0:0:0:
64,192,41140,1,4,0:0:0:0:
448,192,41140,1,2,0:0:0:0:
192,192,41609,1,8,0:0:0:0:
64,192,41687,1,8,0:0:0:0:
320,192,41765,1,8,0:0:0:0:
192,192,41921,1,0,0:0:0:0:
64,192,41921,1,8,0:0:0:0:
448,192,42078,1,2,0:0:0:0:
320,192,42234,1,0,0:0:0:70:tom2.wav
64,192,42390,1,2,0:0:0:0:
192,192,42546,1,0,0:0:0:70:tom4.wav
320,192,42703,1,4,0:0:0:0:
448,192,42703,1,2,0:0:0:0:
64,192,43015,1,0,0:0:0:0:
448,192,43015,1,8,0:0:0:0:
320,192,43171,1,2,0:0:0:0:
64,192,43484,1,2,0:0:0:0:
192,192,43640,1,0,0:0:0:0:
448,192,43640,128,8,44265:0:0:0:0:
320,192,43953,1,2,0:0:0:0:
192,192,44265,1,0,0:0:0:0:
64,192,44265,1,8,0:0:0:0:
320,192,44421,1,2,0:0:0:0:
64,192,44734,1,2,0:0:0:0:
192,192,44890,1,0,0:0:0:0:
448,192,44890,1,8,0:0:0:0:
192,192,45203,128,2,45515:0:0:0:0:
448,192,45515,1,0,0:0:0:0:
64,192,45515,1,8,0:0:0:0:
320,192,45671,128,2,45984:0:0:0:0:
192,192,45984,1,2,0:0:0:0:
64,192,46140,128,0,46765:0:0:0:0:
448,192,46140,1,8,0:0:0:0:
320,192,46453,1,2,0:0:0:0:
448,192,46765,1,0,0:0:0:0:
192,192,46765,1,8,0:0:0:0:
320,192,46921,1,2,0:0:0:0:
64,192,47234,1,2,0:0:0:0:
192,192,47390,1,0,0:0:0:0:
320,192,47390,1,8,0:0:0:0:
320,192,47703,128,2,48015:0:0:0:0:
64,192,47703,1,4,0:0:0:0:
448,192,48015,1,0,0:0:0:0:
192,192,48015,1,8,0:0:0:0:
64,192,48171,128,2,48484:0:0:0:0:
192,192,48484,1,2,0:0:0:0:
320,192,48640,1,0,0:0:0:0:
448,192,48640,128,8,49265:0:0:0:0:
64,192,48953,1,2,0:0:0:0:
64,192,49265,1,0,0:0:0:0:
192,192,49265,1,8,0:0:0:0:
320,192,49421,1,2,0:0:0:0:
192,192,49734,1,2,0:0:0:0:
320,192,49890,1,0,0:0:0:0:
448,192,49890,1,8,0:0:0:0:
192,192,50203,128,2,50515:0:0:0:0:
64,192,50515,1,0,0:0:0:0:
448,192,50515,1,8,0:0:0:0:
320,192,50671,128,2,50984:0:0:0:0:
192,192,50984,1,2,0:0:0:0:
64,192,51140,128,0,51765:0:0:0:0:
448,192,51140,1,8,0:0:0:0:
320,192,51453,1,2,0:0:0:0:
448,192,51765,1,0,0:0:0:0:
192,192,51765,1,8,0:0:0:0:
320,192,51921,1,2,0:0:0:0:
64,192,52234,1,2,0:0:0:0:
320,192,52390,1,0,0:0:0:0:
192,192,52390,1,8,0:0:0:0:
64,192,52703,1,2,0:0:0:0:
448,192,52703,1,4,0:0:0:0:
192,192,53015,1,0,0:0:0:0:
64,192,53015,1,8,0:0:0:0:
448,192,53171,1,2,0:0:0:0:
320,192,53484,1,2,0:0:0:0:
64,192,53640,128,0,54265:0:0:0:0:
192,192,53640,1,8,0:0:0:0:
448,192,53953,1,2,0:0:0:0:
320,192,54265,1,0,0:0:0:0:
192,192,54265,1,8,0:0:0:0:
448,192,54421,1,2,0:0:0:0:
192,192,54734,1,2,0:0:0:0:
64,192,54890,1,0,0:0:0:0:
320,192,54890,1,8,0:0:0:0:
320,192,55203,128,2,55515:0:0:0:0:
64,192,55515,1,0,0:0:0:0:
448,192,55515,1,8,0:0:0:0:
192,192,55671,128,2,55984:0:0:0:0:
320,192,55984,1,2,0:0:0:0:
448,192,56140,128,0,56765:0:0:0:0:
64,192,56140,1,8,0:0:0:0:
320,192,56453,1,2,0:0:0:0:
64,192,56765,1,0,0:0:0:0:
192,192,56765,1,8,0:0:0:0:
320,192,56921,1,2,0:0:0:0:
448,192,57078,1,0,0:0:0:0:
64,192,57078,1,8,0:0:0:0:
192,192,57234,1,2,0:0:0:0:
320,192,57390,1,0,0:0:0:70:tom2.wav
448,192,57546,1,0,0:0:0:70:tom3.wav
192,192,57703,1,4,0:0:0:0:
64,192,57703,1,2,0:0:0:0:
320,192,58171,1,2,0:0:0:0:
64,192,58328,1,0,0:0:0:0:
192,192,58328,1,8,0:0:0:0:
448,192,58640,1,4,0:0:0:0:
320,192,58640,1,2,0:0:0:0:
64,192,59109,1,0,0:0:0:0:
192,192,59109,1,8,0:0:0:0:
320,192,59265,1,2,0:0:0:0:
320,192,59578,1,0,0:0:0:0:
448,192,59578,1,8,0:0:0:0:
64,192,59890,1,0,0:0:0:0:
192,192,59890,1,8,0:0:0:0:
320,192,60046,1,0,0:0:0:0:
448,192,60046,1,8,0:0:0:0:
64,192,60203,1,4,0:0:0:0:
192,192,60203,1,2,0:0:0:0:
192,192,60515,1,8,0:0:0:0:
320,192,60671,1,4,0:0:0:0:
448,192,60671,1,2,0:0:0:0:
320,192,60984,1,8,0:0:0:0:
192,192,61140,1,4,0:0:0:0:
64,192,61140,1,2,0:0:0:0:
320,192,61453,1,2,0:0:0:0:
448,192,61609,1,0,0:0:0:70:tom4.wav
192,192,61609,1,8,0:0:0:0:
64,192,61765,1,2,0:0:0:0:
320,192,61921,1,0,0:0:0:70:tom4.wav
448,192,61921,1,8,0:0:0:0:
192,192,62078,1,2,0:0:0:0:
320,192,62234,1,0,0:0:0:70:tom4.wav
64,192,62234,1,8,0:0:0:0:
192,192,62390,1,8,0:0:0:0:
448,192,62546,1,0,0:0:0:70:tom4.wav
320,192,62546,1,8,0:0:0:0:
64,192,63953,1,4,0:0:0:0:
448,192,63953,1,2,0:0:0:0:
320,192,64265,1,0,0:0:0:0:
448,192,64265,1,8,0:0:0:0:
192,192,64421,1,2,0:0:0:0:
64,192,64734,1,2,0:0:0:0:
448,192,64890,1,0,0:0:0:0:
192,192,64890,1,8,0:0:0:0:
64,192,65203,1,2,0:0:0:0:
320,192,65515,1,0,0:0:0:0:
64,192,65515,1,8,0:0:0:0:
448,192,65671,1,2,0:0:0:0:
64,192,65828,1,0,0:0:0:0:
320,192,65984,1,2,0:0:0:0:
192,192,66140,1,0,0:0:0:0:
448,192,66140,1,8,0:0:0:0:
64,192,66453,1,2,0:0:0:0:
192,192,66765,1,0,0:0:0:0:
64,192,66765,1,8,0:0:0:0:
448,192,66921,1,2,0:0:0:0:
192,192,67234,1,2,0:0:0:0:
64,192,67390,1,0,0:0:0:0:
320,192,67390,1,8,0:0:0:0:
448,192,67703,1,2,0:0:0:0:
320,192,68015,1,0,0:0:0:0:
448,192,68015,1,8,0:0:0:0:
64,192,68171,1,2,0:0:0:0:
448,192,68328,1,0,0:0:0:0:
192,192,68484,1,2,0:0:0:0:
320,192,68640,1,0,0:0:0:0:
64,192,68640,1,8,0:0:0:0:
64,192,68953,1,2,0:0:0:0:
448,192,68953,1,4,0:0:0:0:
192,192,69109,1,8,0:0:0:0:
320,192,69187,1,8,0:0:0:0:
448,192,69265,1,8,0:0:0:0:
64,192,69421,1,4,0:0:0:0:
192,192,69421,1,2,0:0:0:0:
64,192,69890,1,0,0:0:0:70:tom4.wav
192,192,69890,1,8,0:0:0:0:
64,192,70203,1,2,0:0:0:0:
448,192,70203,1,4,0:0:0:0:
320,192,70359,1,8,0:0:0:0:
192,192,70437,1,8,0:0:0:0:
64,192,70515,1,8,0:0:0:0:
320,192,70671,1,4,0:0:0:0:
448,192,70671,1,2,0:0:0:0:
320,192,71140,1,0,0:0:0:70:tom4.wav
448,192,71140,1,8,0:0:0:0:
64,192,71453,1,4,0:0:0:0:
448,192,71453,1,2,0:0:0:0:
192,192,71609,1,8,0:0:0:0:
320,192,71687,1,8,0:0:0:0:
448,192,71765,1,8,0:0:0:0:
64,192,71921,1,2,0:0:0:0:
192,192,71921,1,4,0:0:0:0:
320,192,72234,1,0,0:0:0:70:tom2.wav
192,192,72390,1,0,0:0:0:70:tom2.wav
448,192,72546,1,2,0:0:0:0:
64,192,72546,1,4,0:0:0:0:
64,192,72859,1,4,0:0:0:0:
448,192,72859,1,2,0:0:0:0:
64,192,73171,1,4,0:0:0:0:
448,192,73171,1,2,0:0:0:0:
320,192,73484,1,0,0:0:0:0:
448,192,73484,1,8,0:0:0:0:
64,192,73640,1,8,0:0:0:0:
192,192,73718,1,8,0:0:0:0:
320,192,73796,1,8,0:0:0:0:
64,192,73953,1,2,0:0:0:0:
448,192,73953,1,4,0:0:0:0:
192,192,74265,1,0,0:0:0:0:
64,192,74265,1,8,0:0:0:0:
320,192,74421,1,2,0:0:0:0:
192,192,74734,1,2,0:0:0:0:
64,192,74890,1,0,0:0:0:0:
448,192,74890,1,8,0:0:0:0:
192,192,75203,1,2,0:0:0:0:
448,192,75515,1,0,0:0:0:0:
192,192,75515,1,8,0:0:0:0:
320,192,75671,1,2,0:0:0:0:
192,192,75828,1,0,0:0:0:0:
448,192,75984,1,2,0:0:0:0:
64,192,76140,1,0,0:0:0:0:
320,192,76140,1,8,0:0:0:0:
192,192,76453,1,2,0:0:0:0:
192,192,76765,1,0,0:0:0:0:
448,192,76765,1,8,0:0:0:0:
320,192,76921,1,2,0:0:0:0:
64,192,77234,1,2,0:0:0:0:
192,192,77390,1,0,0:0:0:0:
448,192,77390,1,8,0:0:0:0:
320,192,77703,128,2,78015:0:0:0:0:
64,192,78015,1,0,0:0:0:0:
192,192,78015,1,8,0:0:0:0:
192,192,78328,1,2,0:0:0:0:
320,192,78484,1,2,0:0:0:0:
64,192,78640,1,0,0:0:0:0:
448,192,78640,1,8,0:0:0:0:
192,192,78953,1,2,0:0:0:0:
448,192,78953,128,4,79265:0:0:0:0:
64,192,79265,1,0,0:0:0:0:
320,192,79265,128,8,79578:0:0:0:0:
192,192,79578,128,0,79890:0:0:0:0:
64,192,79890,128,0,80203:0:0:0:0:
448,192,79890,1,8,0:0:0:0:
320,192,80203,1,2,0:0:0:0:
448,192,80203,1,4,0:0:0:0:
192,192,80515,1,0,0:0:0:0:
64,192,80515,1,8,0:0:0:0:
448,192,80828,1,2,0:0:0:0:
320,192,80984,1,0,0:0:0:0:
64,192,80984,1,8,0:0:0:0:
192,192,81140,1,2,0:0:0:0:
320,192,81296,1,0,0:0:0:70:tom3.wav
448,192,81453,1,4,0:0:0:0:
64,192,81453,1,2,0:0:0:0:
320,192,81765,1,0,0:0:0:0:
192,192,81765,1,8,0:0:0:0:
64,192,81921,1,2,0:0:0:0:
448,192,81921,1,4,0:0:0:0:
64,192,82234,1,0,0:0:0:0:
192,192,82234,1,8,0:0:0:0:
320,192,82390,1,4,0:0:0:0:
448,192,82390,1,2,0:0:0:0:
64,192,82703,1,2,0:0:0:0:
448,192,82703,1,8,0:0:0:0:
320,192,83015,1,0,0:0:0:0:
320,192,83328,1,0,0:0:0:0:
64,192,83484,1,2,0:0:0:0:
192,192,83640,128,0,83953:0:0:0:0:
320,192,83640,1,8,0:0:0:0:
64,192,83953,1,4,0:0:0:0:
448,192,83953,1,2,0:0:0:0:
320,192,84109,1,8,0:0:0:0:
192,192,84265,1,8,0:0:0:0:
448,192,84421,1,2,0:0:0:0:
64,192,84421,1,4,0:0:0:0:
320,192,84578,1,0,0:0:0:70:tom1.wav
192,192,84734,1,0,0:0:0:70:tom2.wav
64,192,84890,1,2,0:0:0:0:
448,192,84890,1,4,0:0:0:0:
320,192,85046,1,0,0:0:0:70:tom3.wav
192,192,85203,1,0,0:0:0:70:tom4.wav
64,192,85359,1,4,0:0:0:0:
448,192,85359,1,8,0:0:0:0:
192,192,85671,128,4,86140:0:0:0:0:
320,192,85671,128,2,86140:0:0:0:0:
