osu file format v14

[General]
AudioFilename: audio.mp3
AudioLeadIn: 0
PreviewTime: 62703
Countdown: 0
SampleSet: Soft
StackLeniency: 0.7
Mode: 3
LetterboxInBreaks: 0
SpecialStyle: 0
WidescreenStoryboard: 1

[Editor]
Bookmarks: 11459,16459,22709,32709,42709,52709,57709,63959,68959,73959,78959,83959
DistanceSpacing: 1.1
BeatDivisor: 4
GridSize: 4
TimelineZoom: 2.200006

[Metadata]
Title:Black + White (TV Size)
TitleUnicode:Black † White (TV Size)
Artist:Nomizu Iori
ArtistUnicode:野水いおり
Creator:YuEast 2018
Version:Insane
Source:問題児たちが異世界から来るそうですよ?
Tags:japanese anime opening op mondaiji tachi ga isekai kara kuru soudesuyo? Problem Children Are Coming from Another World, Aren't They? manzo CHOKKAKU flying DOG jpop j-pop j pop short VTCL-35142
BeatmapID:2369029
BeatmapSetID:1130937

[Difficulty]
HPDrainRate:8
CircleSize:4
OverallDifficulty:8
ApproachRate:5
SliderMultiplier:1.4
SliderTickRate:1

[Events]
//Background and Video events
0,0,"usagi.jpg",0,0
//Break Periods
//Storyboard Layer 0 (Background)
//Storyboard Layer 1 (Fail)
//Storyboard Layer 2 (Pass)
//Storyboard Layer 3 (Foreground)
//Storyboard Layer 4 (Overlay)
//Storyboard Sound Samples

[TimingPoints]
203,312.5,4,2,1,80,1,0
63953,-100,4,2,1,80,0,1
83953,-100,4,2,1,80,0,0

[HitObjects]
320,192,203,128,0,1453:0:0:0:0:
448,192,203,128,0,2390:0:0:0:0:
64,192,203,1,0,0:0:0:80:key f#.wav
192,192,1453,128,0,2234:0:0:0:0:
64,192,1453,1,0,0:0:0:80:Key e.wav
64,192,2390,128,0,3015:0:0:0:0:
320,192,2390,1,0,0:0:0:80:key a7.wav
320,192,2703,128,0,3328:0:0:0:0:
192,192,2703,1,0,0:0:0:80:key g#.wav
192,192,3015,128,0,4421:0:0:0:0:
448,192,3015,1,0,0:0:0:80:Key e.wav
64,192,3328,1,0,0:0:0:0:
448,192,3328,128,0,4421:0:0:0:80:key f#.wav
64,192,5203,128,0,7703:0:0:0:0:
320,192,5203,1,0,0:0:0:80:Key d.wav
448,192,6453,128,0,8328:0:0:0:0:
320,192,6453,1,0,0:0:0:80:Key e.wav
192,192,7703,128,0,10828:0:0:0:0:
320,192,7703,1,0,0:0:0:80:Key c#.wav
320,192,8328,128,0,10828:0:0:0:0:
64,192,8328,1,0,0:0:0:80:Key d.wav
64,192,9578,128,0,10828:0:0:0:0:
448,192,10203,128,0,10828:0:0:0:0:
64,192,11140,1,0,0:0:0:0:
192,192,11140,1,0,0:0:0:0:
320,192,11140,1,0,0:0:0:0:
448,192,11140,1,8,0:0:0:0:
448,192,11453,128,0,11765:0:0:0:0:
64,192,11453,1,2,0:0:0:0:
192,192,11453,1,4,0:0:0:0:
320,192,11609,128,0,11765:0:0:0:0:
64,192,11765,1,0,0:0:0:0:
192,192,11765,128,8,11921:0:0:0:0:
320,192,11921,1,0,0:0:0:0:
448,192,11921,128,2,12078:0:0:0:0:
192,192,12078,128,0,12234:0:0:0:0:
64,192,12234,128,0,12390:0:0:0:0:
320,192,12234,1,2,0:0:0:0:
448,192,12390,128,0,12703:0:0:0:0:
192,192,12390,1,8,0:0:0:0:
64,192,12546,1,0,0:0:0:0:
320,192,12546,128,2,12703:0:0:0:0:
192,192,12703,128,0,12859:0:0:0:0:
64,192,12859,1,0,0:0:0:0:
448,192,12859,128,2,13015:0:0:0:0:
192,192,13015,128,0,13171:0:0:0:0:
320,192,13015,1,8,0:0:0:0:
64,192,13171,128,0,13328:0:0:0:0:
320,192,13328,1,0,0:0:0:0:
448,192,13328,128,2,13640:0:0:0:0:
192,192,13484,1,0,0:0:0:0:
320,192,13484,128,2,13640:0:0:0:0:
64,192,13640,128,0,13953:0:0:0:0:
192,192,13640,1,8,0:0:0:0:
320,192,13796,128,0,13953:0:0:0:0:
448,192,13953,128,0,14265:0:0:0:0:
192,192,13953,1,2,0:0:0:0:
64,192,14265,128,0,14421:0:0:0:0:
192,192,14265,128,8,14421:0:0:0:0:
320,192,14421,128,0,14734:0:0:0:0:
448,192,14421,1,2,0:0:0:0:
192,192,14734,128,0,14890:0:0:0:0:
64,192,14734,128,2,14890:0:0:0:0:
448,192,14890,128,0,15828:0:0:0:0:
320,192,14890,1,8,0:0:0:0:
320,192,15046,1,2,0:0:0:0:
192,192,15046,1,0,0:0:0:0:
192,192,15359,1,2,0:0:0:0:
320,192,15359,1,0,0:0:0:0:
64,192,15515,1,0,0:0:0:0:
192,192,15515,1,8,0:0:0:0:
64,192,15828,128,0,16140:0:0:0:0:
192,192,15828,1,2,0:0:0:0:
192,192,15984,1,0,0:0:0:0:
320,192,15984,1,2,0:0:0:0:
448,192,16140,1,0,0:0:0:0:
320,192,16140,128,8,16453:0:0:0:0:
64,192,16453,128,2,16765:0:0:0:0:
448,192,16453,1,4,0:0:0:0:
192,192,16609,128,0,16765:0:0:0:0:
320,192,16765,128,0,16921:0:0:0:0:
448,192,16765,1,8,0:0:0:0:
64,192,16921,128,0,17078:0:0:0:0:
192,192,16921,1,2,0:0:0:0:
320,192,17078,128,0,17234:0:0:0:0:
192,192,17234,1,0,0:0:0:0:
448,192,17234,128,2,17390:0:0:0:0:
64,192,17390,128,0,17703:0:0:0:0:
320,192,17390,1,8,0:0:0:0:
192,192,17546,128,0,17703:0:0:0:0:
448,192,17546,1,2,0:0:0:0:
320,192,17703,128,0,17859:0:0:0:0:
64,192,17859,128,0,18015:0:0:0:0:
448,192,17859,1,2,0:0:0:0:
192,192,18015,1,0,0:0:0:0:
320,192,18015,128,8,18171:0:0:0:0:
448,192,18171,128,0,18328:0:0:0:0:
64,192,18328,128,0,18640:0:0:0:0:
192,192,18328,1,2,0:0:0:0:
192,192,18484,128,0,18640:0:0:0:0:
320,192,18484,1,2,0:0:0:0:
320,192,18640,1,0,0:0:0:0:
448,192,18640,128,8,18953:0:0:0:0:
192,192,18796,128,0,18953:0:0:0:0:
64,192,18953,1,4,0:0:0:0:
320,192,18953,1,2,0:0:0:0:
64,192,19109,1,0,0:0:0:0:
192,192,19109,1,8,0:0:0:0:
448,192,19187,1,0,0:0:0:0:
320,192,19187,1,8,0:0:0:0:
64,192,19265,128,0,19421:0:0:0:0:
192,192,19265,128,8,19421:0:0:0:0:
448,192,19421,1,2,0:0:0:0:
320,192,19421,1,4,0:0:0:0:
320,192,19578,1,0,0:0:0:0:
448,192,19578,1,8,0:0:0:0:
64,192,19656,1,0,0:0:0:0:
192,192,19656,1,8,0:0:0:0:
320,192,19734,128,0,19890:0:0:0:0:
448,192,19734,128,8,19890:0:0:0:0:
64,192,19890,128,4,20828:0:0:0:0:
192,192,19890,128,2,20828:0:0:0:0:
448,192,20828,1,0,0:0:0:0:
320,192,20828,1,8,0:0:0:0:
192,192,20906,1,8,0:0:0:0:
448,192,20984,1,0,0:0:0:0:
64,192,20984,1,8,0:0:0:0:
320,192,21062,1,8,0:0:0:0:
64,192,21140,1,0,0:0:0:0:
192,192,21140,1,8,0:0:0:0:
320,192,21218,1,8,0:0:0:0:
448,192,21296,1,0,0:0:0:0:
192,192,21296,1,8,0:0:0:0:
64,192,21374,1,8,0:0:0:0:
448,192,21453,1,0,0:0:0:0:
320,192,21453,1,8,0:0:0:0:
64,192,21531,1,0,0:0:0:0:
192,192,21531,1,8,0:0:0:0:
320,192,21609,1,0,0:0:0:0:
448,192,21609,1,8,0:0:0:0:
64,192,21687,1,0,0:0:0:0:
192,192,21687,1,8,0:0:0:0:
320,192,21765,1,0,0:0:0:0:
448,192,21765,1,8,0:0:0:0:
64,192,21843,1,0,0:0:0:0:
192,192,21843,1,8,0:0:0:0:
320,192,21921,1,0,0:0:0:0:
448,192,21921,1,8,0:0:0:0:
192,192,21999,1,8,0:0:0:0:
448,192,22078,1,0,0:0:0:0:
64,192,22078,128,4,22312:0:0:0:0:
320,192,22078,128,2,22312:0:0:0:0:
448,192,22390,128,0,22624:0:0:0:0:
320,192,22390,1,4,0:0:0:0:
192,192,22390,128,2,22624:0:0:0:0:
448,192,22703,1,2,0:0:0:0:
64,192,22703,1,8,0:0:0:0:
192,192,22703,1,0,0:0:0:70:tom4.wav
64,192,22859,1,0,0:0:0:0:
192,192,22859,1,0,0:0:0:70:tom4.wav
448,192,22859,1,8,0:0:0:0:
64,192,23015,1,0,0:0:0:0:
320,192,23015,1,2,0:0:0:0:
192,192,23171,1,0,0:0:0:0:
448,192,23171,1,0,0:0:0:70:tom4.wav
320,192,23171,1,8,0:0:0:0:
448,192,23328,1,0,0:0:0:0:
64,192,23328,1,2,0:0:0:0:
64,192,23484,1,0,0:0:0:0:
64,192,23640,1,0,0:0:0:0:
448,192,23640,1,2,0:0:0:0:
64,192,23796,1,0,0:0:0:0:
192,192,23953,1,0,0:0:0:0:
320,192,23953,1,2,0:0:0:0:
320,192,24109,1,0,0:0:0:0:
192,192,24265,1,0,0:0:0:0:
320,192,24265,1,2,0:0:0:0:
320,192,24421,1,0,0:0:0:0:
192,192,24578,1,0,0:0:0:0:
448,192,24578,1,2,0:0:0:0:
192,192,24734,1,0,0:0:0:0:
192,192,24890,1,0,0:0:0:0:
448,192,24890,1,2,0:0:0:0:
192,192,25046,1,0,0:0:0:0:
448,192,25203,1,0,0:0:0:70:tom4.wav
64,192,25203,1,2,0:0:0:0:
320,192,25203,1,8,0:0:0:0:
64,192,25359,1,0,0:0:0:0:
320,192,25359,1,0,0:0:0:70:tom4.wav
448,192,25359,1,8,0:0:0:0:
192,192,25515,1,0,0:0:0:0:
320,192,25515,1,2,0:0:0:0:
192,192,25671,1,0,0:0:0:0:
64,192,25671,1,0,0:0:0:70:tom4.wav
448,192,25671,1,8,0:0:0:0:
64,192,25828,1,0,0:0:0:0:
320,192,25828,1,2,0:0:0:0:
320,192,25984,1,0,0:0:0:0:
64,192,26140,1,0,0:0:0:0:
320,192,26140,1,2,0:0:0:0:
320,192,26296,1,0,0:0:0:0:
192,192,26453,1,0,0:0:0:0:
448,192,26453,1,2,0:0:0:0:
192,192,26609,1,0,0:0:0:0:
448,192,26765,1,0,0:0:0:0:
192,192,26765,1,2,0:0:0:0:
192,192,26921,1,0,0:0:0:0:
64,192,27078,1,0,0:0:0:0:
448,192,27078,1,2,0:0:0:0:
448,192,27234,1,0,0:0:0:0:
64,192,27390,1,0,0:0:0:0:
448,192,27390,1,2,0:0:0:0:
448,192,27546,1,0,0:0:0:0:
64,192,27703,1,0,0:0:0:70:tom4.wav
192,192,27703,1,2,0:0:0:0:
320,192,27703,1,8,0:0:0:0:
64,192,27859,1,0,0:0:0:0:
192,192,27859,1,0,0:0:0:70:tom4.wav
320,192,27859,1,8,0:0:0:0:
64,192,28015,1,0,0:0:0:0:
448,192,28015,1,2,0:0:0:0:
320,192,28171,1,0,0:0:0:0:
192,192,28171,1,0,0:0:0:70:tom4.wav
448,192,28171,1,8,0:0:0:0:
320,192,28328,1,0,0:0:0:0:
64,192,28328,1,2,0:0:0:0:
64,192,28484,1,0,0:0:0:0:
64,192,28640,1,0,0:0:0:0:
320,192,28640,1,2,0:0:0:0:
64,192,28796,1,0,0:0:0:0:
192,192,28953,1,0,0:0:0:0:
448,192,28953,1,2,0:0:0:0:
448,192,29109,1,0,0:0:0:0:
192,192,29265,1,0,0:0:0:0:
448,192,29265,1,2,0:0:0:0:
448,192,29421,1,0,0:0:0:0:
320,192,29578,1,0,0:0:0:0:
192,192,29578,1,2,0:0:0:0:
192,192,29734,1,0,0:0:0:0:
320,192,29890,1,0,0:0:0:0:
448,192,29890,1,2,0:0:0:0:
64,192,29890,1,8,0:0:0:0:
448,192,30203,128,0,30515:0:0:0:0:
64,192,30203,1,4,0:0:0:0:
320,192,30203,128,2,30515:0:0:0:0:
192,192,30515,1,0,0:0:0:0:
64,192,30515,1,8,0:0:0:0:
64,192,30671,128,0,30984:0:0:0:0:
448,192,30671,1,4,0:0:0:0:
192,192,30671,128,2,30984:0:0:0:0:
320,192,30984,1,0,0:0:0:0:
448,192,30984,1,8,0:0:0:0:
64,192,31140,1,0,0:0:0:0:
448,192,31140,128,4,31609:0:0:0:0:
320,192,31140,128,2,31609:0:0:0:0:
64,192,31609,1,0,0:0:0:0:
192,192,31609,1,8,0:0:0:0:
320,192,31687,1,0,0:0:0:0:
448,192,31687,1,8,0:0:0:0:
64,192,31765,1,0,0:0:0:70:tom1.wav
192,192,31843,1,0,0:0:0:70:tom1.wav
320,192,31921,1,0,0:0:0:70:tom3.wav
448,192,31921,1,8,0:0:0:0:
192,192,32078,128,0,32156:0:0:0:0:
448,192,32078,1,0,0:0:0:0:
64,192,32078,128,8,32156:0:0:0:0:
448,192,32234,128,0,32312:0:0:0:0:
192,192,32234,128,0,32312:0:0:0:70:tom1.wav
64,192,32390,128,0,32468:0:0:0:0:
320,192,32390,128,0,32468:0:0:0:70:tom2.wav
448,192,32546,128,0,32624:0:0:0:0:
320,192,32546,128,0,32624:0:0:0:70:tom3.wav
64,192,32703,1,0,0:0:0:70:tom4.wav
192,192,32703,1,2,0:0:0:0:
448,192,32703,1,8,0:0:0:0:
64,192,32859,1,0,0:0:0:0:
192,192,32859,1,0,0:0:0:70:tom4.wav
448,192,32859,1,8,0:0:0:0:
320,192,33015,1,0,0:0:0:0:
192,192,33015,1,2,0:0:0:0:
320,192,33171,1,0,0:0:0:0:
64,192,33171,1,0,0:0:0:70:tom4.wav
448,192,33171,1,8,0:0:0:0:
64,192,33328,1,0,0:0:0:0:
192,192,33328,1,2,0:0:0:0:
320,192,33484,128,0,33640:0:0:0:0:
448,192,33640,1,0,0:0:0:0:
192,192,33640,1,2,0:0:0:0:
192,192,33796,1,0,0:0:0:0:
64,192,33953,1,0,0:0:0:0:
448,192,33953,128,2,34031:0:0:0:0:
448,192,34109,128,0,34187:0:0:0:0:
320,192,34265,1,0,0:0:0:0:
192,192,34265,128,2,34421:0:0:0:0:
64,192,34421,1,0,0:0:0:0:
320,192,34578,128,0,34734:0:0:0:0:
448,192,34578,1,2,0:0:0:0:
192,192,34734,1,0,0:0:0:0:
448,192,34890,128,0,35046:0:0:0:0:
64,192,34890,1,2,0:0:0:0:
192,192,35046,128,0,35203:0:0:0:0:
320,192,35203,1,0,0:0:0:70:tom4.wav
448,192,35203,1,8,0:0:0:0:
64,192,35203,1,2,0:0:0:0:
448,192,35359,1,0,0:0:0:0:
64,192,35359,1,0,0:0:0:70:tom4.wav
320,192,35359,1,8,0:0:0:0:
192,192,35515,1,0,0:0:0:0:
448,192,35515,1,2,0:0:0:0:
64,192,35671,1,0,0:0:0:0:
320,192,35671,1,0,0:0:0:70:tom4.wav
192,192,35671,1,8,0:0:0:0:
320,192,35828,1,0,0:0:0:0:
448,192,35828,1,2,0:0:0:0:
192,192,35984,128,0,36140:0:0:0:0:
320,192,36140,1,0,0:0:0:0:
64,192,36140,1,2,0:0:0:0:
320,192,36296,1,0,0:0:0:0:
64,192,36453,128,0,36531:0:0:0:0:
448,192,36453,1,2,0:0:0:0:
64,192,36609,128,0,36687:0:0:0:0:
320,192,36765,128,0,36921:0:0:0:0:
192,192,36765,1,2,0:0:0:0:
448,192,36921,1,0,0:0:0:0:
192,192,37078,128,0,37234:0:0:0:0:
64,192,37078,1,2,0:0:0:0:
320,192,37234,1,0,0:0:0:0:
64,192,37390,128,0,37546:0:0:0:0:
448,192,37390,1,2,0:0:0:0:
320,192,37546,128,0,37703:0:0:0:0:
64,192,37703,1,0,0:0:0:70:tom4.wav
192,192,37703,1,8,0:0:0:0:
448,192,37703,1,2,0:0:0:0:
192,192,37859,1,0,0:0:0:0:
448,192,37859,1,8,0:0:0:0:
64,192,37859,1,0,0:0:0:70:tom4.wav
64,192,38015,1,0,0:0:0:0:
320,192,38015,1,2,0:0:0:0:
192,192,38171,1,0,0:0:0:0:
448,192,38171,1,0,0:0:0:70:tom4.wav
320,192,38171,1,8,0:0:0:0:
64,192,38328,1,0,0:0:0:0:
192,192,38328,1,2,0:0:0:0:
320,192,38484,128,0,38640:0:0:0:0:
192,192,38640,1,0,0:0:0:0:
448,192,38640,1,2,0:0:0:0:
192,192,38796,1,0,0:0:0:0:
448,192,38953,128,0,39031:0:0:0:0:
64,192,38953,1,2,0:0:0:0:
448,192,39109,128,0,39187:0:0:0:0:
320,192,39265,1,0,0:0:0:0:
192,192,39265,128,2,39421:0:0:0:0:
64,192,39421,1,0,0:0:0:0:
320,192,39578,128,0,39734:0:0:0:0:
448,192,39578,1,2,0:0:0:0:
64,192,39734,1,0,0:0:0:0:
64,192,39890,1,0,0:0:0:0:
192,192,39890,128,2,40046:0:0:0:0:
320,192,39890,1,8,0:0:0:0:
448,192,40046,128,0,40203:0:0:0:0:
64,192,40203,128,0,40515:0:0:0:0:
192,192,40203,128,4,40515:0:0:0:0:
320,192,40203,1,2,0:0:0:0:
448,192,40515,1,0,0:0:0:0:
320,192,40515,1,8,0:0:0:0:
448,192,40671,128,0,40984:0:0:0:0:
320,192,40671,128,4,40984:0:0:0:0:
64,192,40671,1,2,0:0:0:0:
64,192,40984,1,0,0:0:0:0:
192,192,40984,1,8,0:0:0:0:
448,192,41140,1,0,0:0:0:0:
192,192,41140,128,4,41609:0:0:0:0:
64,192,41140,128,2,41609:0:0:0:0:
320,192,41609,1,0,0:0:0:0:
448,192,41609,1,8,0:0:0:0:
64,192,41687,1,0,0:0:0:0:
192,192,41687,1,8,0:0:0:0:
320,192,41765,1,0,0:0:0:0:
448,192,41765,1,8,0:0:0:0:
192,192,41921,1,0,0:0:0:0:
448,192,41921,1,0,0:0:0:0:
64,192,41921,1,8,0:0:0:0:
320,192,42078,128,0,42156:0:0:0:0:
64,192,42078,128,2,42156:0:0:0:0:
448,192,42234,128,0,42312:0:0:0:0:
320,192,42234,128,0,42312:0:0:0:70:tom2.wav
192,192,42390,128,0,42468:0:0:0:70:tom3.wav
64,192,42390,128,2,42468:0:0:0:0:
192,192,42546,128,0,42624:0:0:0:0:
448,192,42546,128,0,42624:0:0:0:70:tom4.wav
320,192,42703,128,0,42859:0:0:0:0:
64,192,42703,1,4,0:0:0:0:
448,192,42703,1,2,0:0:0:0:
192,192,42859,128,0,43015:0:0:0:0:
64,192,43015,1,0,0:0:0:0:
448,192,43015,128,0,43171:0:0:0:0:
320,192,43015,1,8,0:0:0:0:
64,192,43171,1,0,0:0:0:0:
320,192,43171,128,2,43328:0:0:0:0:
192,192,43328,128,0,43484:0:0:0:0:
320,192,43484,1,0,0:0:0:0:
448,192,43484,1,2,0:0:0:0:
192,192,43640,1,0,0:0:0:0:
448,192,43640,128,0,44265:0:0:0:0:
64,192,43640,1,8,0:0:0:0:
320,192,43796,1,0,0:0:0:0:
64,192,43953,1,0,0:0:0:0:
192,192,43953,1,2,0:0:0:0:
320,192,44109,1,0,0:0:0:0:
64,192,44265,1,0,0:0:0:0:
192,192,44265,1,0,0:0:0:0:
320,192,44265,1,8,0:0:0:0:
64,192,44421,1,0,0:0:0:0:
448,192,44421,1,2,0:0:0:0:
192,192,44578,1,0,0:0:0:0:
192,192,44734,1,0,0:0:0:0:
448,192,44734,1,2,0:0:0:0:
64,192,44890,1,0,0:0:0:0:
320,192,44890,1,0,0:0:0:0:
448,192,44890,1,8,0:0:0:0:
320,192,45046,1,0,0:0:0:0:
192,192,45203,1,0,0:0:0:0:
448,192,45203,128,2,45515:0:0:0:0:
64,192,45359,1,0,0:0:0:0:
192,192,45515,1,0,0:0:0:0:
320,192,45515,1,0,0:0:0:0:
64,192,45515,1,8,0:0:0:0:
192,192,45671,1,0,0:0:0:0:
320,192,45671,128,2,45984:0:0:0:0:
448,192,45828,1,0,0:0:0:0:
64,192,45984,1,0,0:0:0:0:
192,192,45984,1,2,0:0:0:0:
192,192,46140,128,0,46609:0:0:0:0:
64,192,46140,1,0,0:0:0:0:
448,192,46140,1,8,0:0:0:0:
320,192,46296,1,0,0:0:0:0:
64,192,46453,1,0,0:0:0:0:
448,192,46453,1,2,0:0:0:0:
320,192,46609,1,0,0:0:0:0:
64,192,46765,1,0,0:0:0:0:
320,192,46765,1,0,0:0:0:0:
448,192,46765,1,8,0:0:0:0:
192,192,46921,1,0,0:0:0:0:
64,192,46921,1,2,0:0:0:0:
320,192,47078,1,0,0:0:0:0:
192,192,47234,1,0,0:0:0:0:
448,192,47234,1,2,0:0:0:0:
64,192,47390,1,0,0:0:0:0:
448,192,47390,1,0,0:0:0:0:
320,192,47390,1,8,0:0:0:0:
192,192,47546,1,0,0:0:0:0:
192,192,47703,1,0,0:0:0:0:
448,192,47703,1,2,0:0:0:0:
64,192,47703,128,4,48015:0:0:0:0:
320,192,47859,1,0,0:0:0:0:
192,192,48015,1,0,0:0:0:0:
320,192,48015,1,0,0:0:0:0:
448,192,48015,1,8,0:0:0:0:
192,192,48171,128,0,48484:0:0:0:0:
448,192,48171,1,2,0:0:0:0:
64,192,48328,1,0,0:0:0:0:
320,192,48484,1,0,0:0:0:0:
448,192,48484,1,2,0:0:0:0:
448,192,48640,1,0,0:0:0:0:
64,192,48640,1,0,0:0:0:0:
320,192,48640,128,8,49109:0:0:0:0:
192,192,48796,1,0,0:0:0:0:
448,192,48953,1,0,0:0:0:0:
64,192,48953,1,2,0:0:0:0:
192,192,49109,1,0,0:0:0:0:
64,192,49265,1,0,0:0:0:0:
192,192,49265,1,0,0:0:0:0:
448,192,49265,1,8,0:0:0:0:
448,192,49421,1,0,0:0:0:0:
320,192,49421,1,2,0:0:0:0:
64,192,49578,1,0,0:0:0:0:
192,192,49734,1,0,0:0:0:0:
320,192,49734,1,2,0:0:0:0:
448,192,49890,1,0,0:0:0:0:
64,192,49890,1,0,0:0:0:0:
320,192,49890,1,8,0:0:0:0:
64,192,50046,1,0,0:0:0:0:
448,192,50203,128,0,50515:0:0:0:0:
320,192,50203,1,2,0:0:0:0:
192,192,50359,1,0,0:0:0:0:
64,192,50515,1,0,0:0:0:0:
192,192,50515,1,0,0:0:0:0:
320,192,50515,1,8,0:0:0:0:
64,192,50671,1,0,0:0:0:0:
320,192,50671,128,2,50984:0:0:0:0:
448,192,50828,1,0,0:0:0:0:
192,192,50984,1,0,0:0:0:0:
64,192,50984,1,2,0:0:0:0:
448,192,51140,1,0,0:0:0:0:
192,192,51140,128,0,51765:0:0:0:0:
64,192,51140,1,8,0:0:0:0:
320,192,51296,1,0,0:0:0:0:
64,192,51453,1,0,0:0:0:0:
448,192,51453,1,2,0:0:0:0:
320,192,51609,1,0,0:0:0:0:
64,192,51765,1,0,0:0:0:0:
320,192,51765,1,0,0:0:0:0:
448,192,51765,1,8,0:0:0:0:
64,192,51921,1,0,0:0:0:0:
192,192,51921,1,2,0:0:0:0:
320,192,52078,1,0,0:0:0:0:
192,192,52234,1,0,0:0:0:0:
448,192,52234,1,2,0:0:0:0:
192,192,52390,1,0,0:0:0:0:
320,192,52390,1,0,0:0:0:0:
64,192,52390,1,8,0:0:0:0:
448,192,52546,1,0,0:0:0:0:
192,192,52703,128,0,52859:0:0:0:0:
64,192,52703,1,2,0:0:0:0:
448,192,52703,1,4,0:0:0:0:
320,192,52859,128,0,53015:0:0:0:0:
448,192,53015,1,0,0:0:0:0:
64,192,53015,128,0,53171:0:0:0:0:
192,192,53015,1,8,0:0:0:0:
192,192,53171,128,0,53328:0:0:0:0:
448,192,53171,1,2,0:0:0:0:
320,192,53328,128,0,53484:0:0:0:0:
64,192,53484,1,0,0:0:0:0:
192,192,53484,1,2,0:0:0:0:
448,192,53640,1,0,0:0:0:0:
320,192,53640,1,0,0:0:0:0:
64,192,53640,128,8,54265:0:0:0:0:
192,192,53796,1,0,0:0:0:0:
448,192,53953,1,0,0:0:0:0:
320,192,53953,1,2,0:0:0:0:
192,192,54109,1,0,0:0:0:0:
192,192,54265,1,0,0:0:0:0:
320,192,54265,1,0,0:0:0:0:
448,192,54265,1,8,0:0:0:0:
448,192,54421,1,0,0:0:0:0:
64,192,54421,1,2,0:0:0:0:
320,192,54578,1,0,0:0:0:0:
64,192,54734,1,0,0:0:0:0:
320,192,54734,1,2,0:0:0:0:
448,192,54890,1,0,0:0:0:0:
64,192,54890,1,0,0:0:0:0:
192,192,54890,1,8,0:0:0:0:
192,192,55046,1,0,0:0:0:0:
448,192,55203,128,0,55515:0:0:0:0:
320,192,55203,1,2,0:0:0:0:
64,192,55359,1,0,0:0:0:0:
64,192,55515,1,0,0:0:0:0:
192,192,55515,1,0,0:0:0:0:
320,192,55515,1,8,0:0:0:0:
192,192,55671,1,0,0:0:0:0:
320,192,55671,128,2,55984:0:0:0:0:
448,192,55828,1,0,0:0:0:0:
192,192,55984,1,0,0:0:0:0:
64,192,55984,1,2,0:0:0:0:
64,192,56140,1,0,0:0:0:0:
192,192,56140,128,0,56609:0:0:0:0:
448,192,56140,1,8,0:0:0:0:
320,192,56296,1,0,0:0:0:0:
64,192,56453,1,0,0:0:0:0:
448,192,56453,1,2,0:0:0:0:
320,192,56609,1,0,0:0:0:0:
64,192,56765,1,0,0:0:0:0:
320,192,56765,1,0,0:0:0:0:
448,192,56765,1,8,0:0:0:0:
192,192,56921,1,0,0:0:0:0:
448,192,56921,1,2,0:0:0:0:
192,192,57078,1,0,0:0:0:0:
320,192,57078,1,0,0:0:0:0:
64,192,57078,1,8,0:0:0:0:
320,192,57234,1,0,0:0:0:0:
448,192,57234,1,2,0:0:0:0:
64,192,57390,1,0,0:0:0:0:
192,192,57390,1,0,0:0:0:70:tom2.wav
448,192,57546,1,0,0:0:0:0:
192,192,57546,1,0,0:0:0:70:tom3.wav
64,192,57703,128,0,58171:0:0:0:0:
320,192,57703,1,4,0:0:0:0:
448,192,57703,1,2,0:0:0:0:
192,192,58171,128,0,58640:0:0:0:0:
448,192,58171,1,2,0:0:0:0:
64,192,58328,1,0,0:0:0:0:
448,192,58328,1,0,0:0:0:0:
320,192,58328,1,8,0:0:0:0:
64,192,58640,1,0,0:0:0:0:
320,192,58640,128,4,59265:0:0:0:0:
448,192,58640,1,2,0:0:0:0:
64,192,59109,1,0,0:0:0:0:
192,192,59109,1,0,0:0:0:0:
448,192,59109,1,8,0:0:0:0:
64,192,59265,1,0,0:0:0:0:
192,192,59265,1,2,0:0:0:0:
64,192,59578,1,0,0:0:0:0:
448,192,59578,1,0,0:0:0:0:
320,192,59578,128,8,59890:0:0:0:0:
192,192,59890,1,0,0:0:0:0:
448,192,59890,1,0,0:0:0:0:
64,192,59890,1,8,0:0:0:0:
448,192,60046,1,0,0:0:0:0:
192,192,60046,1,0,0:0:0:0:
64,192,60046,1,8,0:0:0:0:
64,192,60203,128,0,60515:0:0:0:0:
320,192,60203,128,4,60515:0:0:0:0:
448,192,60203,1,2,0:0:0:0:
192,192,60515,1,0,0:0:0:0:
448,192,60515,1,8,0:0:0:0:
192,192,60671,128,0,60984:0:0:0:0:
64,192,60671,1,4,0:0:0:0:
448,192,60671,128,2,60984:0:0:0:0:
64,192,60984,1,0,0:0:0:0:
320,192,60984,1,8,0:0:0:0:
320,192,61140,128,0,61453:0:0:0:0:
448,192,61140,1,4,0:0:0:0:
64,192,61140,128,2,61453:0:0:0:0:
192,192,61453,1,0,0:0:0:0:
448,192,61453,1,2,0:0:0:0:
448,192,61609,1,0,0:0:0:0:
320,192,61609,1,0,0:0:0:70:tom4.wav
192,192,61609,1,8,0:0:0:0:
64,192,61765,1,0,0:0:0:0:
320,192,61765,1,2,0:0:0:0:
192,192,61921,1,0,0:0:0:0:
448,192,61921,1,0,0:0:0:70:tom4.wav
64,192,61921,1,8,0:0:0:0:
192,192,62078,1,8,0:0:0:0:
64,192,62078,1,0,0:0:0:70:tom4.wav
448,192,62078,1,2,0:0:0:0:
448,192,62234,1,0,0:0:0:0:
192,192,62234,1,0,0:0:0:70:tom4.wav
64,192,62234,1,8,0:0:0:0:
448,192,62390,1,0,0:0:0:70:tom4.wav
192,192,62390,1,2,0:0:0:0:
64,192,62390,1,8,0:0:0:0:
448,192,62546,1,0,0:0:0:0:
320,192,62546,1,0,0:0:0:70:tom4.wav
192,192,62546,1,8,0:0:0:0:
64,192,62703,128,0,62781:0:0:0:0:
320,192,62859,128,0,62937:0:0:0:0:
320,192,63015,128,0,63093:0:0:0:0:
320,192,63171,128,0,63484:0:0:0:0:
192,192,63484,128,0,63562:0:0:0:0:
448,192,63640,128,0,63718:0:0:0:0:
320,192,63796,128,0,63874:0:0:0:0:
64,192,63953,1,0,0:0:0:0:
192,192,63953,128,4,64109:0:0:0:0:
448,192,63953,1,2,0:0:0:0:
320,192,64109,128,0,64265:0:0:0:0:
192,192,64265,1,0,0:0:0:0:
448,192,64265,1,0,0:0:0:0:
64,192,64265,1,8,0:0:0:0:
320,192,64421,128,0,64578:0:0:0:0:
448,192,64421,1,2,0:0:0:0:
192,192,64578,1,0,0:0:0:0:
320,192,64734,128,0,64890:0:0:0:0:
64,192,64734,1,2,0:0:0:0:
64,192,64890,1,0,0:0:0:0:
192,192,64890,1,0,0:0:0:0:
448,192,64890,1,8,0:0:0:0:
320,192,65046,128,0,65203:0:0:0:0:
448,192,65203,128,0,65359:0:0:0:0:
64,192,65203,128,2,65359:0:0:0:0:
192,192,65359,1,0,0:0:0:0:
320,192,65515,1,0,0:0:0:0:
64,192,65515,128,0,65671:0:0:0:0:
448,192,65515,128,8,65671:0:0:0:0:
192,192,65671,1,2,0:0:0:0:
64,192,65828,128,0,65984:0:0:0:0:
448,192,65828,128,0,65984:0:0:0:0:
192,192,65984,1,2,0:0:0:0:
192,192,66140,1,0,0:0:0:0:
64,192,66140,1,0,0:0:0:0:
448,192,66140,1,8,0:0:0:0:
448,192,66296,1,0,0:0:0:0:
64,192,66453,1,0,0:0:0:0:
320,192,66453,128,2,66609:0:0:0:0:
192,192,66609,1,0,0:0:0:0:
64,192,66765,1,0,0:0:0:0:
320,192,66765,128,0,66921:0:0:0:0:
448,192,66765,1,8,0:0:0:0:
192,192,66921,128,0,67078:0:0:0:0:
64,192,66921,1,2,0:0:0:0:
448,192,67078,1,0,0:0:0:0:
320,192,67234,1,0,0:0:0:0:
192,192,67234,1,2,0:0:0:0:
320,192,67390,128,0,67546:0:0:0:0:
64,192,67390,1,0,0:0:0:0:
448,192,67390,1,8,0:0:0:0:
192,192,67546,128,0,67703:0:0:0:0:
448,192,67703,128,0,67859:0:0:0:0:
64,192,67703,128,2,67859:0:0:0:0:
320,192,67859,1,0,0:0:0:0:
448,192,68015,128,0,68171:0:0:0:0:
64,192,68015,128,0,68171:0:0:0:0:
192,192,68015,1,8,0:0:0:0:
320,192,68171,1,2,0:0:0:0:
64,192,68328,128,0,68484:0:0:0:0:
448,192,68328,128,0,68484:0:0:0:0:
320,192,68484,1,2,0:0:0:0:
448,192,68640,1,0,0:0:0:0:
320,192,68640,1,0,0:0:0:0:
64,192,68640,1,8,0:0:0:0:
64,192,68796,1,0,0:0:0:0:
320,192,68953,1,0,0:0:0:0:
448,192,68953,1,2,0:0:0:0:
192,192,68953,1,4,0:0:0:0:
192,192,69109,1,0,0:0:0:0:
64,192,69109,1,8,0:0:0:0:
320,192,69187,1,0,0:0:0:0:
448,192,69187,1,8,0:0:0:0:
192,192,69265,1,0,0:0:0:0:
64,192,69265,1,8,0:0:0:0:
448,192,69421,1,0,0:0:0:0:
320,192,69421,1,4,0:0:0:0:
64,192,69421,128,2,69578:0:0:0:0:
192,192,69578,128,0,69734:0:0:0:0:
320,192,69734,128,0,69890:0:0:0:0:
448,192,69890,1,0,0:0:0:0:
192,192,69890,1,0,0:0:0:70:tom4.wav
64,192,69890,1,8,0:0:0:0:
64,192,70203,1,0,0:0:0:0:
192,192,70203,1,2,0:0:0:0:
320,192,70203,1,4,0:0:0:0:
320,192,70359,1,0,0:0:0:0:
448,192,70359,1,8,0:0:0:0:
64,192,70437,1,0,0:0:0:0:
192,192,70437,1,8,0:0:0:0:
448,192,70515,1,0,0:0:0:0:
320,192,70515,1,8,0:0:0:0:
64,192,70671,1,0,0:0:0:0:
192,192,70671,1,4,0:0:0:0:
448,192,70671,128,2,70828:0:0:0:0:
320,192,70828,128,0,70984:0:0:0:0:
192,192,70984,128,0,71140:0:0:0:0:
64,192,71140,1,0,0:0:0:0:
448,192,71140,1,0,0:0:0:70:tom4.wav
320,192,71140,1,8,0:0:0:0:
448,192,71453,1,0,0:0:0:0:
320,192,71453,1,4,0:0:0:0:
192,192,71453,1,2,0:0:0:0:
192,192,71609,1,0,0:0:0:0:
64,192,71609,1,8,0:0:0:0:
320,192,71687,1,0,0:0:0:0:
448,192,71687,1,8,0:0:0:0:
64,192,71765,1,0,0:0:0:0:
192,192,71765,1,8,0:0:0:0:
320,192,71921,1,0,0:0:0:0:
448,192,71921,1,2,0:0:0:0:
64,192,71921,128,4,72078:0:0:0:0:
192,192,72078,128,0,72234:0:0:0:0:
448,192,72234,1,0,0:0:0:70:tom2.wav
320,192,72312,1,0,0:0:0:70:tom2.wav
192,192,72390,1,0,0:0:0:70:tom2.wav
64,192,72546,128,0,72781:0:0:0:0:
448,192,72546,1,2,0:0:0:0:
192,192,72546,128,4,72781:0:0:0:0:
192,192,72859,128,0,73093:0:0:0:0:
448,192,72859,1,4,0:0:0:0:
320,192,72859,128,2,73093:0:0:0:0:
64,192,73171,1,0,0:0:0:0:
448,192,73171,128,4,73406:0:0:0:0:
320,192,73171,128,2,73406:0:0:0:0:
64,192,73484,1,0,0:0:0:0:
192,192,73484,1,0,0:0:0:0:
448,192,73484,1,8,0:0:0:0:
448,192,73640,1,0,0:0:0:0:
320,192,73640,1,8,0:0:0:0:
192,192,73718,1,0,0:0:0:0:
64,192,73718,1,8,0:0:0:0:
320,192,73796,1,0,0:0:0:0:
448,192,73796,1,8,0:0:0:0:
192,192,73953,128,0,74109:0:0:0:0:
64,192,73953,1,2,0:0:0:0:
320,192,73953,1,4,0:0:0:0:
448,192,74109,128,0,74265:0:0:0:0:
64,192,74265,1,0,0:0:0:0:
192,192,74265,1,0,0:0:0:0:
320,192,74265,1,8,0:0:0:0:
192,192,74421,1,0,0:0:0:0:
448,192,74421,128,2,74578:0:0:0:0:
320,192,74578,1,0,0:0:0:0:
448,192,74734,128,0,74890:0:0:0:0:
64,192,74734,1,2,0:0:0:0:
64,192,74890,1,0,0:0:0:0:
320,192,74890,1,0,0:0:0:0:
192,192,74890,128,8,75046:0:0:0:0:
448,192,75046,128,0,75203:0:0:0:0:
192,192,75203,128,0,75359:0:0:0:0:
320,192,75203,128,2,75359:0:0:0:0:
64,192,75359,1,0,0:0:0:0:
192,192,75515,128,0,75671:0:0:0:0:
64,192,75515,1,0,0:0:0:0:
320,192,75515,128,8,75671:0:0:0:0:
448,192,75671,1,2,0:0:0:0:
320,192,75828,128,0,75984:0:0:0:0:
192,192,75828,128,0,75984:0:0:0:0:
64,192,75984,1,2,0:0:0:0:
64,192,76140,1,0,0:0:0:0:
320,192,76140,1,0,0:0:0:0:
448,192,76140,1,8,0:0:0:0:
448,192,76296,1,0,0:0:0:0:
320,192,76453,128,0,76609:0:0:0:0:
192,192,76453,1,2,0:0:0:0:
64,192,76609,128,0,76765:0:0:0:0:
448,192,76765,1,0,0:0:0:0:
320,192,76765,128,0,76921:0:0:0:0:
192,192,76765,1,8,0:0:0:0:
192,192,76921,1,0,0:0:0:0:
64,192,76921,128,2,77078:0:0:0:0:
448,192,77078,1,0,0:0:0:0:
64,192,77234,128,0,77390:0:0:0:0:
320,192,77234,1,2,0:0:0:0:
192,192,77390,1,0,0:0:0:0:
320,192,77390,1,0,0:0:0:0:
448,192,77390,1,8,0:0:0:0:
64,192,77546,128,0,77703:0:0:0:0:
448,192,77703,128,0,78015:0:0:0:0:
320,192,77703,128,2,78015:0:0:0:0:
192,192,77859,1,0,0:0:0:0:
192,192,78015,1,0,0:0:0:0:
64,192,78015,1,8,0:0:0:0:
64,192,78171,1,0,0:0:0:0:
448,192,78328,128,0,78640:0:0:0:0:
320,192,78328,1,2,0:0:0:0:
192,192,78484,1,0,0:0:0:0:
64,192,78484,1,2,0:0:0:0:
192,192,78640,1,0,0:0:0:0:
64,192,78640,1,0,0:0:0:0:
320,192,78640,128,8,78953:0:0:0:0:
448,192,78953,1,0,0:0:0:0:
192,192,78953,1,2,0:0:0:0:
64,192,78953,128,4,79265:0:0:0:0:
448,192,79265,1,0,0:0:0:0:
320,192,79265,1,0,0:0:0:0:
192,192,79265,128,8,79578:0:0:0:0:
448,192,79421,1,0,0:0:0:0:
64,192,79421,1,2,0:0:0:0:
320,192,79578,128,0,79890:0:0:0:0:
64,192,79734,1,0,0:0:0:0:
192,192,79734,1,2,0:0:0:0:
192,192,79890,1,0,0:0:0:0:
64,192,79890,1,0,0:0:0:0:
448,192,79890,128,8,80203:0:0:0:0:
192,192,80203,1,0,0:0:0:0:
64,192,80203,1,2,0:0:0:0:
320,192,80203,1,4,0:0:0:0:
192,192,80515,1,0,0:0:0:0:
64,192,80515,1,0,0:0:0:0:
448,192,80515,1,8,0:0:0:0:
64,192,80749,1,0,0:0:0:0:
192,192,80749,1,8,0:0:0:0:
448,192,80828,1,0,0:0:0:0:
320,192,80828,1,2,0:0:0:0:
192,192,80984,1,0,0:0:0:0:
448,192,80984,1,0,0:0:0:0:
64,192,80984,1,8,0:0:0:0:
320,192,81140,1,0,0:0:0:70:tom2.wav
64,192,81140,1,2,0:0:0:0:
320,192,81296,1,0,0:0:0:0:
192,192,81296,1,0,0:0:0:70:tom3.wav
192,192,81453,128,0,81765:0:0:0:0:
448,192,81453,128,4,81765:0:0:0:0:
64,192,81453,1,2,0:0:0:0:
64,192,81765,1,0,0:0:0:0:
320,192,81765,1,8,0:0:0:0:
448,192,81921,1,0,0:0:0:0:
64,192,81921,128,2,82234:0:0:0:0:
320,192,81921,128,4,82234:0:0:0:0:
448,192,82234,1,0,0:0:0:0:
192,192,82234,1,8,0:0:0:0:
448,192,82390,128,0,82546:0:0:0:0:
192,192,82390,128,4,82546:0:0:0:0:
64,192,82390,1,2,0:0:0:0:
64,192,82703,128,0,82859:0:0:0:70:tom4.wav
448,192,82703,1,2,0:0:0:0:
320,192,82703,128,8,82859:0:0:0:0:
448,192,83015,128,0,83171:0:0:0:0:
448,192,83328,128,0,83484:0:0:0:0:
192,192,83484,1,0,0:0:0:0:
64,192,83484,1,2,0:0:0:0:
64,192,83640,1,0,0:0:0:0:
448,192,83640,128,0,83953:0:0:0:0:
192,192,83640,1,8,0:0:0:0:
192,192,83953,1,0,0:0:0:0:
320,192,83953,1,4,0:0:0:0:
64,192,83953,1,2,0:0:0:0:
64,192,84109,1,0,0:0:0:0:
320,192,84109,1,8,0:0:0:0:
64,192,84265,1,0,0:0:0:0:
320,192,84265,1,8,0:0:0:0:
448,192,84421,1,0,0:0:0:0:
192,192,84421,1,2,0:0:0:0:
64,192,84421,1,4,0:0:0:0:
320,192,84578,1,0,0:0:0:0:
192,192,84578,1,0,0:0:0:70:tom1.wav
448,192,84734,1,0,0:0:0:0:
192,192,84734,1,0,0:0:0:70:tom2.wav
448,192,84890,1,0,0:0:0:0:
320,192,84890,1,2,0:0:0:0:
64,192,84890,1,4,0:0:0:0:
192,192,85046,1,0,0:0:0:0:
320,192,85046,1,0,0:0:0:70:tom3.wav
64,192,85203,1,0,0:0:0:0:
320,192,85203,1,0,0:0:0:70:tom4.wav
64,192,85359,128,0,85515:0:0:0:0:
448,192,85359,1,4,0:0:0:0:
192,192,85359,128,8,85515:0:0:0:0:
192,192,85671,128,0,86218:0:0:0:0:
64,192,85671,128,4,86296:0:0:0:0:
320,192,85671,128,2,86140:0:0:0:0:
