osu file format v12

[General]
AudioFilename: Black White.mp3
AudioLeadIn: 0
PreviewTime: 63045
Countdown: 0
SampleSet: Normal
StackLeniency: 0.7
Mode: 1
LetterboxInBreaks: 0

[Editor]
Bookmarks: 19263,43013
DistanceSpacing: 0.8
BeatDivisor: 4
GridSize: 16

[Metadata]
Title:Black + White (TV Size)
TitleUnicode:Black † White
Artist:Nomizu Iori
ArtistUnicode:野水いおり
Creator:Kuro
Version:Taiko Muzukashii
Source:Mondaiji-tachi ga Isekai Kara Kuru Sō Desu yo?
Tags:opening Saten-san nattap Moway Yanlu
BeatmapID:215752
BeatmapSetID:76200

[Difficulty]
HPDrainRate:5
CircleSize:4
OverallDifficulty:4
ApproachRate:4
SliderMultiplier:1.4
SliderTickRate:1

[Events]
//Background and Video events
Video,500,"Mondaiji-tachi OP XVID codec TV Quality.avi"
0,0,"yande.re 217463 sample.jpg",0,0
//Break Periods
//Storyboard Layer 0 (Background)
//Storyboard Layer 1 (Fail)
//Storyboard Layer 2 (Pass)
//Storyboard Layer 3 (Foreground)
//Storyboard Sound Samples
//Background Colour Transformations
3,100,163,162,255

[TimingPoints]
545.368689641391,625,4,1,0,70,1,0
11795,312.5,4,1,0,70,1,0
21170,-100,4,1,0,35,0,0
21326,-100,4,1,0,40,0,0
21482,-100,4,1,0,45,0,0
21638,-100,4,1,0,50,0,0
21795,-100,4,1,0,55,0,0
21951,-100,4,1,0,60,0,0
22107,-100,4,1,0,65,0,0
22263,-100,4,1,0,70,0,0
64295,-100,4,1,0,70,0,1
84295,-100,4,1,0,70,0,0

[Colours]
Combo1 : 0,128,255
Combo2 : 255,70,80

[HitObjects]
256,192,11482,21,12,0:0:0:0:
256,192,11795,5,0,0:0:0:0:
256,192,11873,1,0,0:0:0:0:
256,192,11951,1,0,0:0:0:0:
256,192,12107,5,8,0:0:0:0:
256,192,12263,5,0,0:0:0:0:
256,192,12420,1,0,0:0:0:0:
256,192,12576,1,0,0:0:0:0:
256,192,12732,5,8,0:0:0:0:
256,192,13045,5,0,0:0:0:0:
256,192,13201,1,0,0:0:0:0:
256,192,13357,5,8,0:0:0:0:
256,192,13513,5,0,0:0:0:0:
256,192,13670,1,0,0:0:0:0:
256,192,13826,1,0,0:0:0:0:
256,192,13982,5,8,0:0:0:0:
256,192,14295,5,0,0:0:0:0:
256,192,14607,5,8,0:0:0:0:
256,192,14763,5,0,0:0:0:0:
256,192,15076,1,0,0:0:0:0:
256,192,15232,5,8,0:0:0:0:
256,192,15545,1,8,0:0:0:0:
256,192,15701,5,0,0:0:0:0:
256,192,15779,1,0,0:0:0:0:
256,192,15857,1,0,0:0:0:0:
256,192,16013,1,0,0:0:0:0:
256,192,16170,5,8,0:0:0:0:
256,192,16482,1,8,0:0:0:0:
256,192,16795,1,12,0:0:0:0:
256,192,16951,5,0,0:0:0:0:
256,192,17029,1,0,0:0:0:0:
256,192,17107,1,0,0:0:0:0:
256,192,17263,1,0,0:0:0:0:
256,192,17420,1,0,0:0:0:0:
256,192,17576,1,0,0:0:0:0:
256,192,17732,5,8,0:0:0:0:
256,192,18045,1,8,0:0:0:0:
256,192,18201,5,0,0:0:0:0:
256,192,18357,1,0,0:0:0:0:
256,192,18513,1,0,0:0:0:0:
256,192,18670,1,0,0:0:0:0:
256,192,18826,1,0,0:0:0:0:
256,192,18982,5,8,0:0:0:0:
256,192,19295,5,0,0:0:0:0:
256,192,19451,5,8,0:0:0:0:
256,192,19529,1,8,0:0:0:0:
256,192,19607,1,8,0:0:0:0:
256,192,19763,5,0,0:0:0:0:
256,192,19920,5,8,0:0:0:0:
256,192,19998,1,8,0:0:0:0:
256,192,20076,1,8,0:0:0:0:
256,192,20232,5,4,0:0:0:0:
256,288,21170,2,0,P|368:172|148:160,1,490
256,192,22420,5,12,0:0:0:0:
256,192,22732,1,12,0:0:0:0:
256,192,23045,5,4,0:0:0:0:
256,192,23201,1,4,0:0:0:0:
256,192,23513,1,4,0:0:0:0:
256,192,23826,1,0,0:0:0:0:
256,192,23982,5,8,0:0:0:0:
256,192,24138,5,0,0:0:0:0:
256,192,24295,5,8,0:0:0:0:
256,192,24451,5,0,0:0:0:0:
256,192,24607,5,8,0:0:0:0:
256,192,24763,5,0,0:0:0:0:
256,192,24920,5,8,0:0:0:0:
256,192,25076,5,0,0:0:0:0:
256,192,25232,5,8,0:0:0:0:
256,192,25545,5,4,0:0:0:0:
256,192,25701,1,4,0:0:0:0:
256,192,26013,1,4,0:0:0:0:
256,192,26326,1,0,0:0:0:0:
256,192,26482,5,8,0:0:0:0:
256,192,26638,5,0,0:0:0:0:
256,192,26795,5,8,0:0:0:0:
256,192,26951,5,0,0:0:0:0:
256,192,27107,5,8,0:0:0:0:
256,192,27263,5,0,0:0:0:0:
256,192,27420,5,8,0:0:0:0:
256,192,27576,5,0,0:0:0:0:
256,192,27732,5,8,0:0:0:0:
256,192,28045,5,4,0:0:0:0:
256,192,28201,1,4,0:0:0:0:
256,192,28513,1,4,0:0:0:0:
256,192,28826,1,0,0:0:0:0:
256,192,28982,5,8,0:0:0:0:
256,192,29138,5,0,0:0:0:0:
256,192,29295,5,8,0:0:0:0:
256,192,29451,5,0,0:0:0:0:
256,192,29607,5,8,0:0:0:0:
256,192,29763,5,0,0:0:0:0:
256,192,29920,5,8,0:0:0:0:
256,192,30076,5,0,0:0:0:0:
256,192,30232,5,8,0:0:0:0:
256,192,30545,1,12,0:0:0:0:
256,192,30857,5,4,0:0:0:0:
256,192,31013,5,12,0:0:0:0:
256,192,31326,5,4,0:0:0:0:
256,192,31482,5,12,0:0:0:0:
256,192,31951,5,0,0:0:0:0:
256,192,32029,1,0,0:0:0:0:
256,192,32107,1,0,0:0:0:0:
256,192,32263,1,0,0:0:0:0:
256,192,32420,5,8,0:0:0:0:
256,192,32498,1,8,0:0:0:0:
256,192,32576,1,8,0:0:0:0:
256,192,32732,5,0,0:0:0:0:
256,192,32888,5,8,0:0:0:0:
256,192,33045,5,4,0:0:0:0:
256,192,33201,1,4,0:0:0:0:
256,192,33513,1,4,0:0:0:0:
256,192,33826,1,0,0:0:0:0:
256,192,33982,5,8,0:0:0:0:
256,192,34138,5,0,0:0:0:0:
256,192,34295,5,8,0:0:0:0:
256,192,34451,5,0,0:0:0:0:
256,192,34607,5,8,0:0:0:0:
256,192,34763,5,0,0:0:0:0:
256,192,34920,5,8,0:0:0:0:
256,192,35076,5,0,0:0:0:0:
256,192,35232,5,8,0:0:0:0:
256,192,35545,5,4,0:0:0:0:
256,192,35701,1,4,0:0:0:0:
256,192,36013,1,4,0:0:0:0:
256,192,36326,1,0,0:0:0:0:
256,192,36404,1,0,0:0:0:0:
256,192,36482,1,0,0:0:0:0:
256,192,36638,1,0,0:0:0:0:
256,192,36795,5,8,0:0:0:0:
256,192,36951,5,0,0:0:0:0:
256,192,37107,5,8,0:0:0:0:
256,192,37263,5,0,0:0:0:0:
256,192,37420,5,8,0:0:0:0:
256,192,37576,5,0,0:0:0:0:
256,192,37732,5,8,0:0:0:0:
256,192,38045,5,4,0:0:0:0:
256,192,38201,1,4,0:0:0:0:
256,192,38513,1,4,0:0:0:0:
256,192,38826,1,0,0:0:0:0:
256,192,38904,1,0,0:0:0:0:
256,192,38982,1,0,0:0:0:0:
256,192,39138,1,0,0:0:0:0:
256,192,39295,5,8,0:0:0:0:
256,192,39451,5,0,0:0:0:0:
256,192,39607,5,8,0:0:0:0:
256,192,39763,5,0,0:0:0:0:
256,192,39920,5,8,0:0:0:0:
256,192,40076,5,0,0:0:0:0:
256,192,40232,5,8,0:0:0:0:
256,192,40545,1,12,0:0:0:0:
256,192,40857,5,4,0:0:0:0:
256,192,41013,5,12,0:0:0:0:
256,192,41326,5,4,0:0:0:0:
256,192,41482,5,12,0:0:0:0:
256,192,41951,1,8,0:0:0:0:
256,192,42029,1,8,0:0:0:0:
256,192,42107,1,8,0:0:0:0:
256,192,42263,5,0,0:0:0:0:
256,192,42420,1,0,0:0:0:0:
256,192,42498,1,0,0:0:0:0:
256,192,42576,1,0,0:0:0:0:
256,192,42732,5,8,0:0:0:0:
256,192,42888,5,0,0:0:0:0:
256,192,43045,5,12,0:0:0:0:
256,192,43201,5,0,0:0:0:0:
256,192,43357,1,0,0:0:0:0:
256,192,43513,5,8,0:0:0:0:
256,192,43670,5,0,0:0:0:0:
256,192,43982,2,0,L|400:192,1,140
256,192,44607,5,0,0:0:0:0:
256,192,44920,5,8,0:0:0:0:
256,192,45232,5,0,0:0:0:0:
256,192,45545,5,0,0:0:0:0:
256,192,45857,5,8,0:0:0:0:
256,192,46013,5,0,0:0:0:0:
256,192,46326,1,0,0:0:0:0:
256,192,46482,5,8,0:0:0:0:
256,192,46795,5,0,0:0:0:0:
256,192,46873,1,0,0:0:0:0:
256,192,46951,1,0,0:0:0:0:
256,192,47107,5,8,0:0:0:0:
256,192,47420,2,0,L|256:336,1,140
256,192,48045,5,4,0:0:0:0:
256,192,48357,5,8,0:0:0:0:
256,192,48513,5,0,0:0:0:0:
256,192,48826,1,0,0:0:0:0:
256,192,48982,5,8,0:0:0:0:
256,192,49295,1,8,0:0:0:0:
256,192,49451,5,0,0:0:0:0:
256,192,49607,5,8,0:0:0:0:
256,192,49920,2,0,L|112:192,1,140
256,192,50545,5,0,0:0:0:0:
256,192,50857,5,8,0:0:0:0:
256,192,51013,5,0,0:0:0:0:
256,192,51326,1,0,0:0:0:0:
256,192,51482,5,8,0:0:0:0:
256,192,51795,5,0,0:0:0:0:
256,192,51873,1,0,0:0:0:0:
256,192,51951,1,0,0:0:0:0:
256,192,52107,5,8,0:0:0:0:
256,192,52420,1,8,0:0:0:0:
256,192,52498,1,8,0:0:0:0:
256,192,52576,1,8,0:0:0:0:
256,192,52732,5,0,0:0:0:0:
256,192,52810,1,0,0:0:0:0:
256,192,52888,1,0,0:0:0:0:
256,192,53045,5,12,0:0:0:0:
256,192,53201,5,0,0:0:0:0:
256,192,53357,1,0,0:0:0:0:
256,192,53513,5,8,0:0:0:0:
256,192,53670,5,0,0:0:0:0:
256,192,53982,2,0,L|256:48,1,140
256,192,54451,1,0,0:0:0:0:
256,192,54607,5,8,0:0:0:0:
256,192,54763,1,8,0:0:0:0:
256,192,54841,1,8,0:0:0:0:
256,192,54920,1,8,0:0:0:0:
256,192,55076,5,0,0:0:0:0:
256,192,55232,5,8,0:0:0:0:
256,192,55545,5,0,0:0:0:0:
256,192,55701,1,0,0:0:0:0:
256,192,55857,5,8,0:0:0:0:
256,192,56013,5,0,0:0:0:0:
256,192,56170,1,0,0:0:0:0:
256,192,56326,5,8,0:0:0:0:
256,192,56482,5,0,0:0:0:0:
256,192,56560,1,0,0:0:0:0:
256,192,56638,1,0,0:0:0:0:
256,192,56795,5,8,0:0:0:0:
256,192,56951,5,0,0:0:0:0:
256,192,57107,5,8,0:0:0:0:
256,192,57420,2,0,L|400:192,1,140
256,192,57888,5,0,0:0:0:0:
256,192,58045,5,8,0:0:0:0:
256,192,58201,5,0,0:0:0:0:
256,192,58357,5,8,0:0:0:0:
256,192,58513,5,0,0:0:0:0:
256,192,58591,1,0,0:0:0:0:
256,192,58670,1,0,0:0:0:0:
256,192,58826,1,0,0:0:0:0:
256,192,58982,5,8,0:0:0:0:
256,192,59295,1,8,0:0:0:0:
256,192,59451,5,0,0:0:0:0:
256,192,59607,5,8,0:0:0:0:
256,192,59920,2,0,L|256:336,1,140
256,192,60388,1,8,0:0:0:0:
256,192,60545,1,12,0:0:0:0:
256,192,60701,5,0,0:0:0:0:
256,192,60857,5,8,0:0:0:0:
256,192,61013,1,12,0:0:0:0:
256,192,61170,5,0,0:0:0:0:
256,192,61326,5,8,0:0:0:0:
256,192,61482,1,12,0:0:0:0:
256,192,61795,5,0,0:0:0:0:
256,192,61951,5,8,0:0:0:0:
256,192,62107,5,0,0:0:0:0:
256,192,62263,5,8,0:0:0:0:
256,192,62341,1,8,0:0:0:0:
256,192,62420,1,8,0:0:0:0:
256,192,62576,5,0,0:0:0:0:
256,192,62654,1,0,0:0:0:0:
256,192,62732,1,0,0:0:0:0:
256,192,62888,5,12,0:0:0:0:
256,192,64295,1,12,0:0:0:0:
256,192,64451,1,8,0:0:0:0:
256,192,64529,1,8,0:0:0:0:
256,192,64607,1,8,0:0:0:0:
256,192,64763,1,8,0:0:0:0:
256,192,65076,1,8,0:0:0:0:
256,192,65232,5,0,0:0:0:0:
256,192,65388,1,0,0:0:0:0:
256,192,65545,5,8,0:0:0:0:
256,192,65701,5,0,0:0:0:0:
256,192,65857,5,8,0:0:0:0:
256,192,66013,5,0,0:0:0:0:
256,192,66170,5,8,0:0:0:0:
256,192,66482,1,8,0:0:0:0:
256,192,66638,5,0,0:0:0:0:
256,192,66795,5,8,0:0:0:0:
256,192,66951,5,0,0:0:0:0:
256,192,67107,1,0,0:0:0:0:
256,192,67263,5,8,0:0:0:0:
256,192,67341,1,8,0:0:0:0:
256,192,67420,1,8,0:0:0:0:
256,192,67576,5,0,0:0:0:0:
256,192,67732,5,8,0:0:0:0:
256,192,67888,5,0,0:0:0:0:
256,192,68045,5,8,0:0:0:0:
256,192,68201,5,0,0:0:0:0:
256,192,68357,5,8,0:0:0:0:
256,192,68513,5,0,0:0:0:0:
256,192,68670,5,8,0:0:0:0:
256,192,68982,1,8,0:0:0:0:
256,192,69295,1,8,0:0:0:0:
256,192,69373,1,8,0:0:0:0:
256,192,69451,1,8,0:0:0:0:
256,192,69607,1,8,0:0:0:0:
256,192,69763,5,0,0:0:0:0:
256,192,69920,1,0,0:0:0:0:
256,192,70076,5,12,0:0:0:0:
256,192,70545,1,8,0:0:0:0:
256,192,70623,1,8,0:0:0:0:
256,192,70701,1,8,0:0:0:0:
256,192,70857,1,8,0:0:0:0:
256,192,71013,5,0,0:0:0:0:
256,192,71170,1,0,0:0:0:0:
256,192,71326,5,12,0:0:0:0:
256,192,71795,1,8,0:0:0:0:
256,192,71873,1,8,0:0:0:0:
256,192,71951,1,8,0:0:0:0:
256,192,72107,1,8,0:0:0:0:
256,192,72263,5,0,0:0:0:0:
256,192,72420,1,0,0:0:0:0:
256,192,72576,5,12,0:0:0:0:
256,192,72888,1,12,0:0:0:0:
256,192,73201,1,12,0:0:0:0:
256,192,73513,1,12,0:0:0:0:
256,192,73826,1,8,0:0:0:0:
256,192,73982,1,8,0:0:0:0:
256,192,74138,5,0,0:0:0:0:
256,192,74295,5,8,0:0:0:0:
256,192,74451,5,0,0:0:0:0:
256,192,74529,1,0,0:0:0:0:
256,192,74607,1,0,0:0:0:0:
256,192,74763,5,8,0:0:0:0:
256,192,74920,5,0,0:0:0:0:
256,192,75076,5,8,0:0:0:0:
256,192,75154,1,8,0:0:0:0:
256,192,75232,1,8,0:0:0:0:
256,192,75388,5,0,0:0:0:0:
256,192,75545,5,8,0:0:0:0:
256,192,75701,5,0,0:0:0:0:
256,192,75857,5,8,0:0:0:0:
256,192,76013,5,0,0:0:0:0:
256,192,76170,5,8,0:0:0:0:
256,192,76482,5,0,0:0:0:0:
256,192,76560,1,0,0:0:0:0:
256,192,76638,1,0,0:0:0:0:
256,192,76795,5,8,0:0:0:0:
256,192,76951,5,0,0:0:0:0:
256,192,77107,1,0,0:0:0:0:
256,192,77263,5,8,0:0:0:0:
256,192,77341,1,8,0:0:0:0:
256,192,77420,1,8,0:0:0:0:
256,192,77576,5,0,0:0:0:0:
256,192,77732,5,8,0:0:0:0:
256,192,77888,5,0,0:0:0:0:
256,192,78045,5,12,0:0:0:0:
256,192,78357,5,0,0:0:0:0:
256,192,78670,5,8,0:0:0:0:
256,192,78748,1,8,0:0:0:0:
256,192,78826,1,8,0:0:0:0:
256,192,78982,5,0,0:0:0:0:
256,192,79060,1,0,0:0:0:0:
256,192,79138,1,0,0:0:0:0:
256,192,79295,5,12,0:0:0:0:
256,192,79451,5,0,0:0:0:0:
256,192,79607,5,8,0:0:0:0:
256,192,79763,5,0,0:0:0:0:
256,192,79920,5,8,0:0:0:0:
256,192,80076,5,0,0:0:0:0:
256,192,80232,5,8,0:0:0:0:
256,192,80545,1,12,0:0:0:0:
256,192,80701,5,0,0:0:0:0:
256,192,80857,5,8,0:0:0:0:
256,192,81013,5,0,0:0:0:0:
256,192,81170,5,8,0:0:0:0:
256,192,81326,5,0,0:0:0:0:
256,192,81482,5,0,0:0:0:0:
256,192,81795,1,12,0:0:0:0:
256,192,81951,5,0,0:0:0:0:
256,192,82029,1,0,0:0:0:0:
256,192,82107,1,0,0:0:0:0:
256,192,82263,5,12,0:0:0:0:
256,192,82420,5,0,0:0:0:0:
256,192,82498,1,0,0:0:0:0:
256,192,82576,1,0,0:0:0:0:
256,192,82732,5,12,0:0:0:0:
256,192,82888,5,0,0:0:0:0:
256,192,83045,5,12,0:0:0:0:
256,192,83982,1,12,0:0:0:0:
256,192,84295,5,4,0:0:0:0:
256,192,84607,1,4,0:0:0:0:
256,192,84763,5,12,0:0:0:0:
256,192,85076,5,4,0:0:0:0:
256,192,85232,5,12,0:0:0:0:
256,192,85545,5,4,0:0:0:0:
256,192,85701,1,4,0:0:0:0:
256,192,86013,5,12,0:0:0:0:
