osu file format v13

[General]
AudioFilename: Black White.mp3
AudioLeadIn: 0
PreviewTime: 63045
Countdown: 0
SampleSet: Soft
StackLeniency: 0.7
Mode: 0
LetterboxInBreaks: 0
WidescreenStoryboard: 0

[Editor]
DistanceSpacing: 1.1
BeatDivisor: 4
GridSize: 4
TimelineZoom: 1

[Metadata]
Title:Black + White (TV Size)
TitleUnicode:Black † White
Artist:Nomizu Iori
ArtistUnicode:野水いおり
Creator:Kuro
Version:Saten
Source:Mondaiji-tachi ga Isekai Kara Kuru Sō Desu yo?
Tags:opening Saten-san nattap Moway Yanlu
BeatmapID:218204
BeatmapSetID:76200

[Difficulty]
HPDrainRate:8
CircleSize:4
OverallDifficulty:8
ApproachRate:9
SliderMultiplier:2
SliderTickRate:2

[Events]
//Background and Video events
Video,500,"Mondaiji-tachi OP XVID codec TV Quality.avi"
0,0,"yande.re 217463 sample.jpg",0,0
//Break Periods
//Storyboard Layer 0 (Background)
//Storyboard Layer 1 (Fail)
//Storyboard Layer 2 (Pass)
//Storyboard Layer 3 (Foreground)
//Storyboard Sound Samples
//Background Colour Transformations
3,100,163,162,255

[TimingPoints]
545.368689641391,625,4,2,1,30,1,0
9920,-100,4,2,1,20,0,0
10545,-100,4,2,1,30,0,0
11482,-100,4,2,1,70,0,0
11795,312.5,4,2,1,70,1,0
20310,-100,4,1,1,30,0,0
21013,-100,4,1,1,40,0,0
21170,-100,4,1,1,50,0,0
21326,-100,4,1,1,70,0,0
23045,-100,4,2,1,70,0,0
63045,-100,4,2,1,20,0,0
63357,-100,4,2,1,30,0,0
63670,-100,4,2,1,40,0,0
63982,-100,4,2,1,50,0,0
64295,-83.3333333333333,4,2,1,80,0,1
83357,-100,4,2,1,80,0,1
84295,-100,4,2,1,70,0,0

[Colours]
Combo1 : 59,59,59
Combo2 : 255,255,255

[HitObjects]
256,192,8670,12,0,11170,0:0:0:0:
256,192,11482,5,0,1:0:0:0:
256,192,11795,6,0,P|292:156|340:144,2,100,4|0|0,3:2|0:0|1:0,0:0:0:0:
256,312,12263,6,0,P|220:348|172:360,2,100,0|0|0,3:0|0:0|3:0,0:0:0:0:
152,252,12732,6,0,P|116:208|104:168,2,100,0|0|0,1:0|3:0|0:0,0:0:0:0:
360,252,13201,6,0,P|396:208|408:168,2,100,0|0|0,3:0|1:0|0:0,0:0:0:0:
256,192,13670,5,0,3:0:0:0:
152,132,13826,1,0,0:0:0:0:
371,160,13982,1,0,1:0:0:0:
140,223,14138,1,0,0:0:0:0:
256,192,14295,6,0,P|309:111|279:20,1,200,0|0,3:0|1:0,0:0:0:0:
256,192,14763,6,0,P|298:278|392:297,1,200,0|0,3:0|3:0,0:0:0:0:
256,192,15232,6,0,P|158:185|94:257,1,200,0|0,1:0|3:0,0:0:0:0:
180,340,15701,5,0,3:0:0:0:
296,316,15857,1,0,1:0:0:0:
180,340,16013,1,0,0:0:0:0:
94,256,16170,2,0,L|80:156,1,100,0|0,3:0|3:0,0:0:0:0:
417,127,16482,2,0,L|432:228,1,100,0|0,1:0|0:0,0:0:0:0:
256,192,16795,5,4,3:2:0:0:
168,112,16951,1,0,0:0:0:0:
256,32,17107,1,0,1:0:0:0:
256,192,17263,5,0,3:0:0:0:
176,280,17419,1,0,0:0:0:0:
96,192,17575,1,0,3:0:0:0:
256,192,17732,5,0,1:0:0:0:
344,272,17888,1,0,3:0:0:0:
256,352,18044,1,0,0:0:0:0:
256,192,18201,5,0,3:0:0:0:
336,104,18357,1,0,1:0:0:0:
416,192,18513,1,0,0:0:0:0:
416,312,18670,6,0,P|384:356|336:372,1,100,0|0,3:0|3:0,0:0:0:0:
96,312,18982,2,0,P|128:356|176:372,1,100,0|0,1:0|0:0,0:0:0:0:
256,192,19295,5,4,3:2:0:0:
228,157,19373,1,0,0:0:0:0:
184,140,19451,1,0,1:0:0:0:
139,140,19529,1,0,1:0:0:0:
102,163,19607,1,0,1:0:0:0:
256,32,19763,5,4,3:2:0:0:
293,8,19841,1,0,0:0:0:0:
340,7,19919,1,0,1:0:0:0:
382,22,19997,1,0,1:0:0:0:
409,57,20075,1,0,1:0:0:0:
460,156,20232,5,4,3:2:0:0:
452,168,20310,1,0,0:0:0:0:
444,180,20388,1,0,0:0:0:0:
436,192,20466,1,0,0:0:0:0:
428,205,20545,1,0,0:0:0:0:
420,217,20623,1,0,0:0:0:0:
412,229,20701,1,0,0:0:0:0:
404,241,20779,1,0,0:0:0:0:
396,254,20857,1,0,0:0:0:0:
388,267,20935,1,0,0:0:0:0:
380,280,21013,1,0,0:0:0:0:
372,293,21091,1,0,0:0:0:0:
364,306,21170,1,0,0:0:0:0:
357,319,21248,1,0,0:0:0:0:
344,340,21326,5,0,0:0:0:0:
308,362,21404,1,0,0:0:0:0:
266,366,21482,1,0,0:0:0:0:
227,351,21560,1,0,0:0:0:0:
197,322,21638,1,0,0:0:0:0:
184,281,21716,1,0,0:0:0:0:
185,239,21795,1,0,0:0:0:0:
163,202,21873,1,0,0:0:0:0:
125,183,21951,1,0,0:0:0:0:
84,182,22029,1,0,0:0:0:0:
44,191,22107,1,0,0:0:0:0:
13,220,22185,1,0,0:0:0:0:
0,259,22263,1,0,0:0:0:0:
8,299,22341,1,0,0:0:0:0:
35,330,22420,5,4,0:0:0:0:
256,36,22732,1,4,3:2:0:0:
477,330,23045,5,0,1:0:0:0:
256,228,23201,1,0,1:0:0:0:
476,132,23357,1,0,3:0:0:0:
256,36,23513,1,0,1:0:0:0:
256,36,23591,1,0,0:0:0:0:
256,36,23670,2,0,P|203:15|156:15,1,100,0|0,3:0|0:0,0:0:0:0:
88,112,23982,2,0,P|140:132|187:132,1,100,0|0,3:0|0:0,0:0:0:0:
256,228,24295,5,0,3:0:0:0:
216,320,24451,1,0,0:0:0:0:
120,344,24607,1,0,3:0:0:0:
24,312,24763,1,0,0:0:0:0:
4,212,24920,2,0,L|24:112,1,100,0|0,3:0|0:0,0:0:0:0:
152,136,25232,2,0,L|132:236,1,100,0|0,3:0|0:0,0:0:0:0:
256,272,25545,5,0,1:0:0:0:
420,176,25701,1,0,1:0:0:0:
256,272,25857,1,0,3:0:0:0:
92,176,26013,1,0,1:0:0:0:
92,176,26091,1,0,0:0:0:0:
92,176,26170,2,0,P|80:124|96:80,1,100,0|0,3:0|0:0,0:0:0:0:
244,96,26482,2,0,P|256:148|240:192,1,100,0|0,3:0|0:0,0:0:0:0:
168,256,26795,5,0,3:0:0:0:
188,352,26951,1,0,0:0:0:0:
288,364,27107,1,0,3:0:0:0:
356,292,27263,1,0,0:0:0:0:
336,192,27420,2,0,P|356:144|392:112,1,100,0|0,3:0|0:0,0:0:0:0:
176,192,27732,2,0,P|156:144|120:112,1,100,0|0,3:0|0:0,0:0:0:0:
60,192,28045,5,0,1:0:0:0:
452,192,28201,1,0,1:0:0:0:
136,256,28357,1,0,3:0:0:0:
376,256,28513,1,0,1:0:0:0:
256,192,28670,2,0,P|240:144|248:96,1,100,0|0,3:0|0:0,0:0:0:0:
364,40,28982,2,0,P|380:88|372:136,1,100,0|0,3:0|0:0,0:0:0:0:
136,256,29295,6,0,P|57:194|44:100,1,200,0|0,3:0|3:0,0:0:0:0:
344,132,29763,2,0,P|256:172|168:132,1,200,0|0,0:0|0:0,3:0:0:0:
468,100,30232,2,0,P|455:194|376:256,1,200,0|4,1:0|1:0,0:0:0:0:
256,28,30857,5,0,1:0:0:0:
256,28,31013,1,4,1:0:0:0:
135,255,31326,5,0,1:0:0:0:
135,255,31482,1,4,1:0:0:0:
256,172,31795,5,0,1:0:0:0:
256,28,31951,5,0,1:0:0:0:
256,28,32029,1,0,1:0:0:0:
256,28,32107,2,0,L|352:56,1,100,0|0,1:0|1:0,0:0:0:0:
113,274,32420,2,0,L|90:176,1,100,0|0,1:0|3:0,0:0:0:0:
398,274,32732,2,0,L|325:343,1,100,0|0,3:0|3:0,0:0:0:0:
256,192,33045,5,0,1:0:0:0:
400,68,33201,1,0,1:0:0:0:
256,192,33357,1,0,3:0:0:0:
400,68,33513,1,0,1:0:0:0:
400,68,33591,1,0,0:0:0:0:
400,68,33670,2,0,L|496:96,1,100,0|0,3:0|0:0,0:0:0:0:
460,220,33982,2,0,L|364:192,1,100,0|0,3:0|0:0,0:0:0:0:
256,192,34295,5,0,3:0:0:0:
184,260,34451,1,0,0:0:0:0:
192,360,34607,1,0,3:0:0:0:
184,260,34763,2,0,P|280:244|352:308,1,200,0|0,0:0|0:0,3:0:0:0:
442,264,35232,1,0,3:0:0:0:
420,166,35388,1,0,0:0:0:0:
328,124,35545,5,0,1:0:0:0:
184,260,35701,1,0,1:0:0:0:
258,93,35857,1,0,3:0:0:0:
253,290,36013,1,0,1:0:0:0:
256,192,36170,2,0,P|339:243|340:338,1,200,0|0,3:0|3:0,0:0:0:0:
252,380,36638,1,0,0:0:0:0:
160,344,36795,6,0,B|94:268|94:268|0:236,1,200,0|0,3:0|3:0,0:0:0:0:
0,147,37263,2,0,B|94:115|94:115|160:40,1,200,0|0,0:0|0:0,3:0:0:0:
256,20,37732,1,0,3:0:0:0:
352,44,37888,1,0,0:0:0:0:
380,140,38045,5,0,1:0:0:0:
132,140,38201,1,0,1:0:0:0:
380,140,38357,1,0,3:0:0:0:
132,140,38513,1,0,1:0:0:0:
132,140,38591,1,0,0:0:0:0:
132,140,38670,2,0,P|116:192|120:236,1,100,0|0,3:0|0:0,0:0:0:0:
304,316,38982,2,0,P|256:304|208:316,1,100,0|0,3:0|0:0,0:0:0:0:
256,192,39295,6,0,P|344:156|440:192,1,200,0|0,3:0|3:0,0:0:0:0:
256,192,39763,2,0,P|168:228|72:192,1,200,0|0,0:0|0:0,3:0:0:0:
68,92,40232,1,0,1:0:0:0:
256,360,40545,5,4,1:0:0:0:
68,92,40857,5,0,1:0:0:0:
68,92,41013,1,4,1:0:0:0:
444,92,41326,5,0,1:0:0:0:
444,92,41482,1,4,1:0:0:0:
256,192,41795,5,0,1:0:0:0:
256,360,41951,5,0,1:0:0:0:
256,360,42029,1,0,1:0:0:0:
256,360,42107,2,0,L|168:312,1,100,0|0,1:0|1:0,0:0:0:0:
110,108,42420,2,0,L|196:55,1,100,0|0,3:0|3:0,0:0:0:0:
401,107,42732,2,0,L|403:208,1,100,0|0,3:0|3:0,0:0:0:0:
256,192,43045,5,4,0:0:0:0:
110,108,43201,1,0,0:0:0:0:
256,192,43357,1,0,1:0:0:0:
402,108,43513,1,0,3:0:0:0:
256,192,43670,2,0,P|190:264|94:254,1,200,0|0,0:0|1:0,3:0:0:0:
24,184,44138,5,0,0:0:0:0:
44,84,44295,2,0,P|92:56|136:56,1,100,0|0,3:0|0:0,0:0:0:0:
212,184,44607,2,0,P|164:212|120:212,1,100,0|0,1:0|3:0,0:0:0:0:
64,124,44920,2,0,P|112:96|156:96,1,100,0|0,0:0|3:0,0:0:0:0:
232,224,45232,2,0,P|184:252|140:252,1,100,0|0,1:0|0:0,0:0:0:0:
8,316,45545,6,0,P|83:378|178:362,1,200,0|0,3:0|1:0,0:0:0:0:
504,316,46013,2,0,P|428:378|333:362,1,200,0|0,3:0|3:0,0:0:0:0:
164,264,46482,2,0,P|256:231|348:264,1,200,0|0,1:0|3:0,0:0:0:0:
333,362,46951,5,0,0:0:0:0:
256,296,47107,2,0,L|256:196,1,100,0|0,1:0|3:0,0:0:0:0:
80,60,47420,2,0,L|120:152,1,100,0|0,0:0|3:0,0:0:0:0:
392,152,47732,2,0,L|432:60,1,100,0|0,1:0|0:0,0:0:0:0:
256,24,48045,6,0,L|256:224,1,200,4|0,3:2|1:0,0:0:0:0:
79,306,48513,2,0,P|50:216|120:152,1,200,0|0,3:0|3:0,0:0:0:0:
432,306,48982,2,0,P|461:216|392:152,1,200,0|0,1:0|3:0,0:0:0:0:
140,240,49451,5,0,0:0:0:0:
372,240,49607,1,0,1:0:0:0:
152,228,49763,1,0,3:0:0:0:
360,228,49920,2,0,L|424:152,1,100,0|0,0:0|3:0,0:0:0:0:
320,44,50232,2,0,L|256:120,1,100,0|0,1:0|0:0,0:0:0:0:
372,240,50545,6,0,B|436:164|436:164|448:60,1,200,0|0,3:0|1:0,0:0:0:0:
140,240,51013,2,0,B|76:164|76:164|64:60,1,200,0|0,3:0|3:0,0:0:0:0:
256,24,51482,2,0,L|256:224,1,200,0|0,1:0|3:0,0:0:0:0:
352,192,51951,5,0,0:0:0:0:
160,124,52107,1,0,1:0:0:0:
352,56,52263,1,0,3:0:0:0:
256,124,52420,2,0,L|256:224,1,100,0|0,0:0|3:0,0:0:0:0:
444,192,52732,2,0,L|444:92,1,100,0|0,1:0|0:0,0:0:0:0:
352,56,53045,5,4,3:2:0:0:
256,24,53201,1,0,0:0:0:0:
160,56,53357,2,0,L|112:144,1,100,0|0,1:0|3:0,0:0:0:0:
240,240,53670,2,0,L|288:152,1,100,0|0,0:0|3:0,0:0:0:0:
128,36,53982,6,0,B|80:124|80:124|80:224,1,200,0|0,1:0|3:0,0:0:0:0:
124,316,54451,1,0,0:0:0:0:
224,324,54607,1,0,1:0:0:0:
308,268,54763,1,0,3:0:0:0:
340,172,54920,2,0,P|317:130|272:108,1,100,0|0,0:0|3:0,0:0:0:0:
60,100,55232,2,0,P|83:58|128:36,1,100,0|0,1:0|0:0,0:0:0:0:
256,192,55545,6,0,P|184:257|88:244,1,200,0|0,3:0|1:0,0:0:0:0:
194,0,56013,6,0,P|135:77|156:172,1,200,0|0,3:0|3:0,0:0:0:0:
232,96,56482,6,0,P|324:125|361:215,1,200,0|0,1:0|3:0,0:0:0:0:
296,296,56951,5,0,0:0:0:0:
256,192,57107,1,0,1:0:0:0:
220,324,57263,1,0,3:0:0:0:
180,168,57420,1,0,1:0:0:0:
144,352,57576,1,0,1:0:0:0:
104,144,57732,1,0,1:0:0:0:
68,380,57888,1,0,3:0:0:0:
28,120,58045,6,0,P|43:218|122:272,1,200,4|0,0:0|0:0,0:0:0:0:
256,192,58513,6,0,L|256:92,2,100,0|0|0,3:0|1:0|0:0,0:0:0:0:
390,272,58982,6,0,P|468:218|484:120,1,200,4|0,3:2|0:0,0:0:0:0:
256,64,59451,5,0,1:0:0:0:
484,120,59607,1,0,3:0:0:0:
256,92,59763,1,0,0:0:0:0:
484,92,59920,2,0,P|468:190|390:244,1,200,0|0,1:0|1:0,0:0:0:0:
256,192,60388,1,0,1:0:0:0:
256,48,60545,6,0,L|62:103,1,200,4|0,3:2|1:0,0:0:0:0:
161,76,61013,6,0,L|112:271,1,200,4|0,3:2|1:0,0:0:0:0:
139,174,61482,6,0,L|283:313,1,200,4|0,3:2|3:0,0:0:0:0:
228,71,61951,5,0,1:0:0:0:
360,257,62107,1,0,1:0:0:0:
151,126,62263,1,0,1:0:0:0:
376,164,62420,1,0,1:0:0:0:
135,219,62576,1,0,1:0:0:0:
321,87,62732,1,0,1:0:0:0:
190,296,62888,1,0,1:0:0:0:
256,192,63045,6,4,L|256:180,63,12.5,0|0|0|0|0|0|0|0|0|0|0|0|0|0|0|0|0|0|0|0|0|0|0|0|0|0|0|0|0|0|0|0|0|0|0|0|0|0|0|0|0|0|0|0|0|0|0|0|0|0|0|0|0|0|0|0|0|0|0|0|0|0|0|0,0:0|0:0|0:0|0:0|0:0|0:0|0:0|0:0|0:0|0:0|0:0|0:0|0:0|0:0|0:0|0:0|0:0|0:0|0:0|0:0|0:0|0:0|0:0|0:0|0:0|0:0|0:0|0:0|0:0|0:0|0:0|0:0|0:0|0:0|0:0|0:0|0:0|0:0|0:0|0:0|0:0|0:0|0:0|0:0|0:0|0:0|0:0|0:0|0:0|0:0|0:0|0:0|0:0|0:0|0:0|0:0|0:0|0:0|0:0|0:0|0:0|0:0|0:0|0:0,0:0:0:0:
256,180,64295,6,0,L|163:102,1,119.999996337891,4|0,0:0|0:0,0:0:0:0:
52,192,64607,2,0,L|144:269,1,119.999996337891,0|0,1:0|3:0,0:0:0:0:
256,180,64920,2,0,L|348:102,1,119.999996337891,0|0,0:0|3:0,0:0:0:0:
460,192,65232,2,0,L|367:269,1,119.999996337891,0|0,1:0|0:0,0:0:0:0:
256,180,65545,5,0,3:0:0:0:
124,32,65857,1,0,1:0:0:0:
183,386,66170,1,0,0:0:0:0:
460,157,66482,1,0,1:0:0:0:
124,32,66795,5,0,3:0:0:0:
40,116,66951,1,0,0:0:0:0:
40,236,67107,1,0,1:0:0:0:
40,116,67263,2,0,P|140:172|144:288,1,239.999992675781,0|0,3:0|3:0,0:0:0:0:
60,376,67732,1,0,1:0:0:0:
184,384,67888,1,0,0:0:0:0:
300,352,68045,6,0,L|268:236,1,119.999996337891,0|0,3:0|0:0,0:0:0:0:
212,32,68357,2,0,L|243:147,1,119.999996337891,0|0,1:0|3:0,0:0:0:0:
186,342,68670,6,0,L|236:233,1,119.999996337891,0|0,0:0|3:0,0:0:0:0:
325,41,68982,2,0,L|275:150,1,119.999996337891,0|0,1:0|0:0,0:0:0:0:
328,260,69295,5,4,0:0:0:0:
424,192,69451,1,0,1:0:0:0:
424,192,69529,1,0,1:0:0:0:
424,192,69607,2,0,P|480:216|512:264,1,119.999996337891,0|4,1:0|0:0,0:0:0:0:
416,336,69920,1,0,0:0:0:0:
296,328,70076,1,0,0:0:0:0:
512,264,70232,1,0,1:0:0:0:
424,192,70388,1,0,0:0:0:0:
304,192,70545,5,4,0:0:0:0:
220,276,70701,1,0,1:0:0:0:
220,276,70779,1,0,1:0:0:0:
220,276,70857,2,0,P|164:268|128:220,1,119.999996337891,0|4,1:0|0:0,0:0:0:0:
132,92,71170,1,0,0:0:0:0:
380,92,71326,1,0,0:0:0:0:
132,92,71482,1,0,1:0:0:0:
208,24,71638,1,0,0:0:0:0:
304,24,71795,5,4,0:0:0:0:
380,92,71951,1,0,1:0:0:0:
380,92,72029,1,0,1:0:0:0:
380,92,72107,2,0,P|380:152|344:196,1,119.999996337891,0|4,1:0|0:0,0:0:0:0:
168,188,72420,1,0,0:0:0:0:
248,96,72576,5,0,1:0:0:0:
252,142,72654,1,0,1:0:0:0:
256,192,72732,1,0,1:0:0:0:
260,240,72810,1,0,1:0:0:0:
265,288,72888,1,4,0:0:0:0:
64,348,73201,1,4,0:0:0:0:
448,36,73513,1,4,0:0:0:0:
64,348,73826,5,0,1:0:0:0:
256,192,73982,1,0,1:0:0:0:
228,144,74060,1,0,1:0:0:0:
180,120,74138,1,0,1:0:0:0:
124,112,74216,1,0,1:0:0:0:
72,128,74295,6,0,P|64:72|92:12,1,119.999996337891,4|0,0:0|0:0,0:0:0:0:
440,128,74607,2,0,P|448:72|420:12,1,119.999996337891,0|0,1:0|3:0,0:0:0:0:
124,112,74920,2,0,P|140:56|184:16,1,119.999996337891,0|0,0:0|3:0,0:0:0:0:
388,112,75232,2,0,P|372:56|328:16,1,119.999996337891,0|0,1:0|0:0,0:0:0:0:
256,192,75545,5,0,3:0:0:0:
57,190,75857,1,0,1:0:0:0:
356,20,76169,1,0,0:0:0:0:
354,364,76482,1,0,1:0:0:0:
57,190,76795,5,4,3:2:0:0:
40,72,76951,1,0,0:0:0:0:
148,20,77107,1,0,1:0:0:0:
256,72,77263,2,0,L|256:312,1,239.999992675781,0|0,3:0|0:0,0:0:0:0:
364,364,77732,5,0,1:0:0:0:
472,312,77888,1,0,0:0:0:0:
455,194,78044,1,4,0:0:0:0:
455,194,78201,1,0,0:0:0:0:
256,20,78357,5,0,1:0:0:0:
256,20,78513,1,0,0:0:0:0:
57,194,78670,5,0,3:0:0:0:
57,194,78826,1,0,3:0:0:0:
256,20,78982,5,0,1:0:0:0:
256,20,79138,1,0,0:0:0:0:
455,194,79295,6,0,P|388:288|272:284,1,239.999992675781,4|0,3:2|1:0,0:0:0:0:
256,164,79763,1,0,3:0:0:0:
320,60,79920,2,0,P|380:60|432:88,1,119.999996337891,0|0,0:0|3:0,0:0:0:0:
338,313,80232,2,0,P|308:365|258:396,1,119.999996337891,0|0,1:0|0:0,0:0:0:0:
109,202,80545,2,0,P|79:150|77:91,1,119.999996337891,4|0,3:2|0:0,0:0:0:0:
184,40,80857,5,0,1:0:0:0:
256,112,81013,1,0,0:0:0:0:
228,208,81170,2,0,L|132:280,1,119.999996337891,0|0,1:0|1:0,0:0:0:0:
232,364,81482,2,0,L|329:291,1,119.999996337891,0|0,3:0|3:0,0:0:0:0:
504,192,81795,6,0,P|427:103|310:105,1,239.999992675781,4|0,0:0|1:0,0:0:0:0:
152,256,82263,2,0,P|257:307|360:256,1,239.999992675781,4|0,0:0|1:0,0:0:0:0:
200,104,82732,2,0,P|84:103|8:192,1,239.999992675781,4|0,0:0|1:0,0:0:0:0:
256,376,83357,5,0,0:0:0:0:
504,192,83670,1,0,0:0:0:0:
420,244,83826,1,0,3:0:0:0:
336,192,83982,2,0,P|239:194|184:272,1,200,0|4,1:0|0:0,0:1:0:0:
328,304,84451,5,0,1:0:0:0:
183,272,84607,1,0,1:0:0:0:
332,272,84763,1,0,3:0:0:0:
180,248,84920,1,0,1:0:0:0:
336,244,85076,1,0,1:0:0:0:
176,216,85232,1,4,0:0:0:0:
340,212,85388,1,0,1:0:0:0:
172,188,85545,1,0,1:0:0:0:
344,184,85701,1,4,1:2:0:0:
256,28,86013,5,0,1:0:0:0:
