osu file format v14

[General]
AudioFilename: BW.mp3
AudioLeadIn: 2000
PreviewTime: 63878
Countdown: 0
SampleSet: Normal
StackLeniency: 0.4
Mode: 0
LetterboxInBreaks: 0
WidescreenStoryboard: 0

[Editor]
Bookmarks: 11457,22707,42707
DistanceSpacing: 1
BeatDivisor: 4
GridSize: 4
TimelineZoom: 1

[Metadata]
Title:Black + White (TV Size)
TitleUnicode:Black † White (TV Size)
Artist:Nomizu Iori
ArtistUnicode:野水伊織
Creator:Fumika
Version:Normal
Source:問題児たちが異世界から来るそうですよ?
Tags:opening Netsukawa Mikkuri 0OoMickeyoO0 cRyo[iceeicee] japanese pop jpop j-pop anime Mondaiji-tachi ga Isekai kara Kuru Sou Desu yo?
BeatmapID:218288
BeatmapSetID:77691

[Difficulty]
HPDrainRate:3
CircleSize:4
OverallDifficulty:3
ApproachRate:5
SliderMultiplier:0.98
SliderTickRate:1

[Events]
//Background and Video events
0,0,"mondaiji.jpg",0,0
Video,0,"BW.avi"
//Break Periods
//Storyboard Layer 0 (Background)
//Storyboard Layer 1 (Fail)
//Storyboard Layer 2 (Pass)
//Storyboard Layer 3 (Foreground)
//Storyboard Layer 4 (Overlay)
//Storyboard Sound Samples

[TimingPoints]
207,625,4,1,1,30,1,0
207,-83.3333333333333,4,1,1,30,0,0
363,-83.3333333333333,4,2,2,30,0,0
10832,-83.3333333333333,4,2,2,5,0,0
11457,312.5,4,1,1,77,1,0
22707,-100,4,2,3,77,0,0
29894,-100,4,1,1,77,0,0
32394,-100,4,1,1,40,0,0
32707,-100,4,2,3,77,0,0
39894,-100,4,1,1,77,0,0
42394,-100,4,1,1,40,0,0
42707,-100,4,1,1,77,0,0
57394,-100,4,1,1,50,0,0
57707,-100,4,1,1,70,0,0
62707,-100,4,2,1,30,0,0
63957,-100,4,1,1,77,0,1
73878,-100,4,1,1,77,0,0
73957,-100,4,1,1,77,0,1
81144,-100,4,1,1,50,0,1
81300,-100,4,1,1,40,0,1
81457,-100,4,1,1,77,0,1
83019,-100,4,2,1,77,0,0
83488,-100,4,1,1,77,0,0
83957,-100,4,1,1,77,0,1
84035,-100,4,1,1,77,0,0

[Colours]
Combo1 : 218,218,218
Combo2 : 255,89,89
Combo3 : 132,153,251
Combo4 : 64,128,128
Combo5 : 128,255,0
Combo6 : 255,0,134
Combo7 : 223,166,32
Combo8 : 199,96,238

[HitObjects]
28,184,207,6,0,P|36:240|88:256,1,117.599996411133,4|0,0:0|0:0,0:0:0:0:
204,236,1457,2,0,B|260:224|260:248|324:236,1,117.599996411133,2|0,0:0|0:0,0:0:0:0:
360,212,2394,6,0,P|392:200|428:200,2,58.7999982055665,2|0|2,0:0|0:0|0:0,0:0:0:0:
352,260,3332,2,0,P|332:312|168:312,1,235.199992822266,4|0,0:0|0:0,0:0:0:0:
116,220,5207,6,0,L|108:76,1,117.599996411133,4|0,0:0|0:0,0:0:0:0:
228,96,6457,2,0,L|240:240,2,117.599996411133,4|0|2,0:0|0:0|0:0,0:0:0:0:
344,84,8332,1,4,0:0:0:0:
256,192,8488,12,0,10832,0:0:0:0:
168,272,11457,6,0,P|144:232|144:176,1,98,4|8,0:0|0:0,0:0:0:0:
160,136,11925,2,0,L|260:112,1,98,0|0,0:0|0:0,0:0:0:0:
296,140,12394,2,0,P|320:180|320:236,1,98,8|0,0:0|0:0,0:0:0:0:
292,272,12863,2,0,L|296:324,1,49,0|8,0:0|0:0,0:0:0:0:
392,332,13332,2,0,L|388:280,1,49,0|0,0:0|0:0,0:0:0:0:
420,248,13644,2,0,L|416:196,1,49,8|0,0:0|0:0,0:0:0:0:
404,152,13957,6,0,P|376:108|332:88,1,98,0|8,0:0|0:0,0:0:0:0:
296,116,14425,2,0,P|248:132|196:120,1,98,0|0,0:0|0:0,0:0:0:0:
164,92,14894,1,8,0:0:0:0:
64,88,15207,2,0,L|4:92,2,49,0|0|8,0:0|0:0|0:0,0:0:0:0:
112,176,15832,6,0,P|120:224|104:284,2,98,0|8|4,0:0|0:0|0:0,0:0:0:0:
24,220,16769,1,8,0:0:0:0:
20,268,16925,2,0,P|32:320|76:356,1,98,0|0,0:0|0:0,0:0:0:0:
112,348,17394,2,0,L|216:344,1,98,8|0,0:0|0:0,0:0:0:0:
252,320,17863,1,0,0:0:0:0:
348,316,18175,5,0,0:0:0:0:
392,340,18332,2,0,P|440:340|472:304,2,98,0|8|4,0:0|0:0|0:0,0:0:0:0:
368,244,19269,2,0,L|360:180,1,49,8|4,0:0|0:0,0:0:0:0:
264,176,19738,2,0,L|272:240,1,49,8|4,0:0|0:0,0:0:0:0:
256,192,19972,12,4,22082,0:2:0:0:
168,140,22707,6,0,L|112:140,2,49,0|0|8,1:0|1:0|0:0,0:0:0:0:
212,124,23175,2,0,P|284:100|352:120,1,147,0|8,1:0|0:0,0:0:0:0:
396,208,23957,2,0,L|400:308,1,98,8|8,0:0|0:0,0:0:0:0:
360,336,24425,1,0,0:0:0:0:
320,360,24582,2,0,P|272:372|212:360,1,98,8|8,0:0|0:0,0:0:0:0:
140,316,25207,6,0,L|80:336,2,49,0|0|8,1:0|1:0|0:0,0:0:0:0:
184,300,25675,2,0,P|208:236|192:156,1,147,0|8,1:0|0:0,0:0:0:0:
124,88,26457,1,8,0:0:0:0:
220,64,26769,1,8,0:0:0:0:
284,140,27082,2,0,P|332:152|384:140,1,98,8|8,0:0|0:0,0:0:0:0:
476,120,27707,6,0,L|488:64,2,49,0|0|8,1:0|1:0|0:0,0:0:0:0:
464,164,28175,2,0,P|444:240|380:272,1,147,0|8,1:0|0:0,0:0:0:0:
372,176,28957,2,0,P|324:160|272:168,1,98,8|8,0:0|0:0,0:0:0:0:
248,204,29425,2,0,L|248:356,1,147,0|8,0:0|0:0,0:0:0:0:
160,312,30207,6,0,L|160:212,1,98,4|8,0:0|0:0,0:0:0:0:
184,172,30675,2,0,L|184:72,1,98,4|8,0:0|0:0,0:0:0:0:
148,40,31144,1,4,0:0:0:0:
116,232,31769,6,0,P|148:256|208:260,1,98,0|0,0:0|0:0,0:0:0:0:
284,204,32394,2,0,P|344:184|396:200,1,98,4|0,0:3|1:0,0:0:0:0:
420,216,32863,1,0,1:0:0:0:
452,252,33019,6,0,B|452:292|452:292|460:320|460:320|460:352,2,98,8|8|8,0:0|0:0|0:0,0:0:0:0:
472,156,33957,1,8,0:0:0:0:
416,76,34269,2,0,L|416:20,2,49,8|0|8,0:0|0:0|0:0,0:0:0:0:
344,144,34894,2,0,P|296:156|248:144,1,98,8|0,0:0|1:0,0:0:0:0:
208,120,35363,5,0,1:0:0:0:
208,120,35519,2,0,P|160:104|112:112,1,98,8|8,0:0|0:0,0:0:0:0:
60,192,36144,2,0,L|64:300,1,98,8|8,0:0|0:0,0:0:0:0:
140,352,36769,2,0,P|172:368|200:372,2,49,8|0|8,0:0|0:0|0:0,0:0:0:0:
196,272,37394,2,0,P|244:260|292:272,1,98,8|0,0:0|1:0,0:0:0:0:
328,300,37863,5,0,1:0:0:0:
328,300,38019,2,0,P|376:312|432:300,2,98,8|8|8,0:0|0:0|0:0,0:0:0:0:
292,208,38957,2,0,L|308:96,1,98,8|8,0:0|0:0,0:0:0:0:
284,68,39425,2,0,P|220:40|140:60,1,147,0|8,0:0|0:0,0:0:0:0:
68,116,40207,6,0,L|72:224,1,98,4|8,0:0|0:0,0:0:0:0:
116,232,40675,2,0,L|112:336,1,98,4|8,0:0|0:0,0:0:0:0:
68,348,41144,1,4,0:0:0:0:
68,152,41769,6,0,P|116:140|172:156,1,98,0|0,0:0|0:0,0:0:0:0:
240,212,42394,2,0,P|288:224|344:208,1,98,4|4,0:3|2:0,0:0:0:0:
380,196,42863,2,0,L|380:144,1,49,0|8,2:0|0:0,0:0:0:0:
420,120,43175,2,0,L|420:60,1,49,0|0,0:0|2:0,0:0:0:0:
336,16,43644,6,0,P|288:4|232:20,2,98,8|0|8,0:0|0:0|0:0,0:0:0:0:
288,100,44582,2,0,B|292:148|292:148|280:200,1,98,0|8,2:0|0:0,0:0:0:0:
200,144,45207,2,0,B|168:176|168:176|116:192,1,98,0|8,0:0|0:0,0:0:0:0:
68,192,45675,2,0,L|16:192,1,49,0|0,0:0|0:0,0:0:0:0:
0,288,46144,2,0,L|116:288,1,98,8|0,0:0|0:0,0:0:0:0:
144,308,46613,2,0,L|204:308,1,49,0|8,0:0|0:0,0:0:0:0:
292,320,47082,6,0,L|348:320,1,49,0|0,0:0|0:0,0:0:0:0:
388,320,47394,1,8,0:0:0:0:
476,272,47707,2,0,P|500:232|496:180,1,98,4|8,0:2|0:0,0:0:0:0:
460,148,48175,2,0,P|444:108|464:48,1,98
476,12,48644,1,8,0:0:0:0:
380,24,48957,2,0,L|312:32,2,49,0|0|8,0:0|0:0|0:0,0:0:0:0:
344,116,49582,6,0,L|296:112,1,49,0|0,2:0|0:0,0:0:0:0:
248,108,49894,1,8,0:0:0:0:
156,136,50207,2,0,P|120:164|108:216,1,98,0|8,0:0|0:0,0:0:0:0:
60,220,50675,2,0,P|64:268|100:316,1,98,0|0,0:0|0:0,0:0:0:0:
140,324,51144,1,8,0:0:0:0:
236,312,51457,6,0,L|292:304,2,49,0|0|8,0:0|0:0|0:0,0:0:0:0:
276,224,52082,2,0,L|340:228,2,49,0|0|8,2:0|0:0|0:0,0:0:0:0:
192,176,52707,6,0,P|184:148|188:124,1,49,4|0,0:2|2:0,0:0:0:0:
212,84,53019,2,0,L|272:76,1,49,8|0,0:0|0:0,0:0:0:0:
308,72,53332,1,0,2:0:0:0:
384,132,53644,2,0,B|420:136|420:136|448:128|448:128|488:132,2,98,8|0|8,0:0|0:0|0:0,0:0:0:0:
396,228,54582,2,0,P|400:276|368:332,1,98,0|8,2:0|0:0,0:0:0:0:
304,256,55207,6,0,P|272:284|216:284,1,98,0|8,0:0|0:0,0:0:0:0:
180,256,55675,2,0,L|124:260,1,49,0|0,0:0|0:0,0:0:0:0:
104,164,56144,2,0,L|208:156,1,98,8|0,0:0|0:0,0:0:0:0:
252,152,56613,1,0,0:0:0:0:
300,148,56769,1,8,0:0:0:0:
384,200,57082,1,0,0:0:0:0:
464,140,57394,1,8,0:3:0:0:
440,44,57707,6,0,B|372:16|372:16|296:40,1,147,4|0,0:2|0:0,0:0:0:0:
256,56,58332,2,0,B|208:68|208:68|148:56,1,98,8|4,0:0|0:2,0:0:0:0:
68,24,58957,2,0,B|44:20|44:20|8:28,2,49,0|8|0,0:0|0:0|0:0,0:0:0:0:
48,120,59582,1,8,0:0:0:0:
120,184,59894,5,8,0:0:0:0:
120,184,60050,1,8,0:0:0:0:
120,184,60207,2,0,L|224:180,1,98,4|8,0:2|0:0,0:0:0:0:
260,208,60675,2,0,P|304:224|360:192,1,98,4|8,0:2|0:0,0:0:0:0:
380,164,61144,1,4,2:0:0:0:
256,192,61222,12,2,62707,0:0:0:0:
252,284,63957,5,4,0:0:0:0:
252,284,64113,2,0,L|192:288,1,49,2|8,0:0|0:0,0:0:0:0:
168,252,64425,2,0,L|108:256,1,49,2|0,0:0|0:0,0:0:0:0:
84,220,64738,2,0,L|24:224,1,49,2|8,0:0|0:0,0:0:0:0:
40,124,65207,5,0,0:0:0:0:
92,40,65519,1,8,0:0:0:0:
188,56,65832,2,0,B|224:61|224:61|252:56|252:56|288:64,1,98,0|8,0:0|0:0,0:0:0:0:
380,48,66457,5,0,0:0:0:0:
380,48,66613,2,0,L|384:108,1,49,2|8,0:0|0:0,0:0:0:0:
416,132,66925,2,0,L|416:192,1,49,2|0,0:0|0:0,0:0:0:0:
436,228,67238,2,0,L|432:280,1,49,2|8,0:0|0:0,0:0:0:0:
344,316,67707,5,0,0:0:0:0:
264,264,68019,1,8,0:0:0:0:
168,244,68332,2,0,B|136:236|136:236|108:240|108:240|64:224,1,98,0|8,0:0|0:0,0:0:0:0:
132,148,68957,5,4,0:0:0:0:
132,148,69113,2,0,L|136:88,1,49,0|8,0:0|0:0,0:0:0:0:
100,68,69425,2,0,L|104:8,2,49,4|0|0,0:0|0:0|0:0,0:0:0:0:
20,192,70207,5,4,0:0:0:0:
20,192,70363,2,0,L|24:248,1,49,0|8,0:0|0:0,0:0:0:0:
56,276,70675,2,0,L|60:332,2,49,4|0|0,0:0|0:0|0:0,0:0:0:0:
180,352,71457,6,0,L|240:356,1,49,4|0,0:0|0:0,0:0:0:0:
268,324,71769,2,0,L|328:328,1,49,8|4,0:0|0:0,0:0:0:0:
360,352,72082,2,0,L|432:344,1,49,0|0,0:0|0:0,0:0:0:0:
496,300,72550,5,4,0:0:0:0:
500,200,72863,1,4,0:0:0:0:
412,156,73175,2,0,B|364:140|364:140|312:156,1,98,4|8,0:0|0:0,0:0:0:0:
272,172,73644,1,8,0:0:0:0:
188,144,73957,6,0,L|156:192,1,49,4|2,0:0|0:0,0:0:0:0:
136,224,74269,1,8,0:0:0:0:
136,224,74425,2,0,P|144:276|180:316,1,98,2|2,0:0|0:0,0:0:0:0:
220,312,74894,6,0,L|288:316,2,49,8|2|0,0:0|0:0|0:0,0:0:0:0:
264,224,75519,1,8,0:0:0:0:
356,256,75832,2,0,B|392:264|392:264|420:260|420:260|452:268,1,98,0|8,0:0|0:0,0:0:0:0:
484,176,76457,5,0,0:0:0:0:
472,128,76613,1,2,0:0:0:0:
460,80,76769,2,0,L|444:16,1,49,8|2,0:0|0:0,0:0:0:0:
352,24,77238,2,0,L|328:88,1,49,2|8,0:0|0:0,0:0:0:0:
316,116,77550,1,2,0:0:0:0:
296,160,77707,1,0,0:0:0:0:
216,216,78019,6,0,P|168:212|132:176,1,98,8|0,0:0|0:0,0:0:0:0:
160,84,78644,2,0,P|112:84|64:112,1,98,8|4,0:0|0:0,0:0:0:0:
44,204,79269,2,0,L|36:264,2,49,8|0|0,0:0|0:0|0:0,0:0:0:0:
120,264,79894,1,8,0:0:0:0:
120,264,80207,2,0,P|168:280|224:264,1,98,4|8,0:0|0:0,0:0:0:0:
296,220,80832,2,0,L|356:224,1,49,0|0,0:0|0:0,0:0:0:0:
368,268,81144,2,0,L|432:264,1,49,12|4,0:3|0:3,0:0:0:0:
464,260,81457,6,0,P|496:232|500:164,1,98,4|8,0:0|0:0,0:0:0:0:
476,140,81925,2,0,L|392:88,1,98,4|8,0:0|0:0,0:0:0:0:
344,88,82394,2,0,P|312:116|308:184,1,98,4|12,0:0|0:0,0:0:0:0:
352,252,83019,5,2,0:0:0:0:
296,332,83332,1,2,0:0:0:0:
200,320,83644,1,8,0:0:0:0:
164,228,83957,6,0,L|96:212,2,49,4|8|8,0:0|0:0|0:0,0:0:0:0:
208,196,84425,2,0,L|276:212,2,49,4|8|8,0:0|0:0|0:0,0:0:0:0:
184,148,84894,2,0,L|116:132,2,49,4|8|8,0:0|0:0|0:0,0:0:0:0:
228,112,85363,5,4,0:0:0:0:
324,92,85675,1,4,0:0:0:0:
