osu file format v14

[General]
AudioFilename: audio.mp3
AudioLeadIn: 0
PreviewTime: 75583
Countdown: 0
SampleSet: Soft
StackLeniency: 0.2
Mode: 0
LetterboxInBreaks: 0
WidescreenStoryboard: 1

[Editor]
Bookmarks: 11332,21999,23509,32666,75332,96666,101999,112666,155332,179332,197999
DistanceSpacing: 1.4
BeatDivisor: 8
GridSize: 4
TimelineZoom: 1.8

[Metadata]
Title:Hanashirube (OP Edit)
TitleUnicode:花標(OP Edit)
Artist:Nomiyama Mutsumi
ArtistUnicode:野見山睦未
Creator:Gust
Version:Dusk
Source:アーシャのアトリエ~黄昏の大地の錬金術士~
Tags:Atelier Ayesha: The Alchemist of Dusk Tasogare no Daichi no Renkinjutsushi video game gust japanese
BeatmapID:2011761
BeatmapSetID:960928

[Difficulty]
HPDrainRate:6
CircleSize:6
OverallDifficulty:6
ApproachRate:7
SliderMultiplier:1
SliderTickRate:1

[Events]
//Background and Video events
0,0,"maxresdefault.jpg",0,0
Video,0,"op.mp4"
//Break Periods
//Storyboard Layer 0 (Background)
//Storyboard Layer 1 (Fail)
//Storyboard Layer 2 (Pass)
//Storyboard Layer 3 (Foreground)
//Storyboard Sound Samples

[TimingPoints]
1881,666.666666666667,4,2,1,20,1,0
1881,-133.333333333333,4,2,1,20,0,0
6436,-133.333333333333,4,2,1,8,0,0
7214,-133.333333333333,4,2,1,20,0,0
22547,-133.333333333333,4,2,1,10,0,0
23214,667.408231368187,4,2,1,30,1,0
31890,-100,4,2,1,30,0,0
33892,671.140939597315,4,2,1,30,1,0
34563,-83.3333333333333,4,2,1,30,0,0
37079,-83.3333333333333,4,2,1,8,0,0
37247,-83.3333333333333,4,2,1,30,0,0
37751,-83.3333333333333,4,2,1,8,0,0
37918,-83.3333333333333,4,2,1,30,0,0
38422,-83.3333333333333,4,2,1,8,0,0
38589,-83.3333333333333,4,2,1,30,0,0
39093,-83.3333333333333,4,2,1,8,0,0
39261,662.983425414365,4,2,1,30,1,0
44564,671.140939597315,4,2,1,30,1,0
47248,668.896321070234,4,2,1,30,1,0
47749,-100,4,2,1,8,0,0
47916,-100,4,2,1,30,0,0
48418,-100,4,2,1,8,0,0
48585,-100,4,2,1,30,0,0
49087,-100,4,2,1,8,0,0
49254,-100,4,2,1,30,0,0
49756,-100,4,2,1,8,0,0
49923,665.926748057714,4,2,1,30,1,0
49923,-83.3333333333333,4,2,1,30,0,0
50255,-62.5,4,2,1,30,0,0
50588,-50,4,2,1,30,0,0
51254,-83.3333333333333,4,2,1,30,0,0
53585,-83.3333333333333,4,2,1,40,0,0
54584,-83.3333333333333,4,2,1,50,0,0
54806,-83.3333333333333,4,2,1,30,0,0
55250,666.666666666667,4,2,1,30,1,0
58416,-100,4,2,1,8,0,0
58583,-100,4,2,1,30,0,0
59083,-100,4,2,1,8,0,0
59250,-100,4,2,1,30,0,0
59750,-100,4,2,1,8,0,0
59916,-100,4,2,1,30,0,0
60416,-100,4,2,1,8,0,0
60583,-100,4,2,1,30,0,0
69083,-100,4,2,1,8,0,0
69250,-100,4,2,1,30,0,0
69750,-100,4,2,1,8,0,0
69916,-100,4,2,1,30,0,0
72250,-100,4,2,1,15,0,0
72583,-55.5555555555556,4,2,1,25,0,0
72833,-55.5555555555556,4,2,1,8,0,0
72916,-37.037037037037,4,2,1,20,0,0
73166,-37.037037037037,4,2,1,8,0,0
73250,-27.7777777777778,4,2,1,35,0,0
73500,-27.7777777777778,4,2,1,8,0,0
73583,-22.2222222222222,4,2,1,50,0,0
73833,-22.2222222222222,4,2,1,8,0,0
73916,-55.5555555555556,4,2,1,20,0,0
74250,-55.5555555555556,4,2,1,20,0,0
74500,-55.5555555555556,4,2,1,8,0,0
74583,-37.037037037037,4,2,1,25,0,0
74833,-37.037037037037,4,2,1,8,0,0
74916,-27.7777777777778,4,2,1,35,0,0
75166,-27.7777777777778,4,2,1,8,0,0
75250,-22.2222222222222,4,2,1,50,0,0
75500,-22.2222222222222,4,2,1,8,0,0
75583,-50,4,2,1,25,0,0
75833,-50,4,2,1,8,0,0
75916,-40,4,2,1,30,0,0
76166,-40,4,2,1,8,0,0
76250,-33.3333333333333,4,2,1,35,0,0
76501,-33.3333333333333,4,2,1,8,0,0
76583,652.173913043478,4,2,1,35,1,1
76583,-37.037037037037,4,2,1,35,0,1
77887,659.340659340659,4,2,1,35,1,1
77887,-55.5555555555556,4,2,1,35,0,1
78436,-55.5555555555556,4,2,1,8,0,1
78546,-55.5555555555556,4,2,1,35,0,1
78766,-55.5555555555556,4,2,1,8,0,1
78876,-55.5555555555556,4,2,1,35,0,1
79095,-55.5555555555556,4,2,1,8,0,1
79205,666.666666666667,4,2,1,35,1,1
79205,-27.7777777777778,4,2,1,35,0,1
80538,674.157303370787,4,2,1,35,1,1
80875,-37.037037037037,4,2,1,35,0,1
81127,-37.037037037037,4,2,1,8,0,1
81212,-27.7777777777778,4,2,1,35,0,1
81464,-27.7777777777778,4,2,1,8,0,1
81549,-25,4,2,1,35,0,1
81802,-25,4,2,1,8,0,1
81886,666.666666666667,4,2,1,35,1,1
81886,-55.5555555555556,4,2,1,35,0,1
84552,-37.037037037037,4,2,1,35,0,1
86552,-27.7777777777778,4,2,1,35,0,1
87219,-37.037037037037,4,2,1,35,0,1
88886,-27.7777777777778,4,2,1,35,0,1
89219,-25,4,2,1,35,0,1
92552,-37.037037037037,4,2,1,35,0,1
92886,-27.7777777777778,4,2,1,35,0,1
93219,-25,4,2,1,35,0,1
94052,-37.037037037037,4,2,1,35,0,1
94552,-27.7777777777778,4,2,1,35,0,1
94886,-25,4,2,1,35,0,1
95219,-37.037037037037,4,2,1,35,0,1
97886,-83.3333333333333,4,2,1,35,0,0
98469,-83.3333333333333,4,2,1,8,0,0
98552,-83.3333333333333,4,2,1,10,0,0
99136,-83.3333333333333,4,2,1,8,0,0
99219,-83.3333333333333,4,2,1,10,0,0
99802,-83.3333333333333,4,2,1,8,0,0
99886,-83.3333333333333,4,2,1,10,0,0
100469,-83.3333333333333,4,2,1,8,0,0
100552,-83.3333333333333,4,2,1,10,0,0
101136,-83.3333333333333,4,2,1,8,0,0
101219,-83.3333333333333,4,2,1,10,0,0
101802,-83.3333333333333,4,2,1,8,0,0
101886,697.674418604651,4,2,1,10,1,0
102409,800,4,2,1,10,1,0
102609,689.655172413793,4,2,1,10,1,0

[Colours]
Combo1 : 128,0,255
Combo2 : 255,179,255
Combo3 : 255,0,128
Combo4 : 36,36,255
Combo5 : 0,255,0
Combo6 : 255,255,0
Combo7 : 0,255,255
Combo8 : 255,0,0

[HitObjects]
102,31,1881,5,0,0:0:0:0:
152,82,2214,1,0,0:0:0:0:
118,145,2547,1,2,0:0:0:0:
48,132,2880,1,0,0:0:0:0:
38,61,3214,1,2,0:0:0:0:
38,61,3881,1,2,0:0:0:0:
92,90,4547,38,0,P|92:151|73:219,1,112.500004291535,2|0,0:0|0:0,0:0:0:0:
55,256,5881,1,2,0:0:0:0:
183,74,6436,6,0,L|191:87,1,12.5000004768372,0|8,0:0|0:0,0:0:0:0:
410,31,7214,69,2,0:0:0:0:
360,82,7547,1,0,0:0:0:0:
394,145,7880,1,2,0:0:0:0:
464,132,8213,1,0,0:0:0:0:
474,61,8547,1,2,0:0:0:0:
474,61,9214,1,2,0:0:0:0:
420,90,9881,22,0,P|420:150|438:211,1,112.500004291535,2|0,0:0|0:0,0:0:0:0:
460,253,11214,2,0,L|472:275,2,18.7500007152558,2|0|0,0:0|0:0|0:0,0:0:0:0:
393,291,11769,2,0,L|389:307,1,12.5000004768372,0|2,0:0|0:0,0:0:0:0:
102,353,12547,53,2,0:0:0:0:
85,283,12881,1,0,0:0:0:0:
12,273,13214,1,2,0:0:0:0:
81,293,13548,1,0,0:0:0:0:
126,235,13881,1,2,0:0:0:0:
74,284,14215,1,0,0:0:0:0:
57,214,14547,54,0,P|55:172|57:161,2,37.5000014305115,2|0|2,0:0|0:0|0:0,0:0:0:0:
57,214,15881,2,0,P|55:172|62:131,1,75.0000028610231,2|2,0:0|0:0,0:0:0:0:
183,310,17214,2,0,L|190:297,4,9.37500035762788,2|0|0|0|0,0:0|0:0|0:0|0:0|0:0,0:0:0:0:
410,353,17881,53,2,0:0:0:0:
427,283,18215,1,0,0:0:0:0:
500,273,18548,1,2,0:0:0:0:
431,293,18882,1,0,0:0:0:0:
386,235,19215,1,2,0:0:0:0:
438,284,19547,1,0,0:0:0:0:
455,214,19881,54,0,P|457:172|455:161,2,37.5000014305115,2|0|2,0:0|0:0|0:0,0:0:0:0:
455,214,21214,2,0,P|457:172|450:131,2,75.0000028610231,0|2|2,0:0|0:0|0:0,0:0:0:0:
319,295,23214,54,0,P|316:302|314:310,1,16.6666666666667,2|0,0:0|0:0,0:0:0:0:
284,251,23436,2,0,P|280:244|274:238,1,16.6666666666667
339,242,23658,2,0,P|347:240|355:238,1,16.6666666666667
320,295,23881,54,0,P|311:326|314:368,1,75,2|0,0:0|0:0,0:0:0:0:
391,349,24548,54,0,P|378:343|361:343,1,25,2|0,0:0|0:0,0:0:0:0:
412,328,24882,2,0,P|423:319|432:305,1,25
419,356,25216,2,0,P|421:370|428:384,2,25,2|0|0,0:0|0:0|0:0,0:0:0:0:
452,192,25883,37,2,0:0:0:0:
444,173,26217,69,0,0:0:0:0:
440,208,26384,1,0,0:0:0:0:
472,194,26551,2,0,B|508:194|517:170|517:170|497:165|486:192,1,75,2|0,0:0|0:0,0:0:0:0:
440,208,27218,2,0,B|422:239|438:258|438:258|452:244|434:221,1,75,2|0,0:0|0:0,0:0:0:0:
444,173,27885,2,0,B|425:141|400:146|400:146|406:165|435:161,1,75,2|0,0:0|0:0,0:0:0:0:
452,192,28553,54,0,P|454:186|455:164,2,25,2|0|0,0:0|0:0|0:0,0:0:0:0:
455,167,29220,2,0,P|453:133|443:93,1,75,2|0,0:0|0:0,0:0:0:0:
388,119,29888,5,2,0:0:0:0:
330,135,30054,1,0,0:0:0:0:
270,129,30221,1,0,0:0:0:0:
215,102,30388,102,0,P|199:93|179:89,3,25,0|2|0|0,0:0|0:0|0:0|0:0,0:0:0:0:
192,91,31222,2,0,P|150:80|108:84,1,75,2|0,0:0|0:0,0:0:0:0:
117,48,31890,6,0,P|111:55|109:62,1,16.6666666666667,2|0,0:0|0:0,0:0:0:0:
88,38,32112,2,0,P|87:46|89:54,1,16.6666666666667
58,47,32335,2,0,P|63:54|70:60,1,16.6666666666667
41,75,32557,2,0,P|49:77|58:76,1,16.6666666666667,2|0,0:0|0:0,0:0:0:0:
46,107,32780,2,0,P|54:104|60:98,1,16.6666666666667
66,127,33002,2,0,P|71:120|73:112,1,16.6666666666667
101,130,33225,2,0,P|99:122|96:115,1,16.6666666666667,2|0,0:0|0:0,0:0:0:0:
123,112,33447,2,0,P|117:106|110:103,1,16.6666666666667
133,77,33670,2,0,P|124:78|117:81,2,16.6666666666667,0|0|2,0:0|0:0|0:0,0:0:0:0:
111,351,34563,54,0,B|99:365|83:360|83:360|75:347|86:322,1,59.9999981689454,2|0,0:0|0:0,0:0:0:0:
66,275,35066,2,0,B|59:257|71:245|71:245|87:245|102:267,1,59.9999981689454
154,274,35569,2,0,B|172:276|176:293|176:293|168:306|141:309,2,59.9999981689454,0|2|0,0:0|0:0|0:0,0:0:0:0:
95,258,36576,6,0,P|53:272|-6:275,1,89.9999972534181,2|0,0:0|0:0,0:0:0:0:
180,192,37247,2,0,P|135:183|94:167,1,89.9999972534181
331,192,37918,2,0,P|376:183|417:167,1,89.9999972534181,2|0,0:0|0:0,0:0:0:0:
417,258,38589,2,0,P|459:272|518:275,1,89.9999972534181
331,192,39261,6,0,P|405:168|496:175,1,150,2|2,0:0|0:0,0:0:0:0:
479,228,40421,1,0,0:0:0:0:
413,108,40586,6,0,L|443:103,2,25,0|0|2,0:0|0:0|0:0,0:0:0:0:
101,66,41249,2,0,L|71:71,2,25,0|0|2,0:0|0:0|0:0,0:0:0:0:
375,60,41912,5,0,0:0:0:0:
139,114,42244,1,2,0:0:0:0:
328,97,42575,101,0,0:0:0:0:
186,77,42907,1,2,0:0:0:0:
290,49,43238,5,0,0:0:0:0:
224,125,43570,2,0,L|227:169,1,25,2|0,0:0|0:0,0:0:0:0:
286,193,43901,2,0,L|283:237,1,25,2|0,0:0|0:0,0:0:0:0:
241,265,44233,2,0,L|244:298,1,25,2|0,0:0|0:0,0:0:0:0:
271,342,44564,101,2,0:0:0:0:
252,367,44899,1,0,0:0:0:0:
258,384,45235,70,0,P|236:347|211:335,1,50,2|0,0:0|0:0,0:0:0:0:
123,332,45738,2,0,P|148:335|172:329,1,50
213,284,46241,2,0,L|221:267,2,12.5,2|0|0,0:0|0:0|0:0,0:0:0:0:
344,287,46577,1,2,0:0:0:0:
339,275,46912,1,0,0:0:0:0:
438,196,47248,6,0,P|407:165|373:154,1,75,2|0,0:0|0:0,0:0:0:0:
385,70,47916,2,0,P|341:70|309:86,1,75
127,70,48585,2,0,P|170:70|202:86,1,75,2|0,0:0|0:0,0:0:0:0:
74,196,49254,2,0,P|104:165|138:154,1,75
244,216,49923,6,0,B|244:201|239:194|239:194|234:198|233:207,1,29.9999990844727,2|0,0:0|0:0,0:0:0:0:
281,153,50255,2,0,B|280:135|288:126|288:126|294:135|292:144,1,40
219,104,50588,2,0,B|220:82|210:72|210:72|202:84|209:96,1,50
300,29,50921,5,2,0:0:0:0:
358,44,51088,1,0,0:0:0:0:
415,26,51254,2,0,P|431:20|448:17,3,29.9999990844727
300,29,51920,5,2,0:0:0:0:
212,63,52253,1,2,0:0:0:0:
182,10,52919,101,2,0:0:0:0:
330,82,53252,1,2,0:0:0:0:
152,63,53585,1,2,0:0:0:0:
361,30,54251,5,0,0:0:0:0:
122,116,54584,1,2,0:0:0:0:
122,116,54806,2,0,L|98:113,2,19.9999993896485
70,208,55250,1,0,0:0:0:0:
57,216,55583,1,0,0:0:0:0:
104,304,55916,102,0,P|125:317|149:321,1,50,2|0,0:0|0:0,0:0:0:0:
245,266,56416,2,0,P|224:277|209:297,1,50
197,358,56916,1,2,0:0:0:0:
256,336,57250,1,0,0:0:0:0:
315,358,57583,1,2,0:0:0:0:
448,281,57916,70,0,P|459:245|454:203,1,75,2|0,0:0|0:0,0:0:0:0:
379,66,58583,2,0,P|349:87|328:125,1,75
308,280,59250,2,0,P|345:280|384:262,1,75
492,148,59916,2,0,P|462:126|419:117,1,75,2|0,0:0|0:0,0:0:0:0:
265,146,60583,6,0,B|275:192|300:209|300:209|332:181|376:191,1,150,2|2,0:0|0:0,0:0:0:0:
429,204,61750,1,0,0:0:0:0:
487,191,61916,2,0,P|491:172|500:158,3,25,2|0|0|0,0:0|0:0|0:0|0:0,0:0:0:0:
429,204,62583,1,0,0:0:0:0:
370,189,62916,1,2,0:0:0:0:
83,180,63250,21,0,0:0:0:0:
142,195,63583,1,2,0:0:0:0:
168,44,63916,5,0,0:0:0:0:
185,102,64249,1,2,0:0:0:0:
344,44,64583,101,0,0:0:0:0:
327,102,64916,1,2,0:0:0:0:
429,180,65249,5,0,0:0:0:0:
370,195,65583,2,0,P|358:240|349:250,2,50,2|0|2,0:0|0:0|0:0,0:0:0:0:
308,280,66583,101,0,0:0:0:0:
256,240,66916,1,2,0:0:0:0:
204,280,67250,1,0,0:0:0:0:
308,104,67583,5,0,0:0:0:0:
256,144,67916,1,2,0:0:0:0:
204,104,68250,1,0,0:0:0:0:
109,120,68583,54,0,P|137:144|172:160,1,75,2|0,0:0|0:0,0:0:0:0:
402,120,69250,2,0,P|374:144|340:160,1,75,2|0,0:0|0:0,0:0:0:0:
200,232,69916,2,0,P|180:236|168:244,2,25,2|0|0,0:0|0:0|0:0,0:0:0:0:
312,232,70583,2,0,P|332:236|344:244,2,25
222,154,71250,5,0,0:0:0:0:
284,209,71583,1,2,0:0:0:0:
242,255,71916,1,0,0:0:0:0:
256,280,72250,1,2,0:0:0:0:
148,384,72583,22,0,P|113:363|73:359,1,67.4999979400635,2|0,0:0|0:0,0:0:0:0:
198,327,72916,2,0,P|159:295|135:252,1,101.250000386238
112,344,73250,2,0,P|68:300|-16:276,1,134.999995880127,2|0,0:0|0:0,0:0:0:0:
155,255,73583,2,0,P|126:176|125:93,1,168.750006437302,2|0,0:0|0:0,0:0:0:0:
125,92,73916,5,2,0:0:0:0:
364,384,74250,102,0,P|399:363|439:359,1,67.4999979400635,2|0,0:0|0:0,0:0:0:0:
314,327,74583,2,0,P|353:295|377:252,1,101.250000386238,2|0,0:0|0:0,0:0:0:0:
400,344,74916,2,0,P|444:300|528:276,1,134.999995880127,2|0,0:0|0:0,0:0:0:0:
356,255,75250,2,0,P|385:176|387:93,1,168.750006437302,2|0,0:0|0:0,0:0:0:0:
417,56,75583,22,0,B|391:66|417:95|382:126|374:100|392:86,1,75,2|0,0:0|0:0,0:0:0:0:
321,74,75916,2,0,B|285:81|288:141|242:129|249:101|291:103,1,93.75
236,48,76250,2,0,B|180:49|169:111|132:79|143:56|188:67,1,112.500004291535,2|0,0:0|0:0,0:0:0:0:
180,144,76583,6,0,P|192:188|188:204,2,45.0000001716614,2|0|0,0:0|0:0|0:0,0:0:0:0:
134,244,76909,2,0,P|89:232|78:220,2,45.0000001716614
69,153,77235,2,0,P|101:120|116:116,2,45.0000001716614,6|0|0,0:0|0:0|0:0,0:0:0:0:
128,180,77561,1,0,0:0:0:0:
392,48,77887,5,2,0:0:0:0:
392,48,78216,2,0,B|401:25|413:18|413:18|400:22|391:18,1,59.9999981689454
319,134,78546,2,0,B|294:137|282:130|282:130|292:139|293:149,1,59.9999981689454,4|0,0:0|0:0,0:0:0:0:
430,154,78876,2,0,B|444:173|444:187|444:187|448:173|455:168,1,59.9999981689454
380,112,79205,54,0,P|372:212|384:304,1,179.999994506836,2|0,0:0|0:0,0:0:0:0:
404,352,79705,1,0,0:0:0:0:
480,288,79871,5,4,0:0:0:0:
472,304,80038,1,0,0:0:0:0:
150,205,80371,1,0,0:0:0:0:
158,221,80538,1,2,0:0:0:0:
400,60,80875,6,0,P|440:104|460:156,1,101.250000386238,2|0,0:0|0:0,0:0:0:0:
384,156,81212,2,0,P|396:214|384:296,1,134.999995880127,4|0,0:0|0:0,0:0:0:0:
324,236,81549,2,0,P|305:292|240:364,1,150
186,290,81886,6,0,P|198:290|234:278,2,29.9999990844727,2|0|0,0:0|0:0|0:0,0:0:0:0:
74,266,82219,2,0,P|62:266|26:278,2,29.9999990844727
142,222,82552,2,0,P|141:200|131:163,1,44.999998626709,6|0,0:0|0:0,0:0:0:0:
118,334,82886,2,0,P|119:356|129:393,1,44.999998626709
130,278,83219,5,2,0:0:0:0:
414,178,83552,1,0,0:0:0:0:
142,222,83886,1,6,0:0:0:0:
426,234,84219,1,0,0:0:0:0:
130,166,84552,5,2,0:0:0:0:
147,141,84719,1,0,0:0:0:0:
130,117,84886,1,0,0:0:0:0:
101,126,85052,1,0,0:0:0:0:
101,156,85219,1,6,0:0:0:0:
130,166,85386,38,0,P|160:228|168:315,1,135.000000514984
342,210,85886,2,0,P|351:143|382:83,1,135.000000514984,2|0,0:0|0:0,0:0:0:0:
438,38,86552,1,4,0:0:0:0:
438,38,86886,1,0,0:0:0:0:
117,2,87219,6,0,P|93:40|93:57,2,45.0000001716614,2|0|0,0:0|0:0|0:0,0:0:0:0:
134,109,87552,2,0,P|180:108|194:100,2,45.0000001716614
221,39,87886,2,0,P|198:0|184:-8,2,45.0000001716614,6|0|0,0:0|0:0|0:0,0:0:0:0:
157,49,88219,1,0,0:0:0:0:
14,27,88441,101,0,0:0:0:0:
5,37,88552,2,0,P|49:90|62:128,1,101.250000386238,2|0,0:0|0:0,0:0:0:0:
94,39,88886,2,0,P|138:78|229:104,1,134.999995880127
36,139,89219,2,0,P|62:203|60:286,1,150,6|0,0:0|0:0,0:0:0:0:
60,282,89552,1,0,0:0:0:0:
405,171,89886,69,2,0:0:0:0:
282,44,90219,1,0,0:0:0:0:
282,44,90386,1,0,0:0:0:0:
282,44,90719,5,2,0:0:0:0:
123,121,91053,1,0,0:0:0:0:
123,121,91219,1,2,0:0:0:0:
123,121,91552,5,0,0:0:0:0:
147,297,91886,1,6,0:0:0:0:
322,328,92219,1,0,0:0:0:0:
256,191,92552,6,0,P|299:166|325:124,1,101.250000386238,2|0,0:0|0:0,0:0:0:0:
189,182,92886,2,0,P|189:231|253:305,1,134.999995880127
231,128,93219,2,0,P|187:103|86:125,1,150,6|0,0:0|0:0,0:0:0:0:
93,120,93552,1,0,0:0:0:0:
256,191,93774,5,0,0:0:0:0:
256,191,93886,1,2,0:0:0:0:
256,191,94219,102,0,P|299:166|325:124,1,101.250000386238
189,182,94552,2,0,P|189:231|253:305,1,134.999995880127,6|0,0:0|0:0,0:0:0:0:
231,128,94886,2,0,P|187:103|86:125,1,150
92,119,95219,54,0,P|82:88|55:68,1,67.5000002574921,2|0,0:0|0:0,0:0:0:0:
28,130,95552,1,2,0:0:0:0:
28,130,95719,1,0,0:0:0:0:
256,32,96052,1,2,0:0:0:0:
484,130,96385,1,0,0:0:0:0:
484,130,96552,1,2,0:0:0:0:
256,32,96886,5,2,0:0:0:0:
348,112,97219,1,4,0:0:0:0:
326,206,97552,1,0,0:0:0:0:
276,256,97886,6,0,B|255:280|256:303|256:303|255:280|238:255,1,104.999996795654,6|0,0:0|0:0,0:0:0:0:
210,241,98552,2,0,B|179:235|159:248|159:248|179:235|192:208,1,104.999996795654,8|0,0:0|0:0,0:0:0:0:
190,177,99219,2,0,B|179:147|159:136|159:136|179:147|209:145,1,104.999996795654,8|0,0:0|0:0,0:0:0:0:
236,128,99886,2,0,B|256:104|256:80|256:80|256:104|273:128,1,104.999996795654,8|0,0:0|0:0,0:0:0:0:
301,142,100552,2,0,B|332:148|352:136|352:136|332:148|319:175,1,104.999996795654,8|0,0:0|0:0,0:0:0:0:
321,206,101219,2,0,B|332:236|352:248|352:248|332:236|302:238,1,104.999996795654,8|0,0:0|0:0,0:0:0:0:
276,256,101886,22,0,P|279:220|256:192,1,75,8|2,0:0|0:0,0:0:0:0:
256,164,102609,1,0,0:0:0:0:
256,144,102781,1,0,0:0:0:0:
256,124,102953,1,2,0:0:0:0:
