osu file format v14

[General]
AudioFilename: audio.mp3
AudioLeadIn: 0
PreviewTime: -1
Countdown: 0
SampleSet: Normal
StackLeniency: 0.7
Mode: 0
LetterboxInBreaks: 0
WidescreenStoryboard: 0

[Editor]
Bookmarks: 12901
DistanceSpacing: 0.6
BeatDivisor: 4
GridSize: 32
TimelineZoom: 1.6

[Metadata]
Title:SkyInLove(brutalmix)
TitleUnicode:恋してる空(brutal mix)
Artist:Nomico
ArtistUnicode:Nomico
Creator:WagnerWarrior
Version:Wagner
Source:
Tags:
BeatmapID:997481
BeatmapSetID:466004

[Difficulty]
HPDrainRate:8
CircleSize:5
OverallDifficulty:8
ApproachRate:9
SliderMultiplier:1.4
SliderTickRate:1

[Events]
//Background and Video events
//Break Periods
//Storyboard Layer 0 (Background)
//Storyboard Layer 1 (Fail)
//Storyboard Layer 2 (Pass)
//Storyboard Layer 3 (Foreground)
//Storyboard Sound Samples

[TimingPoints]
2600,333.333333333333,4,1,0,100,1,0
5599,-200,4,1,0,100,0,0
10599,-100,4,1,0,100,0,0
13266,-66.6666666666667,4,1,0,100,0,0

[HitObjects]
64,224,234,6,0,B|128:160|160:128|192:96|192:96|224:64|256:32|288:0,1,280
288,64,1561,1,0,0:0:0:0:
224,128,1901,1,0,0:0:0:0:
160,192,2234,1,0,0:0:0:0:
96,256,2568,1,0,0:0:0:0:
160,320,2933,2,0,P|352:128|384:96,1,280
288,64,4266,1,0,0:0:0:0:
224,128,4599,1,0,0:0:0:0:
160,192,4933,1,0,0:0:0:0:
96,256,5266,1,0,0:0:0:0:
192,256,5599,2,0,L|448:256,1,210.000008010865
416,192,6933,2,0,L|192:192,1,210.000008010865
192,96,8266,2,0,L|416:96,1,210.000008010865
416,0,9599,2,0,L|192:0,1,210.000008010865
96,64,10933,1,0,0:0:0:0:
160,128,11266,1,0,0:0:0:0:
96,192,11599,1,0,0:0:0:0:
160,256,11933,1,0,0:0:0:0:
256,160,12266,1,0,0:0:0:0:
276,149,12433,1,0,0:0:0:0:
259,120,12599,1,0,0:0:0:0:
228,120,12766,1,0,0:0:0:0:
211,140,12933,1,0,0:0:0:0:
221,169,13099,1,0,0:0:0:0:
236,147,13266,2,0,L|255:165,8,26.2500010013581
352,160,13766,1,0,0:0:0:0:
224,64,13933,1,0,0:0:0:0:
96,160,14099,1,0,0:0:0:0:
224,256,14266,1,0,0:0:0:0:
288,160,14433,1,0,0:0:0:0:
224,96,14599,1,0,0:0:0:0:
160,160,14766,1,0,0:0:0:0:
256,128,14933,1,0,0:0:0:0:
192,128,15099,1,0,0:0:0:0:
224,288,15266,1,0,0:0:0:0:
224,192,15433,1,0,0:0:0:0:
139,153,16099,2,0,P|184:55|199:50,1,105.000004005432
284,65,16433,2,0,P|330:152|320:192,1,105.000004005432
231,162,16766,1,0,0:0:0:0:
191,233,16933,1,0,0:0:0:0:
274,228,17099,1,0,0:0:0:0:
209,150,17266,1,0,0:0:0:0:
226,250,17433,1,0,0:0:0:0:
248,187,17599,1,0,0:0:0:0:
179,205,17766,1,0,0:0:0:0:
251,202,17933,2,0,P|320:96|320:64,1,105.000004005432
224,96,18433,2,0,B|118:142|94:212|96:224,1,105.000004005432
161,204,18766,2,0,L|145:224,4,26.2500010013581
256,192,19099,1,0,0:0:0:0:
320,128,19266,1,0,0:0:0:0:
384,288,19433,1,0,0:0:0:0:
256,288,19599,2,0,P|150:268|32:224,1,210.000008010865
143,190,20099,2,0,L|160:209,4,26.2500010013581
208,122,20433,1,0,0:0:0:0:
45,144,20599,1,0,0:0:0:0:
134,271,20766,1,0,0:0:0:0:
138,185,20933,2,0,B|272:234|384:192|416:192,1,210.000008010865
363,95,21433,2,0,L|339:112,4,26.2500010013581
239,81,21766,1,0,0:0:0:0:
237,184,21933,1,0,0:0:0:0:
374,101,22099,2,0,L|356:122,4,26.2500010013581
256,96,22433,1,0,0:0:0:0:
283,193,22599,1,0,0:0:0:0:
374,102,22766,2,0,L|366:130,4,26.2500010013581
286,132,23099,1,0,0:0:0:0:
347,209,23266,1,0,0:0:0:0:
375,103,23433,2,0,L|375:132,4,26.2500010013581
295,172,23766,1,0,0:0:0:0:
396,209,23933,1,0,0:0:0:0:
156,61,24266,1,0,0:0:0:0:
121,159,24433,1,0,0:0:0:0:
191,265,24599,1,0,0:0:0:0:
222,172,24766,1,0,0:0:0:0:
96,241,24933,1,0,0:0:0:0:
132,144,25099,1,0,0:0:0:0:
194,80,25266,1,0,0:0:0:0:
296,152,25433,1,0,0:0:0:0:
210,185,25599,1,0,0:0:0:0:
130,87,25766,1,0,0:0:0:0:
258,108,25933,1,0,0:0:0:0:
134,153,26099,1,0,0:0:0:0:
214,213,26766,2,0,P|309:115|192:62,1,210.000008010865
200,77,27266,1,0,0:0:0:0:
137,130,27433,1,0,0:0:0:0:
130,225,27599,1,0,0:0:0:0:
207,179,27766,1,0,0:0:0:0:
159,101,27933,1,0,0:0:0:0:
69,146,28099,1,0,0:0:0:0:
133,203,28266,1,0,0:0:0:0:
189,136,28433,1,0,0:0:0:0:
90,76,28599,1,0,0:0:0:0:
64,182,28766,1,0,0:0:0:0:
147,237,29099,2,0,B|160:128|224:64|192:128|192:160,1,105.000004005432
254,94,29433,2,0,P|339:204|352:256,1,105.000004005432
313,249,29766,1,0,0:0:0:0:
224,256,29933,1,0,0:0:0:0:
128,224,30099,1,0,0:0:0:0:
204,134,30266,6,0,L|226:167,4,26.2500010013581
320,96,30766,2,0,B|416:192|411:237|384:224,1,105.000004005432
352,251,31099,1,0,0:0:0:0:
231,263,31266,1,0,0:0:0:0:
121,238,31433,1,0,0:0:0:0:
194,129,31599,2,0,L|207:157,4,26.2500010013581
324,111,32099,2,0,P|384:224|384:256,1,105.000004005432
308,275,32433,1,0,0:0:0:0:
187,250,32599,1,0,0:0:0:0:
277,127,32766,2,0,P|352:224|352:256,1,105.000004005432
256,252,33099,1,0,0:0:0:0:
161,194,33266,1,0,0:0:0:0:
253,137,33433,2,0,B|320:256|320:320|288:288,1,105.000004005432
157,245,33766,1,0,0:0:0:0:
125,110,33933,1,0,0:0:0:0:
229,164,34099,2,0,P|128:256|92:246,1,105.000004005432
52,220,34433,1,0,0:0:0:0:
120,113,34599,2,0,P|201:53|224:67,1,105.000004005432
256,192,34933,12,0,35849,0:0:0:0:
