osu file format v14

[General]
AudioFilename: nichijouppoi.mp3
AudioLeadIn: 0
PreviewTime: 7037
Countdown: 0
SampleSet: Soft
StackLeniency: 0.7
Mode: 0
LetterboxInBreaks: 0
WidescreenStoryboard: 1

[Editor]
Bookmarks: 6991,19791,32591,45391,48591,64591
DistanceSpacing: 0.3
BeatDivisor: 12
GridSize: 16
TimelineZoom: 1.9

[Metadata]
Title:Nichijouppoi Christmas
TitleUnicode:日常っぽいクリスマス
Artist:Nomi Yuuji
ArtistUnicode:野見祐二
Creator:hypercyte
Version:Normal
Source:Nichijou
Tags:日常 nichijoppoi nichijo my hypercute life ordinary ost web radio sweet ann vocaloid english ANIME kurisumasu
BeatmapID:2249000
BeatmapSetID:1073902

[Difficulty]
HPDrainRate:4
CircleSize:3.4
OverallDifficulty:4
ApproachRate:5
SliderMultiplier:1.2
SliderTickRate:1

[Events]
//Background and Video events
0,0,"nichijouchristmas.jpg",0,0
//Break Periods
//Storyboard Layer 0 (Background)
//Storyboard Layer 1 (Fail)
//Storyboard Layer 2 (Pass)
//Storyboard Layer 3 (Foreground)
//Storyboard Layer 4 (Overlay)
//Storyboard Sound Samples

[TimingPoints]
637,400,4,2,4,54,1,0
637,-133.333333333333,4,2,4,54,0,0
5303,-100,4,2,4,5,0,0
5437,-100,4,2,4,44,0,0
7037,-100,4,2,4,54,0,0
18237,-100,4,2,4,44,0,0
18637,-100,4,2,4,54,0,0
19037,-100,4,2,4,64,0,0
19437,-100,4,2,4,74,0,0
19837,-100,4,2,4,54,0,0
31037,-100,4,2,4,44,0,0
31303,-100,4,2,4,5,0,0
31437,-100,4,2,4,54,0,0
31703,-100,4,2,4,5,0,0
31837,-100,4,2,4,64,0,0
32103,-100,4,2,4,5,0,0
32237,-100,4,2,4,74,0,0
32637,-100,4,2,4,74,0,0
33437,-100,4,2,4,64,0,0
34237,-100,4,2,4,54,0,0
35037,-100,4,2,4,54,0,0
35837,-100,4,2,4,74,0,0
36637,-100,4,2,4,64,0,0
37437,-100,4,2,4,54,0,0
38237,-100,4,2,4,54,0,0
39037,-100,4,2,4,54,0,0
40637,-100,4,2,4,64,0,0
42503,-100,4,2,4,5,0,0
42637,-100,4,2,4,64,0,0
42770,-100,4,2,4,5,0,0
43037,-100,4,2,4,64,0,0
43303,-100,4,2,4,5,0,0
43437,-100,4,2,4,64,0,0
43570,-100,4,2,4,5,0,0
43837,-100,4,2,4,74,0,0
45437,-100,4,2,4,44,0,0
47037,-100,4,2,4,54,0,0
47437,-100,4,2,4,54,0,0
47837,-100,4,2,4,54,0,0
48637,-100,4,2,4,54,0,0
59837,-100,4,2,4,44,0,0
60237,-100,4,2,4,54,0,0
60503,-100,4,2,4,5,0,0
60637,-100,4,2,4,64,0,0
60903,-100,4,2,4,5,0,0
61037,-100,4,2,4,74,0,0
61303,-100,4,2,4,5,0,0
61437,-100,4,2,4,84,0,0
62237,-100,4,2,4,64,0,0
63037,-100,4,2,4,54,0,0
63303,-100,4,2,4,5,0,0
63437,-100,4,2,4,54,0,0
63703,-100,4,2,4,5,0,0
63837,-100,4,2,4,54,0,0
64103,-100,4,2,4,5,0,0
64237,-100,4,2,4,54,0,0
64637,-100,4,2,4,44,0,0
71103,-133.333333333333,4,2,4,24,0,0
71237,-133.333333333333,4,2,4,24,0,0
73437,-133.333333333333,4,2,4,5,0,0

[Colours]
Combo1 : 166,226,255
Combo2 : 255,136,157
Combo3 : 255,204,208
Combo4 : 117,216,103
Combo5 : 177,248,186
Combo6 : 83,199,255

[HitObjects]
256,192,637,12,2,3837,0:1:0:0:
133,190,5437,6,0,L|282:172,1,120,8|8,0:3|0:3,0:0:0:0:
364,217,6237,2,0,L|454:202,1,80,12|8,0:0|0:1,0:0:0:0:
466,171,6637,2,0,P|479:123|455:85,1,80,8|8,0:1|0:1,0:0:0:0:
436,71,7037,6,0,L|297:87,1,120,10|8,0:0|0:1,0:0:0:0:
216,150,7837,2,0,L|96:136,1,120,10|8,0:0|0:1,0:0:0:0:
37,240,8637,1,10,0:0:0:0:
132,312,9037,1,10,0:1:0:0:
246,276,9437,1,10,0:0:0:0:
363,305,9837,2,0,P|417:272|455:279,1,80,10|8,0:1|0:0,0:0:0:0:
470,261,10237,6,0,L|447:138,1,120,10|8,0:0|0:1,0:0:0:0:
380,43,11037,2,0,P|288:38|268:63,1,120,10|8,0:0|0:1,0:0:0:0:
160,90,11837,1,10,0:0:0:0:
117,202,12237,1,10,0:1:0:0:
216,269,12637,1,10,0:0:0:0:
315,201,13037,2,0,L|426:209,1,80,10|8,0:1|0:0,0:0:0:0:
433,216,13437,6,0,P|470:281|441:343,1,120,10|8,0:0|0:1,0:0:0:0:
346,361,14237,1,10,0:0:0:0:
248,290,14637,2,0,P|175:293|159:305,1,80,10|2,0:1|0:1,0:0:0:0:
131,298,15037,6,0,P|98:247|132:190,1,120,10|8,0:0|0:1,0:0:0:0:
172,89,15837,1,10,0:0:0:0:
287,121,16237,2,0,P|374:114|386:109,1,80,10|2,0:1|0:1,0:0:0:0:
404,127,16637,6,0,P|458:73|455:21,1,120,10|8,0:0|0:1,0:0:0:0:
338,24,17437,1,10,0:0:0:0:
228,73,17837,2,0,L|140:68,1,80,10|2,0:1|0:1,0:0:0:0:
107,69,18237,6,0,B|77:128|77:128|108:190,1,120,10|10,0:0|0:1,0:0:0:0:
202,240,19037,1,10,0:0:0:0:
308,185,19437,1,10,0:1:0:0:
421,223,19837,6,0,B|448:280|448:280|424:338,1,120,10|8,0:0|0:1,0:0:0:0:
308,356,20637,2,0,L|173:346,1,120,10|8,0:0|0:1,0:0:0:0:
69,331,21437,2,0,P|35:256|44:238,1,80,10|2,0:0|0:1,0:0:0:0:
50,229,21837,1,10,0:1:0:0:
17,113,22237,2,0,L|133:96,1,80,10|2,0:0|0:1,0:0:0:0:
136,96,22637,1,10,0:1:0:0:
240,37,23037,6,0,L|366:54,1,120,10|8,0:0|0:1,0:0:0:0:
476,77,23837,2,0,P|493:129|458:193,1,120,10|8,0:0|0:1,0:0:0:0:
389,277,24637,2,0,L|313:251,1,80,10|2,0:0|0:1,0:0:0:0:
275,237,25037,1,10,0:1:0:0:
158,264,25437,2,0,L|122:191,1,80,10|2,0:0|0:1,0:0:0:0:
106,155,25837,1,10,0:1:0:0:
132,38,26237,6,0,P|44:25|8:58,1,120,10|8,0:0|0:1,0:0:0:0:
9,159,27037,1,10,0:0:0:0:
23,278,27437,2,0,L|109:260,1,80,10|2,0:1|0:1,0:0:0:0:
126,230,27837,2,0,L|272:245,1,120,10|8,0:0|0:1,0:0:0:0:
356,286,28637,1,10,0:0:0:0:
465,237,29037,2,0,P|493:182|477:153,1,80,10|2,0:1|0:1,0:0:0:0:
467,134,29437,6,0,P|436:63|460:16,2,120,10|8|10,0:0|0:1|0:0,0:0:0:0:
487,252,30637,1,8,0:1:0:0:
394,328,31037,2,0,L|261:296,1,120,10|10,0:0|0:1,0:0:0:0:
189,218,31837,1,10,0:0:0:0:
253,116,32237,1,10,0:1:0:0:
367,152,32637,5,8,0:0:0:0:
469,89,33037,2,0,P|477:40|461:9,1,80,10|2,0:1|0:1,0:0:0:0:
425,4,33437,1,8,0:0:0:0:
315,52,33837,2,0,P|286:11|252:1,1,80,10|2,0:1|0:1,0:0:0:0:
223,23,34237,1,8,0:0:0:0:
151,119,34637,2,0,P|102:110|70:126,1,80,10|2,0:1|0:1,0:0:0:0:
65,164,35037,1,8,0:0:0:0:
110,274,35437,2,0,L|196:253,1,80,10|2,0:1|0:1,0:0:0:0:
227,251,35837,6,0,L|308:265,1,80,8|0,0:0|0:0,0:0:0:0:
344,273,36237,1,10,0:1:0:0:
421,180,36637,2,0,L|342:166,1,80,8|0,0:0|0:0,0:0:0:0:
304,158,37037,1,10,0:1:0:0:
263,45,37437,2,0,L|341:58,1,80,8|0,0:0|0:0,0:0:0:0:
380,67,37837,1,10,0:1:0:0:
421,180,38237,1,8,0:0:0:0:
333,262,38637,1,8,0:1:0:0:
229,200,39037,6,0,P|163:183|129:138,1,120,8|8,0:0|0:0,0:0:0:0:
26,202,39837,2,0,L|70:320,1,120,8|8,0:0|0:0,0:0:0:0:
186,334,40637,1,8,0:0:0:0:
294,288,41037,1,8,0:0:0:0:
411,311,41437,1,4,0:3:0:0:
507,239,41837,2,0,L|490:141,1,80,8|8,0:3|0:3,0:0:0:0:
484,120,42237,6,0,P|437:86|371:115,1,120,8|8,0:0|0:0,0:0:0:0:
325,209,43037,2,0,P|278:243|212:214,1,120,8|8,0:0|0:0,0:0:0:0:
145,133,43837,1,14,0:0:0:0:
53,210,44237,2,0,L|69:316,1,80,8|8,0:3|0:3,0:0:0:0:
73,328,44637,2,0,B|132:345|132:345|186:314,1,120,14|10,0:0|0:1,0:0:0:0:
256,192,47037,6,0,P|326:175|380:202,1,120,8|8,0:3|0:3,0:0:0:0:
458,271,47837,2,0,P|435:316|428:347,1,80,12|8,0:0|0:1,0:0:0:0:
392,361,48237,2,0,L|287:344,1,80,8|8,0:1|0:1,0:0:0:0:
278,328,48637,6,0,B|221:330|221:330|202:341|202:341|144:344,1,120,14|8,0:0|0:1,0:0:0:0:
70,263,49437,2,0,L|97:109,1,120,10|8,0:0|0:1,0:0:0:0:
122,29,50237,1,10,0:0:0:0:
222,97,50637,1,10,0:1:0:0:
338,63,51037,1,10,0:0:0:0:
423,146,51437,2,0,P|416:194|393:218,1,80,10|0,0:1|0:0,0:0:0:0:
383,254,51837,6,0,L|235:246,1,120,10|8,0:0|0:1,0:0:0:0:
147,214,52637,2,0,P|97:261|105:321,1,120,10|8,0:0|0:1,0:0:0:0:
206,361,53437,1,10,0:0:0:0:
320,326,53837,1,10,0:1:0:0:
362,213,54237,1,10,0:0:0:0:
467,155,54637,2,0,P|487:101|476:72,1,80,10|8,0:1|0:0,0:0:0:0:
461,46,55037,6,0,B|404:64|404:64|335:52,1,120,10|8,0:0|0:1,0:0:0:0:
226,33,55837,1,10,0:0:0:0:
128,102,56237,2,0,P|117:145|134:213,1,80,10|2,0:1|0:1,0:0:0:0:
152,204,56637,2,0,L|277:194,1,120,10|8,0:0|0:1,0:0:0:0:
391,185,57437,1,10,0:0:0:0:
510,171,57837,2,0,L|513:258,1,80,10|2,0:1|0:1,0:0:0:0:
510,291,58237,6,0,P|472:336|406:306,1,120,10|8,0:0|0:1,0:0:0:0:
313,264,59037,1,10,0:0:0:0:
196,293,59437,2,0,L|87:285,1,80,8|2,0:1|0:1,0:0:0:0:
76,283,59837,2,0,P|29:222|62:172,1,120,10|10,0:0|0:1,0:0:0:0:
157,155,60637,1,10,0:0:0:0:
253,84,61037,1,10,0:1:0:0:
369,111,61437,6,0,L|464:103,1,80,2|0,0:0|0:0,0:0:0:0:
488,104,61837,2,0,P|500:165|465:220,1,120,10|10,0:1|0:0,0:0:0:0:
353,214,62637,1,8,0:1:0:0:
288,112,63037,2,0,P|229:106|165:148,1,120,10|8,0:0|0:1,0:0:0:0:
183,253,63837,2,0,P|137:290|121:365,1,120,10|8,0:0|0:1,0:0:0:0:
237,369,64637,69,14,0:0:0:0:
137,259,66237,1,2,0:0:0:0:
147,115,67837,1,2,0:0:0:0:
258,23,69437,1,2,0:0:0:0:
388,244,71037,6,0,B|516:244|516:244|427:129|427:129|450:92|450:92|388:1|388:1|325:91|325:91|350:129|350:129|261:244,1,720,2|0,0:0|0:0,0:0:0:0:
