osu file format v14

[General]
AudioFilename: nichijouppoi.mp3
AudioLeadIn: 0
PreviewTime: 7037
Countdown: 0
SampleSet: Soft
StackLeniency: 0.4
Mode: 0
LetterboxInBreaks: 0
WidescreenStoryboard: 0

[Editor]
Bookmarks: 6991,19791,32591,45391,48591,64591
DistanceSpacing: 0.1
BeatDivisor: 6
GridSize: 4
TimelineZoom: 1.9

[Metadata]
Title:Nichijouppoi Christmas
TitleUnicode:日常っぽいクリスマス
Artist:Nomi Yuuji
ArtistUnicode:野見祐二
Creator:hypercyte
Version:Insane
Source:Nichijou
Tags:日常 nichijoppoi nichijo my hypercute life ordinary ost web radio sweet ann vocaloid english ANIME kurisumasu
BeatmapID:2247532
BeatmapSetID:1073902

[Difficulty]
HPDrainRate:6
CircleSize:4.4
OverallDifficulty:7.4
ApproachRate:9
SliderMultiplier:1.8
SliderTickRate:1

[Events]
//Background and Video events
0,0,"nichijouchristmas.jpg",0,0
//Break Periods
//Storyboard Layer 0 (Background)
//Storyboard Layer 1 (Fail)
//Storyboard Layer 2 (Pass)
//Storyboard Layer 3 (Foreground)
//Storyboard Layer 4 (Overlay)
//Storyboard Sound Samples

[TimingPoints]
637,400,4,2,4,54,1,0
637,-200,4,2,4,54,0,0
5303,-200,4,2,4,5,0,0
5437,-200,4,2,4,44,0,0
7037,-100,4,2,4,54,0,0
9170,-100,4,2,4,5,0,0
9437,-100,4,2,4,54,0,0
12370,-100,4,2,4,5,0,0
12637,-100,4,2,4,54,0,0
15570,-100,4,2,4,5,0,0
15837,-100,4,2,4,54,0,0
18237,-100,4,2,4,44,0,0
18503,-100,4,2,4,5,0,0
18637,-100,4,2,4,54,0,0
18903,-100,4,2,4,5,0,0
19037,-83.3333333333333,4,2,4,64,0,0
19303,-83.3333333333333,4,2,4,5,0,0
19437,-71.4285714285714,4,2,4,74,0,0
19703,-71.4285714285714,4,2,4,5,0,0
19837,-100,4,2,4,54,0,0
21970,-100,4,2,4,5,0,0
22237,-100,4,2,4,54,0,0
25170,-100,4,2,4,5,0,0
25437,-100,4,2,4,54,0,0
31037,-100,4,2,4,44,0,0
31303,-100,4,2,4,5,0,0
31437,-83.3333333333333,4,2,4,54,0,0
31703,-83.3333333333333,4,2,4,5,0,0
31837,-71.4285714285714,4,2,4,64,0,0
32103,-71.4285714285714,4,2,4,5,0,0
32237,-62.5,4,2,4,74,0,0
32637,-71.4285714285714,4,2,4,74,0,0
33437,-83.3333333333333,4,2,4,64,0,0
34237,-100,4,2,4,54,0,0
35037,-125,4,2,4,54,0,0
35837,-71.4285714285714,4,2,4,74,0,0
36637,-83.3333333333333,4,2,4,64,0,0
37437,-100,4,2,4,54,0,0
38237,-125,4,2,4,54,0,0
39037,-100,4,2,4,54,0,0
40637,-83.3333333333333,4,2,4,64,0,0
42503,-83.3333333333333,4,2,4,5,0,0
42637,-83.3333333333333,4,2,4,64,0,0
42770,-83.3333333333333,4,2,4,5,0,0
43037,-83.3333333333333,4,2,4,64,0,0
43303,-83.3333333333333,4,2,4,5,0,0
43437,-83.3333333333333,4,2,4,64,0,0
43570,-83.3333333333333,4,2,4,5,0,0
43837,-71.4285714285714,4,2,4,74,0,0
45170,-71.4285714285714,4,2,4,5,0,0
45437,-200,4,2,4,44,0,0
47037,-200,4,2,4,54,0,0
47437,-133.333333333333,4,2,4,54,0,0
47837,-111.111111111111,4,2,4,54,0,0
48637,-100,4,2,4,54,0,0
50770,-100,4,2,4,5,0,0
51037,-100,4,2,4,54,0,0
53970,-100,4,2,4,5,0,0
54237,-100,4,2,4,54,0,0
59837,-100,4,2,4,44,0,0
60103,-100,4,2,4,5,0,0
60237,-100,4,2,4,54,0,0
60503,-100,4,2,4,5,0,0
60637,-83.3333333333333,4,2,4,64,0,0
60903,-83.3333333333333,4,2,4,5,0,0
61037,-71.4285714285714,4,2,4,74,0,0
61303,-71.4285714285714,4,2,4,5,0,0
61437,-62.5,4,2,4,84,0,0
61703,-62.5,4,2,4,5,0,0
61837,-62.5,4,2,4,84,0,0
62237,-83.3333333333333,4,2,4,64,0,0
62370,-83.3333333333333,4,2,4,5,0,0
62637,-83.3333333333333,4,2,4,64,0,0
63037,-100,4,2,4,54,0,0
63303,-100,4,2,4,5,0,0
63437,-100,4,2,4,54,0,0
63703,-100,4,2,4,5,0,0
63837,-100,4,2,4,54,0,0
64103,-100,4,2,4,5,0,0
64237,-100,4,2,4,54,0,0
64637,-153.846153846154,4,2,4,44,0,0
71103,-153.846153846154,4,2,4,24,0,0
73437,-153.846153846154,4,2,4,5,0,0

[Colours]
Combo1 : 166,226,255
Combo2 : 255,136,157
Combo3 : 255,204,208
Combo4 : 117,216,103
Combo5 : 177,248,186
Combo6 : 83,199,255

[HitObjects]
191,145,637,6,0,B|236:143|265:173|248:210|274:247|326:246,1,180,2|2,0:1|0:1,0:0:0:0:
321,145,2237,6,0,B|276:143|247:173|264:210|238:247|186:246,1,180,2|2,0:1|0:1,0:0:0:0:
256,192,3837,12,0,5303,0:0:0:0:
395,94,5437,5,8,0:3:0:0:
362,163,5570,1,4,0:3:0:0:
177,188,5837,1,8,0:3:0:0:
210,257,5970,1,4,0:3:0:0:
401,64,6237,6,0,P|393:19|385:12,1,30,12|0,0:0|0:0,0:0:0:0:
331,0,6503,1,8,0:1:0:0:
257,16,6637,1,8,0:1:0:0:
226,84,6770,1,8,0:1:0:0:
262,149,6903,1,8,0:1:0:0:
335,167,7037,6,0,B|381:157|381:157|404:149|404:149|452:141,1,120,10|0,0:0|0:0,0:0:0:0:
451,141,7437,2,0,P|465:82|420:41,1,120,8|0,0:1|0:0,0:0:0:0:
179,245,7837,2,0,P|269:249|309:281,1,120,10|0,0:0|0:0,0:0:0:0:
162,258,8237,2,0,B|136:203|136:203|164:150,1,120,8|0,0:1|0:0,0:0:0:0:
311,271,8637,6,0,P|323:208|317:196,1,60,10|0,0:0|0:0,0:0:0:0:
260,65,8903,1,2,0:1:0:0:
247,140,9037,2,0,P|229:88|236:62,1,60,10|0,0:1|0:0,0:0:0:0:
0,287,9437,2,0,L|74:276,1,60,10|0,0:0|0:0,0:0:0:0:
218,258,9703,1,2,0:1:0:0:
137,246,9837,2,0,L|211:257,1,60,10|0,0:1|0:0,0:0:0:0:
440,285,10103,1,8,0:0:0:0:
348,201,10237,6,0,P|407:182|441:120,1,120,10|0,0:0|0:0,0:0:0:0:
331,213,10637,2,0,B|292:186|292:186|282:148|282:148|248:117,1,120,8|0,0:1|0:0,0:0:0:0:
98,101,11037,2,0,P|62:149|91:216,1,120,10|0,0:0|0:0,0:0:0:0:
76,203,11437,2,0,L|209:188,1,120,8|0,0:1|0:0,0:0:0:0:
400,165,11837,6,0,P|418:205|408:243,1,60,10|0,0:0|0:0,0:0:0:0:
299,341,12103,1,2,0:1:0:0:
229,304,12237,2,0,P|269:322|307:312,1,60,10|0,0:1|0:0,0:0:0:0:
440,35,12637,2,0,B|379:41|379:41|322:76|322:76|266:84,1,180,10|10,0:0|0:1,0:0:0:0:
69,241,13303,1,8,0:0:0:0:
58,158,13437,6,0,P|130:175|155:233,1,120,10|0,0:0|0:0,0:0:0:0:
32,160,13837,2,0,L|46:28,1,120,8|0,0:1|0:0,0:0:0:0:
152,211,14237,2,0,B|207:208|220:158|200:122|234:91|289:93,1,180,10|10,0:0|0:1,0:0:0:0:
372,277,14903,1,2,0:1:0:0:
454,222,15037,6,0,P|456:142|409:99,1,120,10|0,0:0|0:0,0:0:0:0:
454,222,15437,2,0,P|493:158|498:154,1,60,8|0,0:1|0:0,0:0:0:0:
284,17,15837,2,0,B|227:16|203:57|220:83|189:122|140:120,1,180,10|10,0:0|0:1,0:0:0:0:
97,295,16503,1,2,0:1:0:0:
22,209,16637,6,0,P|94:274|138:270,1,120,10|0,0:0|0:0,0:0:0:0:
226,357,17037,2,0,P|265:308|338:298,1,120,8|0,0:1|0:0,0:0:0:0:
213,361,17437,2,0,L|189:158,1,180,10|10,0:0|0:1,0:0:0:0:
336,27,18103,1,2,0:1:0:0:
364,96,18237,2,0,P|299:50|260:76,1,120,10|0,0:0|0:0,0:0:0:0:
128,170,18637,6,0,P|63:133|68:85,1,120,10|0,0:1|0:0,0:0:0:0:
250,237,19037,6,0,P|207:312|151:306,1,143.999995605469,10|0,0:0|0:0,0:0:0:0:
364,96,19437,6,0,P|447:143|441:205,1,167.999994873047,10|0,0:1|0:0,0:0:0:0:
348,78,19837,6,0,B|277:96|277:96|230:128|230:128|174:140,1,180,10|8,0:0|0:1,0:0:0:0:
181,138,20637,2,0,P|157:196|194:236,1,120,10|0,0:0|0:0,0:0:0:0:
199,131,21037,2,0,P|186:71|128:14,1,120,8|0,0:1|0:0,0:0:0:0:
204,246,21437,6,0,P|236:215|271:209,1,60,10|0,0:0|0:0,0:0:0:0:
437,275,21703,1,2,0:1:0:0:
512,225,21837,2,0,P|480:194|445:188,1,60,10|0,0:1|0:0,0:0:0:0:
201,324,22237,2,0,L|74:306,1,120,10|2,0:0|0:1,0:0:0:0:
217,332,22637,2,0,P|237:302|234:263,1,60,10|0,0:1|0:0,0:0:0:0:
71,310,22903,1,0,0:0:0:0:
21,249,23037,6,0,B|37:161|37:161|47:142|47:142|60:71,1,180,10|8,0:0|0:1,0:0:0:0:
59,74,23837,2,0,P|119:63|151:122,1,120,10|0,0:0|0:0,0:0:0:0:
271,42,24237,2,0,P|260:102|319:134,1,120,8|0,0:1|0:0,0:0:0:0:
122,212,24637,6,0,P|167:186|205:183,1,60,10|0,0:0|0:0,0:0:0:0:
319,314,24903,1,2,0:1:0:0:
398,274,25037,2,0,P|413:239|409:203,1,60,10|0,0:1|0:0,0:0:0:0:
470,371,25437,2,0,P|409:297|421:199,1,180,10|10,0:0|0:1,0:0:0:0:
172,333,26103,1,8,0:0:0:0:
96,268,26237,6,0,L|216:240,1,120,10|0,0:0|0:0,0:0:0:0:
73,275,26637,2,0,B|34:232|34:232|53:166,1,120,8|0,0:1|0:0,0:0:0:0:
105,8,27037,2,0,B|157:15|169:62|152:84|183:127|229:127,1,180,10|10,0:0|0:1,0:0:0:0:
310,296,27703,1,2,0:1:0:0:
218,262,27837,6,0,P|253:199|322:198,1,120,10|0,0:0|0:0,0:0:0:0:
295,189,28237,2,0,P|325:237|301:307,1,120,8|0,0:1|0:0,0:0:0:0:
190,138,28637,2,0,P|253:111|293:44,1,120,10|0,0:0|0:0,0:0:0:0:
283,71,29037,2,0,P|242:76|222:72,2,60,10|2|2,0:1|0:1|0:1,0:0:0:0:
365,231,29437,6,0,B|415:228|436:180|415:152|438:116|490:109,1,180,10|8,0:0|0:1,0:0:0:0:
252,320,30237,2,0,L|89:289,1,120,10|0,0:0|0:0,0:0:0:0:
134,297,30637,2,0,P|129:253|144:226,1,60,8|0,0:1|0:0,0:0:0:0:
253,120,30903,1,2,0:1:0:0:
287,196,31037,6,0,P|296:132|260:86,1,120,10|0,0:0|0:0,0:0:0:0:
280,213,31437,6,0,P|353:174|417:191,1,143.999995605469,10|0,0:1|0:0,0:0:0:0:
270,229,31837,6,0,B|209:217|209:217|180:171|180:171|121:163,1,167.999994873047,10|0,0:0|0:0,0:0:0:0:
280,213,32237,6,0,B|341:182|341:182|359:125|359:125|420:99,1,192,10|8,0:1|0:0,0:0:0:0:
240,55,32637,6,0,L|60:82,1,167.999994873047,8|0,0:0|0:0,0:0:0:0:
73,79,33037,2,0,P|52:124|66:160,1,83.9999974365235,10|0,0:1|0:0,0:0:0:0:
140,197,33303,1,2,0:1:0:0:
290,129,33437,6,0,L|470:156,1,143.999995605469,8|0,0:0|0:0,0:0:0:0:
432,150,33837,2,0,P|453:194|439:230,1,71.9999978027344,10|0,0:1|0:0,0:0:0:0:
384,259,34103,1,2,0:1:0:0:
223,191,34237,6,0,L|80:212,1,120,8|0,0:0|0:0,0:0:0:0:
104,208,34637,2,0,P|85:245|97:276,1,60,10|0,0:1|0:0,0:0:0:0:
155,311,34903,1,2,0:1:0:0:
285,259,35037,6,0,L|396:279,1,96,8|0,0:0|0:0,0:0:0:0:
402,278,35437,1,10,0:1:0:0:
425,253,35570,1,2,0:1:0:0:
431,181,35703,1,2,0:1:0:0:
366,129,35837,6,0,B|310:138|310:138|269:175|269:175|214:183,1,167.999994873047,8|0,0:0|0:0,0:0:0:0:
213,183,36237,2,0,L|236:90,1,83.9999974365235,10|0,0:1|0:0,0:0:0:0:
253,22,36503,1,2,0:1:0:0:
78,163,36637,6,0,B|126:171|126:171|162:203|162:203|210:210,1,143.999995605469,8|0,0:0|0:0,0:0:0:0:
208,210,37037,2,0,L|189:134,1,71.9999978027344,10|0,0:1|0:0,0:0:0:0:
171,65,37303,1,2,0:1:0:0:
313,195,37437,6,0,B|273:201|273:201|244:228|244:228|204:233,1,120,8|0,0:0|0:0,0:0:0:0:
204,234,37837,2,0,L|223:157,1,60,10|0,0:1|0:0,0:0:0:0:
234,104,38103,1,2,0:1:0:0:
72,207,38237,2,0,B|121:215|121:215|158:248|158:248|208:255,1,144,8|8,0:0|0:1,0:0:0:0:
374,171,39037,6,0,P|447:221|459:306,1,180,8|8,0:0|0:0,0:0:0:0:
172,110,39837,2,0,P|99:160|87:245,1,180,8|8,0:0|0:0,0:0:0:0:
374,171,40637,6,0,P|447:221|459:306,1,143.999995605469,8|0,0:0|0:0,0:0:0:0:
346,174,41037,2,0,P|326:100|370:47,1,143.999995605469,8|0,0:0|0:0,0:0:0:0:
363,50,41437,2,0,P|332:108|254:124,1,143.999995605469,4|0,0:3|0:0,0:0:0:0:
199,85,41837,1,8,0:3:0:0:
127,85,41970,1,8,0:3:0:0:
88,145,42103,1,8,0:3:0:0:
0,144,42237,6,0,L|39:304,1,143.999995605469,8|0,0:0|0:0,0:0:0:0:
34,283,42637,2,0,L|65:204,1,71.9999978027344,8|0,0:0|0:0,0:0:0:0:
512,144,43037,6,0,L|473:304,1,143.999995605469,8|0,0:0|0:0,0:0:0:0:
478,283,43437,2,0,L|446:204,1,71.9999978027344,8|0,0:0|0:0,0:0:0:0:
256,16,43837,6,0,L|256:224,1,167.999994873047,14|8,0:0|0:3,0:0:0:0:
248,274,44237,1,8,0:3:0:0:
185,231,44370,1,8,0:3:0:0:
176,156,44503,1,8,0:3:0:0:
176,250,44637,2,0,B|163:276|134:287|134:287|17:258,1,167.999994873047,14|0,0:0|0:0,0:0:0:0:
26,260,45037,2,0,P|20:217|42:184,1,83.9999974365235,10|0,0:1|0:0,0:0:0:0:
321,239,45437,6,0,B|276:241|247:211|264:174|238:137|186:138,1,180,2|2,0:1|0:1,0:0:0:0:
177,260,47037,5,8,0:3:0:0:
177,260,47170,2,0,P|201:228|206:215,1,30,4|0,0:3|0:0,0:0:0:0:
274,201,47437,5,8,0:3:0:0:
274,201,47570,2,0,P|268:161|262:148,1,45.0000017166138,4|0,0:3|0:0,0:0:0:0:
320,91,47837,6,0,P|286:65|272:60,1,53.9999983520508,12|0,0:0|0:0,0:0:0:0:
221,8,48103,1,8,0:1:0:0:
145,17,48237,1,8,0:1:0:0:
109,83,48370,1,8,0:1:0:0:
147,147,48503,1,8,0:1:0:0:
223,154,48637,6,0,B|258:201|258:201|236:265,1,120,14|0,0:0|0:0,0:0:0:0:
216,137,49037,2,0,P|300:114|346:66,1,120,8|0,0:1|0:0,0:0:0:0:
388,202,49437,2,0,P|452:216|486:273,1,120,10|0,0:0|0:0,0:0:0:0:
371,183,49837,2,0,P|356:241|290:260,1,120,8|0,0:1|0:0,0:0:0:0:
82,259,50237,6,0,L|173:226,1,60,10|0,0:0|0:0,0:0:0:0:
278,180,50503,1,2,0:1:0:0:
196,147,50637,2,0,L|287:180,1,60,10|0,0:1|0:0,0:0:0:0:
462,327,51037,2,0,P|482:277|472:250,1,60,10|0,0:0|0:0,0:0:0:0:
384,153,51303,1,2,0:1:0:0:
384,153,51437,2,0,P|364:103|374:76,1,60,10|0,0:1|0:0,0:0:0:0:
430,24,51703,1,0,0:0:0:0:
275,25,51837,6,0,P|315:69|390:78,1,120,10|0,0:0|0:0,0:0:0:0:
257,19,52237,2,0,P|190:35|165:96,1,120,8|0,0:1|0:0,0:0:0:0:
19,67,52637,2,0,L|57:232,1,120,10|0,0:0|0:0,0:0:0:0:
19,300,53037,2,0,L|45:183,1,120,8|0,0:1|0:0,0:0:0:0:
166,76,53437,6,0,P|215:105|225:133,1,60,10|0,0:0|0:0,0:0:0:0:
250,248,53703,1,2,0:1:0:0:
309,187,53837,2,0,P|260:216|250:244,1,60,10|0,0:1|0:0,0:0:0:0:
166,76,54237,6,0,P|215:105|225:133,1,60,10|0,0:0|0:0,0:0:0:0:
274,340,54503,1,2,0:1:0:0:
335,295,54637,2,0,P|335:221|289:175,1,120,10|8,0:1|0:0,0:0:0:0:
189,205,55037,6,0,L|307:186,1,120,10|0,0:0|0:0,0:0:0:0:
423,140,55437,2,0,L|304:158,1,120,8|0,0:1|0:0,0:0:0:0:
173,26,55837,2,0,B|215:24|243:61|227:86|252:133|310:136,1,180,10|10,0:0|0:1,0:0:0:0:
95,271,56503,1,2,0:1:0:0:
137,199,56637,6,0,P|205:217|232:267,1,120,10|0,0:0|0:0,0:0:0:0:
109,189,57037,2,0,B|82:135|82:135|114:73,1,120,8|0,0:1|0:0,0:0:0:0:
232,270,57437,2,0,B|274:272|302:235|286:210|311:163|369:160,1,180,10|10,0:0|0:1,0:0:0:0:
99,323,58103,1,2,0:1:0:0:
39,262,58237,6,0,P|56:204|112:189,1,120,10|0,0:0|0:0,0:0:0:0:
35,272,58637,2,0,P|21:194|-1:160,1,120,8|0,0:1|0:0,0:0:0:0:
6,30,59037,2,0,B|61:47|61:47|70:57|70:57|119:70,1,120,10|0,0:0|0:0,0:0:0:0:
117,69,59437,2,0,P|138:40|137:8,1,60,8|0,0:1|0:0,0:0:0:0:
108,188,59703,1,2,0:1:0:0:
234,128,59837,2,0,B|194:135|194:135|164:159|164:159|124:169,1,120,10|0,0:0|0:0,0:0:0:0:
349,49,60237,6,0,P|413:64|447:110,1,120,10|0,0:1|0:0,0:0:0:0:
316,121,60637,6,0,P|371:86|451:110,1,143.999995605469,10|0,0:0|0:0,0:0:0:0:
348,218,61037,6,0,P|364:147|445:103,1,167.999994873047,10|0,0:1|0:0,0:0:0:0:
354,231,61437,6,0,B|285:221|283:177|311:162|289:110|236:104,1,192,2|0,0:0|0:0,0:0:0:0:
136,48,61837,5,10,0:1:0:0:
61,64,61970,1,2,0:1:0:0:
46,99,62103,1,2,0:1:0:0:
51,112,62237,2,0,P|43:60|31:45,1,71.9999978027344,10|0,0:0|0:0,0:0:0:0:
5,373,62637,2,0,L|168:313,1,143.999995605469,8|2,0:1|0:1,0:0:0:0:
140,323,63037,6,0,P|145:255|104:227,1,120,10|0,0:0|0:0,0:0:0:0:
223,151,63437,2,0,L|390:171,1,120,8|0,0:1|0:0,0:0:0:0:
342,165,63837,2,0,B|367:109|367:109|334:53,1,120,10|0,0:0|0:0,0:0:0:0:
222,171,64237,1,8,0:1:0:0:
78,12,64637,6,0,B|146:20|166:74|134:113|167:171|225:171,1,233.999989288331,14|2,0:0|0:1,0:0:0:0:
392,177,66237,2,0,B|324:185|304:239|336:278|303:336|245:336,1,233.999989288331,2|2,0:0|0:1,0:0:0:0:
53,27,67837,6,0,B|110:51|110:51|169:141|169:141|229:163,1,233.999989288331,2|2,0:0|0:1,0:0:0:0:
52,299,69437,2,0,B|112:277|112:277|171:187|171:187|229:163,1,233.999989288331,2|2,0:0|0:1,0:0:0:0:
387,241,70637,70,0,L|422:241,5,19.4999991073609,2|0|0|0|0|0,0:1|0:0|0:0|0:0|0:0|0:0,0:0:0:0:
387,241,71037,6,0,B|261:241|261:241|348:128|348:128|326:92|326:92|387:3|387:3|448:91|448:91|424:128|424:128|511:241,1,701.999967864992,2|0,0:0|0:0,0:0:0:0:
