osu file format v14

[General]
AudioFilename: nichijouppoi.mp3
AudioLeadIn: 0
PreviewTime: 7037
Countdown: 0
SampleSet: Soft
StackLeniency: 0.7
Mode: 0
LetterboxInBreaks: 0
WidescreenStoryboard: 1

[Editor]
Bookmarks: 6991,19791,32591,45391,48591,64591
DistanceSpacing: 2
BeatDivisor: 6
GridSize: 16
TimelineZoom: 1.9

[Metadata]
Title:Nichijouppoi Christmas
TitleUnicode:日常っぽいクリスマス
Artist:Nomi Yuuji
ArtistUnicode:野見祐二
Creator:hypercyte
Version:Hard
Source:Nichijou
Tags:日常 nichijoppoi nichijo my hypercute life ordinary ost web radio sweet ann vocaloid english ANIME kurisumasu
BeatmapID:2248999
BeatmapSetID:1073902

[Difficulty]
HPDrainRate:4.7
CircleSize:4
OverallDifficulty:6.4
ApproachRate:8
SliderMultiplier:1.55
SliderTickRate:1

[Events]
//Background and Video events
0,0,"nichijouchristmas.jpg",0,0
//Break Periods
2,45236,46287
//Storyboard Layer 0 (Background)
//Storyboard Layer 1 (Fail)
//Storyboard Layer 2 (Pass)
//Storyboard Layer 3 (Foreground)
//Storyboard Layer 4 (Overlay)
//Storyboard Sound Samples

[TimingPoints]
637,400,4,2,4,54,1,0
637,-133.333333333333,4,2,4,54,0,0
5037,-133.333333333333,4,2,4,54,0,0
5303,-133.333333333333,4,2,4,5,0,0
5437,-100,4,2,4,44,0,0
7037,-100,4,2,4,54,0,0
18237,-100,4,2,4,44,0,0
18637,-100,4,2,4,54,0,0
19037,-100,4,2,4,64,0,0
19437,-100,4,2,4,74,0,0
19837,-100,4,2,4,54,0,0
31037,-100,4,2,4,44,0,0
31303,-100,4,2,4,5,0,0
31437,-100,4,2,4,54,0,0
31703,-100,4,2,4,5,0,0
31837,-100,4,2,4,64,0,0
32103,-100,4,2,4,5,0,0
32237,-100,4,2,4,74,0,0
32637,-100,4,2,4,74,0,0
33437,-100,4,2,4,64,0,0
34237,-100,4,2,4,54,0,0
35037,-100,4,2,4,54,0,0
35837,-100,4,2,4,74,0,0
36637,-100,4,2,4,64,0,0
37437,-100,4,2,4,54,0,0
38237,-100,4,2,4,54,0,0
39037,-100,4,2,4,54,0,0
40637,-100,4,2,4,64,0,0
42503,-100,4,2,4,5,0,0
42637,-100,4,2,4,64,0,0
42770,-100,4,2,4,5,0,0
43037,-100,4,2,4,64,0,0
43303,-100,4,2,4,5,0,0
43437,-100,4,2,4,64,0,0
43570,-100,4,2,4,5,0,0
43837,-100,4,2,4,74,0,0
45437,-100,4,2,4,44,0,0
47037,-100,4,2,4,54,0,0
47437,-100,4,2,4,54,0,0
47837,-100,4,2,4,54,0,0
48637,-100,4,2,4,54,0,0
59837,-100,4,2,4,44,0,0
60237,-100,4,2,4,54,0,0
60503,-100,4,2,4,5,0,0
60637,-100,4,2,4,64,0,0
60903,-100,4,2,4,5,0,0
61037,-100,4,2,4,74,0,0
61303,-100,4,2,4,5,0,0
61437,-100,4,2,4,84,0,0
62237,-100,4,2,4,64,0,0
63037,-100,4,2,4,54,0,0
63303,-100,4,2,4,5,0,0
63437,-100,4,2,4,54,0,0
63703,-100,4,2,4,5,0,0
63837,-100,4,2,4,54,0,0
64103,-100,4,2,4,5,0,0
64237,-100,4,2,4,54,0,0
64637,-133.333333333333,4,2,4,44,0,0
71103,-133.333333333333,4,2,4,24,0,0
71170,-133.333333333333,4,2,4,24,0,0
73437,-133.333333333333,4,2,4,5,0,0

[Colours]
Combo1 : 166,226,255
Combo2 : 255,136,157
Combo3 : 255,204,208
Combo4 : 117,216,103
Combo5 : 177,248,186
Combo6 : 83,199,255

[HitObjects]
168,109,637,6,0,B|237:117|262:163|234:197|260:254|320:261,3,232.500008869171,2|2|2|2,0:1|0:1|0:1|0:1,0:0:0:0:
256,192,3837,12,0,5037,0:0:0:0:
192,260,5437,5,8,0:3:0:0:
192,260,5570,1,4,0:3:0:0:
91,156,5837,1,8,0:3:0:0:
91,156,5970,1,4,0:3:0:0:
199,59,6237,2,0,L|337:79,1,103.333333333333,12|8,0:0|0:1,0:0:0:0:
378,88,6637,2,0,L|443:71,2,51.6666666666667,8|8|8,0:1|0:1|0:1,0:0:0:0:
330,168,7037,6,0,B|318:228|318:228|326:259|326:259|308:332,1,155,10|8,0:0|0:1,0:0:0:0:
79,332,7837,2,0,P|49:262|75:223,1,103.333333333333,10|0,0:0|0:0,0:0:0:0:
121,197,8237,2,0,P|151:127|125:88,1,103.333333333333,8|0,0:1|0:0,0:0:0:0:
69,78,8637,6,0,L|228:48,2,155,10|10|10,0:0|0:1|0:0,0:0:0:0:
45,230,9703,1,2,0:1:0:0:
103,281,9837,2,0,P|175:274|204:217,1,103.333333333333,10|8,0:1|0:0,0:0:0:0:
234,187,10237,6,0,B|295:194|295:194|337:208|337:208|406:214,1,155,10|8,0:0|0:1,0:0:0:0:
490,4,11037,2,0,L|380:25,1,103.333333333333,10|0,0:0|0:0,0:0:0:0:
326,70,11437,2,0,L|216:49,1,103.333333333333,8|0,0:1|0:0,0:0:0:0:
148,35,11837,5,10,0:0:0:0:
28,132,12103,1,2,0:1:0:0:
28,132,12237,2,0,L|54:266,1,103.333333333333,10|0,0:1|0:0,0:0:0:0:
120,260,12637,2,0,L|284:229,1,155,10|10,0:0|0:1,0:0:0:0:
424,205,13303,5,8,0:0:0:0:
424,205,13437,2,0,P|450:256|404:343,1,155,10|8,0:0|0:1,0:0:0:0:
180,366,14237,2,0,P|177:289|130:205,1,155,10|10,0:0|0:1,0:0:0:0:
22,123,14903,1,2,0:1:0:0:
14,200,15037,6,0,P|53:131|138:121,1,155,10|8,0:0|0:1,0:0:0:0:
299,267,15837,2,0,L|399:241,1,103.333333333333,10|0,0:0|0:0,0:0:0:0:
473,263,16237,1,10,0:1:0:0:
510,112,16503,1,2,0:1:0:0:
510,112,16637,6,0,P|501:40|411:26,1,155,10|8,0:0|0:1,0:0:0:0:
269,185,17437,2,0,P|187:182|147:163,1,103.333333333333,10|0,0:0|0:0,0:0:0:0:
99,138,17837,2,0,L|128:32,1,103.333333333333,10|2,0:1|0:1,0:0:0:0:
198,10,18237,5,10,0:0:0:0:
366,170,18637,2,0,P|417:130|414:72,1,103.333333333333,10|0,0:1|0:0,0:0:0:0:
373,34,19037,2,0,L|270:56,1,103.333333333333,10|0,0:0|0:0,0:0:0:0:
198,85,19437,2,0,B|187:135|187:135|220:201,1,103.333333333333,10|8,0:1|0:0,0:0:0:0:
285,229,19837,6,0,B|281:299|281:299|289:321|289:321|285:387,1,155,10|8,0:0|0:1,0:0:0:0:
92,250,20637,2,0,L|104:125,1,103.333333333333,10|0,0:0|0:0,0:0:0:0:
184,146,21037,2,0,L|174:248,1,103.333333333333,8|0,0:1|0:0,0:0:0:0:
214,315,21437,6,0,P|316:324|352:271,1,155,10|10,0:0|0:1,0:0:0:0:
511,163,22237,2,0,P|467:107|473:63,1,103.333333333333,10|2,0:0|0:1,0:0:0:0:
512,15,22637,1,10,0:1:0:0:
359,43,22903,5,0,0:0:0:0:
359,43,23037,2,0,L|190:22,1,155,10|8,0:0|0:1,0:0:0:0:
36,183,23837,2,0,B|20:234|20:234|45:286,1,103.333333333333,10|0,0:0|0:0,0:0:0:0:
91,338,24237,2,0,L|213:320,1,103.333333333333,8|0,0:1|0:0,0:0:0:0:
253,274,24637,6,0,B|291:274|291:274|374:302|374:302|421:302,1,155,10|10,0:0|0:1,0:0:0:0:
498,89,25437,1,10,0:0:0:0:
355,28,25703,1,2,0:1:0:0:
355,28,25837,2,0,P|274:32|243:73,1,103.333333333333,10|8,0:1|0:0,0:0:0:0:
208,102,26237,6,0,L|20:82,1,155,10|8,0:0|0:1,0:0:0:0:
189,274,27037,2,0,L|318:240,1,103.333333333333,10|0,0:0|0:0,0:0:0:0:
360,217,27437,1,10,0:1:0:0:
504,161,27703,5,2,0:1:0:0:
504,161,27837,2,0,P|521:234|473:318,1,155,10|8,0:0|0:1,0:0:0:0:
256,304,28637,2,0,P|175:281|89:264,1,155,10|10,0:0|0:1,0:0:0:0:
0,364,29303,1,2,0:1:0:0:
0,364,29437,2,0,B|-27:291|-27:291|7:209,1,155,10|8,0:0|0:1,0:0:0:0:
223,76,30237,2,0,L|388:91,1,155,10|8,0:0|0:1,0:0:0:0:
480,193,30903,5,2,0:1:0:0:
430,252,31037,2,0,L|453:360,1,103.333333333333,10|0,0:0|0:0,0:0:0:0:
368,354,31437,2,0,L|254:333,1,103.333333333333,10|0,0:1|0:0,0:0:0:0:
198,288,31837,2,0,L|84:309,1,103.333333333333,10|0,0:0|0:0,0:0:0:0:
21,269,32237,1,10,0:1:0:0:
105,64,32637,6,0,P|170:75|208:133,1,103.333333333333,8|0,0:0|0:0,0:0:0:0:
227,170,33037,2,0,L|214:304,1,103.333333333333,10|2,0:1|0:1,0:0:0:0:
212,350,33437,1,8,0:0:0:0:
430,271,33837,2,0,L|439:168,1,103.333333333333,10|2,0:1|0:1,0:0:0:0:
449,90,34237,6,0,P|408:50|350:58,1,103.333333333333,8|0,0:0|0:0,0:0:0:0:
309,105,34637,1,10,0:1:0:0:
159,145,34903,1,2,0:1:0:0:
159,145,35037,2,0,P|151:69|199:34,1,103.333333333333,8|0,0:0|0:0,0:0:0:0:
239,28,35437,6,0,L|319:36,1,51.6666666666667,10|2,0:1|0:1,0:0:0:0:
367,42,35703,1,2,0:1:0:0:
444,53,35837,6,0,P|472:132|460:151,1,103.333333333333,8|0,0:0|0:0,0:0:0:0:
431,212,36237,2,0,P|370:187|306:186,1,103.333333333333,10|2,0:1|0:1,0:0:0:0:
270,229,36637,1,8,0:0:0:0:
55,318,37037,2,0,P|22:244|44:199,1,103.333333333333,10|2,0:1|0:1,0:0:0:0:
82,172,37437,6,0,P|99:110|87:67,1,103.333333333333,8|0,0:0|0:0,0:0:0:0:
29,24,37837,1,10,0:1:0:0:
259,53,38237,1,8,0:0:0:0:
259,53,38637,1,8,0:1:0:0:
419,220,39037,6,0,P|423:150|474:66,1,155,8|8,0:0|0:0,0:0:0:0:
256,184,39837,2,0,P|252:114|201:30,1,155,8|8,0:0|0:0,0:0:0:0:
64,221,40637,6,0,B|111:247|111:247|176:227,1,103.333333333333,8|0,0:0|0:0,0:0:0:0:
230,202,41037,2,0,P|281:242|278:291,1,103.333333333333,8|0,0:0|0:0,0:0:0:0:
242,343,41437,1,4,0:3:0:0:
474,329,41837,5,8,0:3:0:0:
474,329,41970,1,8,0:3:0:0:
474,329,42103,1,8,0:3:0:0:
474,329,42237,2,0,L|446:145,1,155,8|8,0:0|0:0,0:0:0:0:
277,21,43037,2,0,P|220:31|188:87,1,103.333333333333,8|0,0:0|0:0,0:0:0:0:
222,142,43437,2,0,P|188:189|205:251,1,103.333333333333,8|0,0:0|0:0,0:0:0:0:
254,288,43837,6,0,B|295:280|295:280|325:284|325:284|358:279,1,103.333333333333,14|8,0:0|0:3,0:0:0:0:
437,261,44237,1,8,0:3:0:0:
437,261,44370,1,8,0:3:0:0:
437,261,44503,1,8,0:3:0:0:
437,261,44637,2,0,P|444:182|493:127,1,155,14|10,0:0|0:1,0:0:0:0:
256,192,47037,5,8,0:3:0:0:
256,192,47170,1,4,0:3:0:0:
179,56,47437,1,8,0:3:0:0:
179,56,47570,1,4,0:3:0:0:
56,151,47837,2,0,B|62:199|62:199|71:215|71:215|78:262,1,103.333333333333,12|8,0:0|0:1,0:0:0:0:
65,328,48237,2,0,P|7:312|-9:311,2,51.6666666666667,8|8|8,0:1|0:1|0:1,0:0:0:0:
152,359,48637,6,0,B|226:342|226:342|264:345|264:345|311:333,1,155,14|8,0:0|0:1,0:0:0:0:
482,183,49437,2,0,P|469:96|438:70,1,103.333333333333,10|0,0:0|0:0,0:0:0:0:
388,59,49837,2,0,L|272:90,1,103.333333333333,8|0,0:1|0:0,0:0:0:0:
224,129,50237,6,0,B|173:121|173:121|122:102|122:102|58:93,2,155,10|10|10,0:0|0:1|0:0,0:0:0:0:
374,164,51303,1,2,0:1:0:0:
374,164,51437,2,0,P|393:224|346:281,1,103.333333333333,10|0,0:1|0:0,0:0:0:0:
316,306,51837,6,0,B|252:301|252:301|214:311|214:311|159:308,1,155,10|8,0:0|0:1,0:0:0:0:
47,154,52637,2,0,P|27:99|49:55,1,103.333333333333,10|0,0:0|0:0,0:0:0:0:
114,27,53037,2,0,P|177:44|260:44,1,103.333333333333,8|0,0:1|0:0,0:0:0:0:
289,24,53437,6,0,B|367:6|367:6|464:25,2,155,10|10|10,0:0|0:1|0:0,0:0:0:0:
210,157,54503,1,2,0:1:0:0:
210,157,54637,2,0,P|197:215|230:262,1,103.333333333333,10|8,0:1|0:0,0:0:0:0:
285,287,55037,6,0,P|337:225|424:234,1,155,10|8,0:0|0:1,0:0:0:0:
489,6,55837,2,0,P|444:53|389:57,1,103.333333333333,10|0,0:0|0:0,0:0:0:0:
333,38,56237,1,10,0:1:0:0:
178,29,56503,5,2,0:1:0:0:
178,29,56637,2,0,P|110:48|82:103,1,103.333333333333,10|0,0:0|0:0,0:0:0:0:
133,137,57037,2,0,P|98:198|117:257,1,103.333333333333,8|0,0:1|0:0,0:0:0:0:
134,299,57437,2,0,P|189:284|296:289,1,155,10|10,0:0|0:1,0:0:0:0:
429,228,58103,1,2,0:1:0:0:
429,228,58237,2,0,B|470:162|470:162|441:74,1,155,10|8,0:0|0:1,0:0:0:0:
215,122,59037,2,0,P|144:149|124:137,1,103.333333333333,10|0,0:0|0:0,0:0:0:0:
113,61,59437,2,0,P|184:34|204:46,1,103.333333333333,8|2,0:1|0:1,0:0:0:0:
215,122,59837,5,10,0:0:0:0:
401,260,60237,2,0,P|463:217|457:175,1,103.333333333333,10|0,0:1|0:0,0:0:0:0:
417,133,60637,2,0,P|409:79|469:41,1,103.333333333333,10|0,0:0|0:0,0:0:0:0:
510,79,61037,1,10,0:1:0:0:
503,311,61437,5,2,0:0:0:0:
281,336,61837,1,10,0:1:0:0:
281,336,61970,1,2,0:1:0:0:
281,336,62103,1,2,0:1:0:0:
281,336,62237,2,0,L|96:303,1,155,10|8,0:0|0:1,0:0:0:0:
34,95,63037,6,0,P|101:48|159:52,1,103.333333333333,10|0,0:0|0:0,0:0:0:0:
192,74,63437,1,8,0:1:0:0:
391,193,63837,2,0,P|455:141|442:65,1,155,10|8,0:0|0:1,0:0:0:0:
252,199,64637,6,0,B|321:207|346:253|318:287|344:344|404:351,3,232.500008869171,14|2|2|2,0:0|0:1|0:0|0:1,0:0:0:0:
151,74,67837,6,0,B|82:82|57:128|85:162|59:219|-1:226,3,232.500008869171,2|2|2|2,0:0|0:1|0:0|0:1,0:0:0:0:
394,259,71037,6,0,B|520:259|520:259|433:146|433:146|455:110|455:110|394:21|394:21|333:109|333:109|357:146|357:146|270:259,1,697.500026607514,2|0,0:0|0:0,0:0:0:0:
