osu file format v14

[General]
AudioFilename: nichijouppoi.mp3
AudioLeadIn: 0
PreviewTime: 7037
Countdown: 0
SampleSet: Soft
StackLeniency: 0.7
Mode: 0
LetterboxInBreaks: 0
WidescreenStoryboard: 1

[Editor]
Bookmarks: 6991,19791,32591,45391,48591,64591
DistanceSpacing: 0.5
BeatDivisor: 6
GridSize: 8
TimelineZoom: 1.9

[Metadata]
Title:Nichijouppoi Christmas
TitleUnicode:日常っぽいクリスマス
Artist:Nomi Yuuji
ArtistUnicode:野見祐二
Creator:hypercyte
Version:Easy
Source:Nichijou
Tags:日常 nichijoppoi nichijo my hypercute life ordinary ost web radio sweet ann vocaloid english ANIME kurisumasu
BeatmapID:2248998
BeatmapSetID:1073902

[Difficulty]
HPDrainRate:2
CircleSize:2.5
OverallDifficulty:2
ApproachRate:3
SliderMultiplier:1
SliderTickRate:1

[Events]
//Background and Video events
0,0,"nichijouchristmas.jpg",0,0
//Break Periods
2,45236,46277
//Storyboard Layer 0 (Background)
//Storyboard Layer 1 (Fail)
//Storyboard Layer 2 (Pass)
//Storyboard Layer 3 (Foreground)
//Storyboard Layer 4 (Overlay)
//Storyboard Sound Samples

[TimingPoints]
637,400,4,2,4,54,1,0
637,-133.333333333333,4,2,4,54,0,0
5303,-100,4,2,4,5,0,0
5437,-100,4,2,4,44,0,0
7037,-100,4,2,4,54,0,0
18237,-100,4,2,4,44,0,0
18637,-100,4,2,4,54,0,0
19037,-100,4,2,4,64,0,0
19437,-100,4,2,4,74,0,0
19837,-100,4,2,4,54,0,0
31037,-100,4,2,4,44,0,0
31303,-100,4,2,4,5,0,0
31437,-100,4,2,4,54,0,0
31703,-100,4,2,4,5,0,0
31837,-100,4,2,4,64,0,0
32103,-100,4,2,4,5,0,0
32237,-100,4,2,4,74,0,0
32637,-100,4,2,4,74,0,0
33437,-100,4,2,4,64,0,0
34237,-100,4,2,4,54,0,0
35037,-100,4,2,4,54,0,0
35837,-100,4,2,4,74,0,0
36637,-100,4,2,4,64,0,0
37437,-100,4,2,4,54,0,0
38237,-100,4,2,4,54,0,0
39037,-100,4,2,4,54,0,0
40637,-100,4,2,4,64,0,0
42503,-100,4,2,4,5,0,0
42637,-100,4,2,4,64,0,0
42770,-100,4,2,4,5,0,0
43037,-100,4,2,4,64,0,0
43303,-100,4,2,4,5,0,0
43437,-100,4,2,4,64,0,0
43570,-100,4,2,4,5,0,0
43837,-100,4,2,4,74,0,0
45437,-100,4,2,4,44,0,0
47037,-100,4,2,4,54,0,0
47437,-100,4,2,4,54,0,0
47837,-100,4,2,4,54,0,0
48637,-100,4,2,4,54,0,0
59837,-100,4,2,4,44,0,0
60237,-100,4,2,4,54,0,0
60503,-100,4,2,4,5,0,0
60637,-100,4,2,4,64,0,0
60903,-100,4,2,4,5,0,0
61037,-100,4,2,4,74,0,0
61303,-100,4,2,4,5,0,0
61437,-100,4,2,4,84,0,0
62237,-100,4,2,4,64,0,0
63037,-100,4,2,4,54,0,0
63303,-100,4,2,4,5,0,0
63437,-100,4,2,4,54,0,0
63703,-100,4,2,4,5,0,0
63837,-100,4,2,4,54,0,0
64103,-100,4,2,4,5,0,0
64237,-100,4,2,4,54,0,0
64637,-133.333333333333,4,2,4,44,0,0
71103,-133.333333333333,4,2,4,24,0,0
71437,-133.333333333333,4,2,4,24,0,0
73437,-133.333333333333,4,2,4,5,0,0

[Colours]
Combo1 : 166,226,255
Combo2 : 255,136,157
Combo3 : 255,204,208
Combo4 : 117,216,103
Combo5 : 177,248,186
Combo6 : 83,199,255

[HitObjects]
256,192,637,12,2,3837,0:1:0:0:
242,197,6237,5,12,0:0:0:0:
432,258,7037,6,0,P|480:191|418:71,1,200,10|10,0:0|0:0,0:0:0:0:
352,46,8237,1,8,0:1:0:0:
275,110,8637,2,0,P|192:118|164:110,1,100,10|10,0:0|0:1,0:0:0:0:
83,150,9437,2,0,P|65:198|98:261,1,100,10|10,0:0|0:1,0:0:0:0:
154,308,10237,6,0,B|231:285|231:285|277:292|277:292|363:264,1,200,10|10,0:0|0:0,0:0:0:0:
416,198,11437,1,8,0:1:0:0:
508,236,11837,2,0,P|522:295|494:341,1,100,10|10,0:0|0:1,0:0:0:0:
410,356,12637,2,0,L|295:344,1,100,10|10,0:0|0:1,0:0:0:0:
224,295,13437,5,10,0:0:0:0:
134,339,13837,1,8,0:1:0:0:
38,309,14237,2,0,P|27:210|90:122,1,200,10|10,0:0|0:0,0:0:0:0:
178,109,15437,1,8,0:1:0:0:
271,143,15837,2,0,P|379:143|457:79,1,200,10|10,0:0|0:0,0:0:0:0:
506,172,17037,5,8,0:1:0:0:
483,269,17437,2,0,L|368:279,1,100,10|10,0:0|0:1,0:0:0:0:
295,323,18237,1,10,0:0:0:0:
204,280,18637,1,10,0:1:0:0:
105,298,19037,2,0,P|53:237|58:215,1,100,10|10,0:0|0:1,0:0:0:0:
46,125,19837,6,0,B|144:147|144:147|238:96,1,200,10|10,0:0|0:0,0:0:0:0:
309,37,21037,1,8,0:1:0:0:
405,63,21437,2,0,P|428:110|404:170,1,100,10|10,0:0|0:1,0:0:0:0:
336,214,22237,2,0,L|223:198,1,100,10|10,0:0|0:1,0:0:0:0:
136,198,23037,6,0,P|72:272|130:350,1,200,10|10,0:0|0:0,0:0:0:0:
218,330,24237,1,8,0:1:0:0:
313,358,24637,2,0,L|412:337,1,100,10|10,0:0|0:1,0:0:0:0:
501,294,25437,2,0,B|515:245|515:245|484:191,1,100,10|10,0:0|0:1,0:0:0:0:
423,128,26237,6,0,L|305:146,1,100,10|8,0:0|0:1,0:0:0:0:
243,203,27037,2,0,P|157:214|81:124,1,200,10|10,0:0|0:0,0:0:0:0:
116,43,28237,1,8,0:1:0:0:
213,21,28637,2,0,L|340:36,1,100,10|10,0:0|0:1,0:0:0:0:
407,64,29437,5,10,0:0:0:0:
378,159,29837,2,0,P|391:205|432:240,2,100,8|10|8,0:1|0:0|0:1,0:0:0:0:
281,132,31037,1,10,0:0:0:0:
181,120,31437,1,10,0:1:0:0:
112,189,31837,1,10,0:0:0:0:
130,287,32237,1,10,0:1:0:0:
228,303,32637,6,0,L|435:295,1,200,8|8,0:0|0:0,0:0:0:0:
446,96,34237,2,0,L|246:103,1,200,8|8,0:0|0:0,0:0:0:0:
153,65,35437,1,10,0:1:0:0:
67,117,35837,6,0,P|36:186|95:303,1,200,8|8,0:0|0:0,0:0:0:0:
282,281,37437,2,0,P|313:188|266:103,1,200,8|8,0:0|0:0,0:0:0:0:
66,114,39037,5,8,0:0:0:0:
236,8,39837,1,8,0:0:0:0:
411,103,40637,2,0,B|471:181|471:181|436:288,1,200,8|4,0:0|0:3,0:0:0:0:
354,328,41837,1,8,0:3:0:0:
283,257,42237,6,0,P|197:226|172:237,1,100,8|8,0:0|0:0,0:0:0:0:
98,257,43037,2,0,L|57:153,1,100,8|8,0:0|0:0,0:0:0:0:
116,80,43837,1,14,0:0:0:0:
213,93,44237,1,8,0:3:0:0:
299,43,44637,2,0,L|414:38,1,100,14|10,0:0|0:1,0:0:0:0:
416,192,47837,6,0,L|310:177,1,100,12|8,0:0|0:1,0:0:0:0:
224,140,48637,6,0,P|138:208|151:296,1,200,14|10,0:0|0:0,0:0:0:0:
246,279,49837,1,8,0:1:0:0:
337,319,50237,2,0,P|359:263|402:229,1,100,10|10,0:0|0:1,0:0:0:0:
454,162,51037,2,0,P|432:106|389:72,1,100,10|10,0:0|0:1,0:0:0:0:
313,35,51837,6,0,B|252:36|219:74|234:95|194:133|132:125,1,200,10|10,0:0|0:0,0:0:0:0:
49,159,53037,1,8,0:1:0:0:
17,253,53437,2,0,P|28:325|57:349,1,100,10|10,0:0|0:1,0:0:0:0:
138,304,54237,2,0,L|252:243,1,100,10|10,0:0|0:1,0:0:0:0:
310,203,55037,6,0,B|358:225|358:225|403:212,1,100,10|8,0:0|0:1,0:0:0:0:
495,251,55837,2,0,P|502:301|369:347,1,200,10|10,0:0|0:0,0:0:0:0:
293,323,57037,1,8,0:1:0:0:
201,364,57437,2,0,P|157:290|41:214,1,200,10|10,0:0|0:0,0:0:0:0:
35,128,58637,5,8,0:1:0:0:
118,72,59037,2,0,L|329:88,1,200,10|10,0:0|0:0,0:0:0:0:
415,107,60237,1,10,0:1:0:0:
453,199,60637,1,10,0:0:0:0:
383,271,61037,1,10,0:1:0:0:
290,233,61437,6,0,L|172:245,1,100,2|10,0:0|0:1,0:0:0:0:
90,252,62237,2,0,P|67:302|84:355,1,100,10|8,0:0|0:1,0:0:0:0:
176,353,63037,2,0,L|389:328,1,200,10|10,0:0|0:0,0:0:0:0:
450,264,64237,1,8,0:1:0:0:
406,174,64637,5,14,0:0:0:0:
338,39,66237,1,2,0:0:0:0:
206,110,67837,1,2,0:0:0:0:
255,251,69437,1,2,0:0:0:0:
381,170,71037,6,0,B|461:170|461:170|405:98|405:98|420:75|420:75|381:18|381:18|341:74|341:74|357:98|357:98|301:170,1,450.000017166138,2|0,0:0|0:0,0:0:0:0:
