osu file format v14

[General]
AudioFilename: fatima.ogg
AudioLeadIn: 0
PreviewTime: 15
Countdown: 0
SampleSet: Soft
StackLeniency: 0.9
Mode: 0
LetterboxInBreaks: 0
WidescreenStoryboard: 1

[Editor]
DistanceSpacing: 1.8
BeatDivisor: 6
GridSize: 32
TimelineZoom: 1.940002

[Metadata]
Title:LILIUM
TitleUnicode:LILIUM
Artist:Noma Kumiko
ArtistUnicode:野間久美子
Creator:App
Version:INSANIAE
Source:エルフェンリート
Tags:齋藤 斎藤順 Saitou Jun Saitoh Mr.Bassman! 堀沢真己 Horizawa Masami Cello Solo 小黒 Oguro 篠崎正嗣 ストリングス Shinozaki Strings Masatsugu 小西葉 Kayo Konishi 近藤由紀夫 Yukio Kondo latin classical elfen lied anime op opening piano violin MOKA☆ MOKA* ~Extended DarkJedi Edition - Final Mix~
BeatmapID:4440618
BeatmapSetID:2114717

[Difficulty]
HPDrainRate:4.4
CircleSize:4.4
OverallDifficulty:7
ApproachRate:8
SliderMultiplier:1.8
SliderTickRate:2

[Events]
//Background and Video events
0,0,"satan.jpg",0,0
//Break Periods
//Storyboard Layer 0 (Background)
//Storyboard Layer 1 (Fail)
//Storyboard Layer 2 (Pass)
//Storyboard Layer 3 (Foreground)
//Storyboard Layer 4 (Overlay)
//Storyboard Sound Samples

[TimingPoints]
80,597.014925373134,4,2,1,30,1,0
677,851.788756388416,4,2,1,30,1,1
2380,983.606557377048,4,2,1,20,1,1
2871,845.07042253521,4,2,1,20,1,1
3293,1073.34525939177,4,2,1,30,1,0
3293,-133.333333333333,4,2,1,30,0,0
5439,-100,4,2,1,30,0,0
7586,-133.333333333333,4,2,1,30,0,0
9733,-100,4,2,1,30,0,0
10806,1073.34525939177,4,2,1,30,1,0
14026,-133.333333333333,4,2,1,30,0,0
15099,-100,4,2,1,30,0,0
20466,-80,4,2,1,30,0,0
22076,-100,4,2,1,30,0,0
23686,1036.26943005181,4,2,1,30,1,0
23686,-88.8888888888889,4,2,1,30,0,0
24722,1073.34525939177,4,2,1,30,1,0
24722,-88.8888888888889,4,2,1,30,0,0
25795,1073.34525939177,4,2,1,30,1,0
25795,-80,4,2,1,30,0,0
27405,1059.13503971756,4,2,1,30,1,0
27934,1071.42857142857,4,2,1,35,1,0
34362,1209.67741935484,4,2,1,35,1,0
35571,937.499999999999,4,2,1,35,1,0
35571,-133.333333333333,4,2,1,35,0,0
36508,1067.61565836299,4,2,1,35,1,0
37575,1071.42857142857,4,2,1,35,1,0
37575,-100,4,2,1,35,0,0
39717,1071.67735367139,4,2,1,35,1,0
45075,-88.8888888888889,4,2,1,35,0,0
46147,-80,4,2,1,35,0,0
48826,1153.84615384615,4,2,1,35,1,0
48826,-66.6666666666667,4,2,1,35,0,0
49402,983.606557377049,4,2,1,40,1,0
49402,-57.1428571428571,4,2,1,40,0,0
49893,1132.07547169811,4,2,1,45,1,0
49893,-50,4,2,1,45,0,0
50459,1025.64102564102,4,2,1,45,1,0
50459,-44.4444444444445,4,2,1,45,0,0
51484,1043.47826086956,4,2,1,45,1,0
51484,-44.4444444444445,4,2,1,45,0,0
52527,1071.42857142857,4,2,1,45,1,0
52527,-44.4444444444445,4,2,1,45,0,0
53598,1100.91743119266,4,2,1,45,1,0
53598,-44.4444444444445,4,2,1,45,0,0
54698,1111.11111111111,4,2,1,45,1,0
54698,-44.4444444444445,4,2,1,45,0,0
55253,-44.4444444444445,4,2,1,40,0,0
55809,1052.63157894737,4,2,1,40,1,0
55809,-44.4444444444445,4,2,1,40,0,0
56861,1090.90909090909,4,2,1,40,1,0
57406,1071.42857142857,4,2,1,35,1,0
57406,-66.6666666666667,4,2,1,35,0,0
57941,-57.1428571428571,4,2,1,40,0,0
58477,-50,4,2,1,45,0,0
59013,1071.42857142857,4,2,1,45,1,0
59013,-44.4444444444445,4,2,1,45,0,0
60620,-40,4,2,1,45,0,0
62227,-44.4444444444445,4,2,1,45,0,0
63298,-44.4444444444445,4,2,1,40,0,0
64370,1081.08108108108,4,2,1,40,1,0
64370,-44.4444444444445,4,2,1,40,0,0
65451,1224.48979591837,4,2,1,45,1,0
66063,1090.9090909091,4,2,1,45,1,0
66063,-44.4444444444445,4,2,1,45,0,0
67153,1132.07547169812,4,2,1,45,1,0
67153,-44.4444444444445,4,2,1,45,0,0
67719,1445.78313253013,4,2,1,45,1,0
67719,-80,4,2,1,45,0,0
69887,-80,4,2,1,5,0,0
70610,967.741935483871,4,2,1,20,1,0
71093,1224.48979591837,4,2,1,20,1,0
71705,1081.08108108108,4,2,1,30,1,0
73867,1061.94690265487,4,2,1,30,1,0
73867,-80,4,2,1,30,0,0
75990,1073.34525939177,3,2,1,30,1,0
79210,1085.97285067873,4,2,1,30,1,0
83553,1016.94915254237,4,2,1,30,1,0
83553,-133.333333333333,4,2,1,30,0,0
84569,1071.42857142857,4,2,1,30,1,0
85640,1081.08108108108,4,2,1,30,1,0
87802,1073.34525939177,4,2,1,30,1,0
88875,-80,4,2,1,30,0,0
90485,-133.333333333333,4,2,1,30,0,0
92095,1061.94690265487,4,2,1,30,1,0
95280,937.500000000001,4,2,1,30,1,0
95748,1176.47058823529,4,2,1,30,1,0
96336,1071.42857142857,4,2,1,35,1,0
98478,1034.48275862069,4,2,1,35,1,0
99512,1121.4953271028,4,2,1,35,1,0
100633,1071.42857142857,3,2,1,35,1,0
101168,-133.333333333333,3,2,1,35,0,0
102775,-100,3,2,1,35,0,0
103847,1066.66666666667,4,2,1,35,1,0
108113,1090.9090909091,4,2,1,35,1,0
108113,-66.6666666666667,4,2,1,35,0,0
110294,1132.07547169812,4,2,1,35,1,0
110860,975.609756097566,4,2,1,35,1,0
111347,1132.07547169812,4,2,1,35,1,0
111913,1016.94915254237,4,2,1,35,1,0
112421,1071.42857142857,4,2,1,35,1,0
112956,-88.8888888888889,4,2,1,35,0,0
113492,-80,4,2,1,35,0,0
114563,-72.7272727272727,4,2,1,35,0,0
115635,-88.8888888888889,4,2,1,35,0,0
118313,1121.4953271028,4,2,1,35,1,0
118873,1355.93220338983,4,2,1,35,1,0
118873,-133.333333333333,4,2,1,35,0,0
120906,-133.333333333333,4,2,1,5,0,0
121584,1176.4705882353,4,2,1,35,1,0
121584,-50,4,2,1,35,0,0
122172,1034.4827586207,4,2,1,35,1,0
122172,-44.4444444444445,4,2,1,35,0,0
122689,1071.42857142858,3,2,1,40,1,0
122689,-40,3,2,1,40,0,0
124831,-33.3333333333333,3,2,1,40,0,0
125367,-40,3,2,1,40,0,0
125903,-44.4444444444445,3,2,1,40,0,0
128046,-50,3,2,1,40,0,0
128581,-44.4444444444445,3,2,1,40,0,0
129117,-40,3,2,1,40,0,0
132867,-50,3,2,1,40,0,0
135010,-44.4444444444445,3,2,1,40,0,0
135546,-40,3,2,1,40,0,0
139296,-44.4444444444445,3,2,1,40,0,0
139831,-50,3,2,1,40,0,0
141974,1071.42857142858,4,2,1,40,1,0
141974,-40,4,2,1,40,0,0
146259,-66.6666666666667,4,2,1,40,0,0
146795,983.606557377057,4,2,1,30,1,0
146795,-66.6666666666667,4,2,1,30,0,0
147286,1034.4827586207,4,2,1,30,1,0
147286,-80,4,2,1,30,0,0
147803,1198.8011988012,4,2,1,30,1,0
147803,-100,4,2,1,30,0,0
148402,1071.42857142858,4,2,1,30,1,0
148402,-133.333333333333,4,2,1,30,0,0
149473,1071.42857142858,3,2,1,40,1,0
149473,-40,3,2,1,40,0,0
155767,-40,3,2,1,35,0,0
156973,-40,3,2,1,30,0,0
159115,1071.42857142858,4,2,1,30,1,0
159115,-66.6666666666667,4,2,1,30,0,0
160186,-40,4,2,1,35,0,0
161257,-40,4,2,1,40,0,0
165007,-40,4,2,1,35,0,0
169830,1111.11111111112,4,2,1,30,1,0
170385,-50,4,2,1,35,0,0
170941,1034.4827586207,4,2,1,40,1,0
170941,-44.4444444444445,4,2,1,40,0,0
171458,1188.11881188119,4,2,1,45,1,0
171458,-40,4,2,1,45,0,0
172052,1052.63157894737,4,2,1,50,1,0
172052,-28.5714285714286,4,2,1,50,0,0
173104,-30.7692307692308,4,2,1,50,0,0
173630,-33.3333333333333,4,2,1,50,0,0
175209,-50,4,2,1,50,0,0
176262,1069.51871657754,4,2,1,50,1,0
176262,-33.3333333333333,4,2,1,50,0,0
177331,-50,4,2,1,50,0,0
177688,-40,4,2,1,50,0,0
178401,-40,4,2,1,50,0,0
178935,-50,4,2,1,40,0,0
179470,-44.4444444444445,4,2,1,45,0,0
180005,-40,4,2,1,50,0,0
180540,-33.3333333333333,4,2,1,55,0,0
184283,-66.6666666666667,4,2,1,55,0,0
184818,-66.6666666666667,4,2,1,50,0,0
185887,-66.6666666666667,4,2,1,45,0,0
186957,-33.3333333333333,4,2,1,45,0,0
187491,-33.3333333333333,4,2,1,50,0,0
189096,1252.60960334029,4,2,1,45,1,0
191131,-100,4,2,1,5,0,0
192227,1052.63157894737,4,2,1,20,1,0
192753,1200.00000000001,4,2,1,20,1,0
193353,1072.38605898123,4,2,1,30,1,0
197642,1072.38605898123,3,2,1,30,1,0
200859,1072.38605898123,4,2,1,30,1,0
210510,-80,4,2,1,30,0,0
211582,-66.6666666666667,4,2,1,30,0,0
212655,-57.1428571428571,4,2,1,30,0,0
215872,1379.94480220791,4,2,1,30,1,0
217424,-100,4,2,1,5,0,0
218631,937.499999999998,4,2,1,25,1,0
218865,1071.42857142857,4,2,1,25,1,0
218865,-50,4,2,1,25,0,0
219400,1071.42857142857,3,2,1,35,1,0
219400,-40,3,2,1,35,0,0
220471,-40,3,2,1,30,0,0
238685,1071.42857142857,4,2,1,25,1,0
238685,-40,4,2,1,25,0,0
239756,-40,4,2,1,30,0,0
240827,-33.3333333333333,4,2,1,30,0,0
242970,-40,4,2,1,25,0,0
243506,-40,4,2,1,20,0,0
246183,1071.42857142857,3,2,1,35,1,0
246183,-33.3333333333333,3,2,1,35,0,0
252075,-33.3333333333333,3,2,1,30,0,0
255825,1071.42857142857,4,2,1,30,1,0
255825,-33.3333333333333,4,2,1,30,0,0
264396,1237.11340206186,4,2,1,30,1,0
264396,-50,4,2,1,30,0,0
265633,-66.6666666666667,4,2,1,20,0,0
266406,-66.6666666666667,4,2,1,5,0,0
266870,1200,4,2,1,25,1,0
267470,967.741935483871,4,2,1,25,1,0
267953,1034.48275862069,4,2,1,30,1,0
270021,1052.63157894737,4,2,1,30,1,0
271073,1111.11111111111,4,2,1,30,1,0
272184,1071.42857142857,4,2,1,30,1,0
273791,909.090909090908,4,2,1,30,1,0
274245,1176.47058823529,4,2,1,30,1,0
274833,1071.42857142857,4,2,1,30,1,0
275368,1034.4827586207,4,2,1,30,1,0
276402,1176.4705882353,4,2,1,30,1,0
277578,1276.59574468085,4,2,1,30,1,0
278216,800,4,2,1,30,1,0
278616,1224.48979591837,4,2,1,30,1,0
279228,1052.63157894737,4,2,1,30,1,0
279754,1034.48275862069,4,2,1,30,1,0
281822,1363.63636363636,4,2,1,30,1,0
282503,1499.99999999999,4,2,1,30,1,0
282878,1071.42857142857,4,2,1,30,1,0
283949,1071.42857142857,4,2,1,30,1,0
284484,-88.8888888888889,4,2,1,30,0,0
285020,-80,4,2,1,30,0,0
285556,-72.7272727272727,4,2,1,30,0,0
286091,1111.11111111111,4,2,1,30,1,0
286091,-66.6666666666667,4,2,1,30,0,0
287202,1180.52139695032,4,2,1,30,1,0
287202,-66.6666666666667,4,2,1,30,0,0
288382,1250,4,2,1,25,1,0
289484,1034.48275862069,4,2,1,25,1,0
290518,1407.36049539089,4,2,1,25,1,0
290869,-100,4,2,1,20,0,0
291221,-100,4,2,1,15,0,0
291573,-100,4,2,1,10,0,0
291925,-100,4,2,1,5,0,0
296147,1071.42857142857,4,2,1,15,1,0
297218,1071.42857142857,4,2,1,20,1,0
297218,-80,4,2,1,20,0,0
304717,1073.34525939177,4,2,1,20,1,0
314377,-66.6666666666667,4,2,1,20,0,0
314913,-100,4,2,1,20,0,0
319743,1034.48275862069,4,2,1,20,1,0
319807,-100,4,2,1,15,0,0
320389,-100,4,2,1,20,0,1
321811,779.220779220779,4,2,1,10,1,1
322200,-100,4,2,1,15,0,1
322590,-100,4,2,1,10,0,1
322979,952.380952380952,4,2,1,20,1,0
323455,-100,4,2,1,25,0,0
323931,1090.90909090909,4,2,1,25,1,0
324476,952.380952380951,4,2,1,30,1,0
324952,882.352941176469,4,2,1,30,1,0
325393,1224.48979591837,4,2,1,35,1,0
326005,1025.64102564102,4,2,1,35,1,0
326517,1025.64102564102,4,2,1,35,1,0
327029,-100,4,2,1,40,0,0
327542,1025.64102564102,4,2,1,40,1,0
328054,967.741935483866,4,2,1,40,1,0
329504,999.999999999988,4,2,1,40,1,0
330004,1153.84615384614,4,2,1,40,1,1
330580,1025.64102564101,4,2,1,15,1,1
331092,1034.48275862067,4,2,1,30,1,1
332126,-100,4,2,1,10,0,0
332643,975.609756097561,4,2,1,5,1,0
333618,952.380952380952,4,2,1,5,1,0
334570,967.741935483871,4,2,1,10,1,0
334570,-100,4,2,1,10,0,0
335053,902.255639097745,4,2,1,5,1,0
335955,923.076923076924,4,2,1,10,1,0
336416,983.606557377046,4,2,1,5,1,0

[Colours]
Combo1 : 203,67,104
Combo2 : 167,27,167
Combo3 : 218,131,203
Combo4 : 154,52,105

[HitObjects]
410,252,80,5,8,0:0:0:0:
102,348,676,5,10,3:2:0:0:
256,192,783,12,2,2380,0:0:0:0:
478,16,2871,5,2,0:0:0:0:
478,16,3293,2,0,P|474:59|471:142,1,101.250003862381,2|0,0:0|0:0,0:0:0:0:
512,313,4366,1,0,0:0:0:0:
476,214,4903,1,2,0:0:0:0:
336,129,5439,2,0,B|235:87|209:164|136:139,1,180,2|2,0:0|0:0,0:0:0:0:
29,21,7049,5,2,0:0:0:0:
29,21,7586,2,0,B|106:131|-15:155|35:212,1,202.500007724762,2|2,0:0|0:0,0:0:0:0:
261,364,9733,2,0,P|328:324|407:361,1,135,2|0,0:0|0:0,0:0:0:0:
472,379,10806,6,0,P|489:271|466:186,1,180,2|0,0:0|0:0,0:0:0:0:
362,145,12416,1,0,0:0:0:0:
481,14,12952,2,0,P|454:72|463:125,1,90,0|2,0:0|0:0,0:0:0:0:
309,256,14026,2,0,P|352:250|383:228,1,75.0000028610231,2|2,0:0|0:0,0:0:0:0:
217,3,15099,6,0,P|200:97|190:200,1,180,2|0,0:0|0:0,0:0:0:0:
260,381,16709,1,0,0:0:0:0:
260,381,17246,2,0,P|259:322|216:278,1,90,0|2,0:0|0:0,0:0:0:0:
181,263,18051,1,0,0:0:0:0:
158,292,18319,1,2,0:0:0:0:
116,225,18856,1,2,0:0:0:0:
11,372,19392,6,0,L|30:259,1,90,2|2,0:0|0:0,0:0:0:0:
257,90,20466,2,0,B|343:161|343:161|478:110,1,225,2|0,0:0|0:0,0:0:0:0:
409,131,22076,2,0,B|411:214|427:204|426:253,2,90,2|2|2,0:0|0:0|0:0,0:0:0:0:
484,369,23686,6,0,P|453:318|311:361,1,202.500007724762,2|0,0:0|0:0,0:0:0:0:
502,104,25258,2,0,L|426:124,1,50.6250019311906,2|0,0:0|0:0,0:0:0:0:
512,237,25795,2,0,L|249:195,1,225,2|2,0:0|0:0,0:0:0:0:
199,361,27405,5,2,0:0:0:0:
199,361,27934,2,0,P|106:371|41:301,1,180,2|0,0:0|0:0,0:0:0:0:
123,170,29541,2,0,P|126:150|131:86,1,45,2|0,0:0|0:0,0:1:0:0:
0,257,30076,2,0,P|80:243|193:235,1,180,2|2,0:0|0:0,0:0:0:0:
487,309,31683,5,2,0:0:0:0:
487,309,32219,2,0,B|415:185|573:193|511:52,1,270,2|2,0:0|0:0,0:0:0:0:
164,13,34362,2,0,P|202:58|240:51,1,90,2|2,0:0|0:0,0:0:0:0:
512,200,35571,6,0,P|419:228|357:245,1,135.000005149842,2|0,0:0|0:0,0:0:0:0:
268,381,37042,1,0,0:0:0:0:
167,283,37575,2,0,B|104:278|103:322|16:308,1,120,0|2,0:0|0:0,0:0:0:0:
158,366,38647,5,2,0:0:0:0:
432,301,39182,2,0,P|443:230|445:199,1,90,2|2,0:0|0:0,0:0:0:0:
84,0,40788,6,0,P|95:71|109:209,1,180,2|0,0:0|0:0,0:0:0:0:
25,361,42395,1,2,0:0:0:0:
84,200,42931,1,2,0:0:0:0:
0,348,43466,1,2,0:0:0:0:
306,339,44003,6,0,B|348:353|348:353|416:314,1,90,2|2,0:0|0:0,0:0:0:0:
443,319,44986,5,0,0:0:0:0:
423,325,45075,2,0,B|457:367|457:367|534:362,1,101.250003862381,2|2,0:0|0:0,0:0:0:0:
451,72,46147,2,0,B|373:37|373:37|295:111,1,168.75,2|0,0:0|0:0,0:0:0:0:
305,212,47218,2,0,P|294:157|284:102,1,112.5,2|2,0:0|0:0,0:0:0:0:
275,240,48021,1,0,0:0:0:0:
312,94,48291,5,2,0:0:0:0:
312,94,48826,6,0,L|200:79,1,67.5000025749208,2|0,0:0|0:0,0:0:0:0:
385,293,49402,6,0,L|424:225,1,78.7500007510185,2|0,0:0|0:0,0:0:0:0:
131,289,49893,6,0,L|187:407,1,90,2|0,0:0|0:0,0:0:0:0:
350,100,50459,6,2,B|252:59|211:164|142:147,1,202.500007724762,6|2,0:1|0:1,0:1:0:0:
59,49,51228,1,0,0:0:0:0:
248,51,51484,2,0,L|264:226,1,101.250003862381,2|0,0:1|0:0,0:0:0:0:
435,384,52005,2,2,L|455:153,1,202.500007724762,2|2,0:1|0:1,0:1:0:0:
501,44,52794,5,0,0:0:0:0:
390,138,53062,2,2,B|280:115|241:197|198:238|290:99,1,202.500007724762,2|2,0:1|0:1,0:1:0:0:
280,331,53873,1,0,0:0:0:0:
0,322,54148,6,0,P|52:362|148:346,1,101.250003862381,2|0,0:1|0:0,0:0:0:0:
146,97,54698,2,0,P|163:208|225:309,1,202.500007724762,6|2,0:1|0:0,0:0:0:0:
359,374,55531,1,0,0:0:0:0:
212,383,55809,6,0,P|236:256|263:165,1,202.500007724762,2|0,0:0|0:0,0:0:0:0:
448,173,56510,2,0,B|423:116|492:117|459:24,1,135.000005149841,2|2,0:0|0:0,0:0:0:0:
182,224,57406,6,0,P|184:278|195:337,1,67.5000025749208,2|0,0:0|0:0,0:0:0:0:
366,366,57941,6,0,P|370:283|367:269,1,78.7500007510185,2|0,0:0|0:0,0:0:0:0:
66,147,58477,6,0,P|64:186|70:238,1,90,2|0,0:0|0:0,0:0:0:0:
493,381,59013,6,2,P|493:288|479:163,1,202.500007724762,6|2,0:1|0:1,0:1:0:0:
440,67,59816,1,0,0:0:0:0:
409,225,60084,2,0,P|370:274|329:241,1,101.250003862381,2|0,0:1|0:0,0:0:0:0:
32,114,60620,6,2,P|134:98|276:99,2,225,2|2|2,0:1|0:1|0:1,0:1:0:0:
6,241,61959,1,0,0:0:0:0:
72,80,62227,2,2,P|122:103|208:112,1,101.250003862381,2|0,0:1|0:0,0:1:0:0:
226,318,62762,2,2,P|296:253|369:232,1,151.875005793572,2|0,0:1|0:0,0:1:0:0:
377,255,63298,6,0,P|385:268|384:301,6,25.3125009655953,4|0|2|2|2|0|0,0:0|0:0|0:0|0:0|0:0|0:0|0:0,0:0:0:0:
422,336,63834,2,0,P|430:246|495:148,1,202.500007724762,2|2,0:0|0:0,0:0:0:0:
415,38,64640,1,0,0:0:0:0:
351,112,64910,2,0,B|279:203|251:85|235:42|103:80,1,202.500007724762,2|2,0:0|0:0,0:0:0:0:
68,174,65757,5,0,0:0:0:0:
334,0,66063,2,0,B|309:119|216:51|244:231,1,202.500007724762,2|0,0:0|0:0,0:0:0:0:
86,280,66881,1,0,0:0:0:0:
129,355,67153,2,0,P|173:307|260:337,1,151.875005793572,2|0,0:0|0:0,0:0:0:0:
309,384,67719,6,0,B|416:357|300:-32|251:170,1,337.5,2|0,0:0|0:0,0:0:0:0:
36,13,70610,5,2,0:0:0:0:
36,13,71093,1,2,0:0:0:0:
36,13,71705,2,0,B|14:70|130:168|277:17,1,315,2|0,0:0|0:0,0:0:0:0:
169,3,73867,2,0,B|135:24|135:170|253:211,1,225,2|2,0:0|0:0,0:0:0:0:
305,224,75459,5,2,0:0:0:0:
305,224,75990,2,0,P|309:285|317:352,1,90,2|0,0:0|0:0,0:0:0:0:
365,345,76795,1,0,0:0:0:0:
365,345,77063,1,0,0:0:0:0:
231,182,77600,6,0,P|187:222|134:215,1,90,2|2,0:0|0:0,0:0:0:0:
80,166,78405,1,0,0:0:0:0:
72,146,78673,2,0,P|86:81|98:28,1,90,2|2,0:0|0:0,0:0:0:0:
279,94,79752,6,0,B|386:86|347:129|440:113,1,135
455,60,80838,2,0,B|459:84|461:112,1,45
512,24,81381,2,0,B|508:48|494:142,1,90,0|2,0:0|0:0,0:0:0:0:
456,173,82196,1,0,0:0:0:0:
506,257,82467,6,0,P|415:257|375:316,1,157.5,2|0,0:0|0:0,0:0:0:0:
366,329,83553,2,0,P|266:321|211:318,1,135.000005149842,2|0,0:0|0:0,0:0:0:0:
191,341,84836,1,0,0:0:0:0:
191,341,85104,2,0,L|205:400,1,45
71,239,85640,6,0,L|113:119,1,90,0|2,0:0|0:0,0:0:0:0:
61,86,86450,1,0,0:0:0:0:
55,75,86721,2,0,P|40:126|138:202,1,180,2|2,0:0|0:0,0:0:0:0:
410,136,88338,2,0,L|475:127,1,45,2|0,0:0|0:0,0:0:0:0:
321,84,88875,2,0,L|452:108,2,112.5,2|0|0,0:0|0:0|0:0,0:0:0:0:
192,342,90485,6,0,P|187:303|208:265,1,67.5000025749208,2|2,0:0|0:0,0:0:0:0:
253,192,91290,1,0,0:0:0:0:
253,192,91558,1,2,0:0:0:0:
253,192,92095,6,0,B|256:115|220:62|232:7,1,180,2|0,0:0|0:0,0:0:0:0:
230,14,93422,1,0,0:0:0:0:
176,157,93687,2,2,P|151:149|90:140,1,45,2|0,0:0|0:0,0:1:0:0:
305,56,94218,2,2,P|339:112|416:111,1,135,2|0,0:0|0:0,0:1:0:0:
465,50,95280,5,2,0:0:0:0:
465,50,95748,1,2,0:0:0:0:
465,50,96336,2,0,P|474:152|483:265,1,180,2|0,0:0|0:0,0:0:0:0:
261,366,97943,2,0,P|266:337|300:311,1,45,2|0,0:0|0:0,0:0:0:0:
480,229,98478,2,2,B|406:230|416:253|332:267,1,135,2|0,0:0|0:0,0:1:0:0:
292,220,99512,6,0,L|230:213,1,45,2|0,0:0|0:0,0:0:0:0:
261,366,100072,2,0,L|164:382,1,90,2|2,0:0|0:0,0:0:0:0:
88,337,100900,1,0,0:0:0:0:
27,366,101168,6,0,B|4:312|42:274|71:286|48:217,1,135.000005149842,2|0,0:0|0:0,0:0:0:0:
1,130,102508,1,0,0:0:0:0:
1,130,102775,2,0,P|23:91|59:138,1,90,2|2,0:0|0:0,0:0:0:0:
88,172,103579,1,0,0:0:0:0:
167,53,103847,5,2,0:1:0:0:
180,59,103980,1,0,0:0:0:0:
188,47,104113,1,0,0:0:0:0:
272,84,104380,6,0,B|280:135|280:135|292:95,1,90,2|0,0:1|0:0,0:0:0:0:
274,291,105447,2,0,L|300:355,1,45
173,299,105980,2,0,L|294:351,1,90,0|2,0:0|0:0,0:0:0:0:
157,235,106780,1,0,0:0:0:0:
126,235,107047,2,0,B|104:219|104:219|120:194,1,45,2|0,0:0|0:0,0:0:0:0:
2,269,107580,1,2,0:0:0:0:
223,51,108113,6,0,B|319:171|394:60|471:94,2,270.000010299683,2|0|0,0:0|0:0|0:0,0:0:0:0:
365,112,110860,2,0,P|399:78|444:35,1,90,2|2,0:0|0:0,0:0:0:0:
412,126,111913,1,2,0:0:0:0:
368,186,112167,1,0,0:0:0:0:
399,225,112421,6,0,P|412:264|417:305,1,67.5,2|0,0:0|0:0,0:0:0:0:
393,320,112956,2,0,L|333:307,1,50.6250019311906,2|0,0:0|0:0,0:0:0:0:
194,181,113492,2,0,L|68:158,1,112.5,2|2,0:0|0:0,0:0:0:0:
20,65,114296,1,0,0:0:0:0:
70,10,114563,6,0,B|96:16|96:16|156:103,1,123.750001180172,2|0,0:0|0:0,0:0:0:0:
69,280,115367,1,0,0:0:0:0:
19,330,115635,6,0,P|13:356|10:380,1,50.6250019311906,2|0,0:0|0:0,0:0:0:0:
142,314,116171,6,0,P|153:336|161:313,1,50.6250019311906,2|0,0:0|0:0,0:0:0:0:
269,173,116706,6,0,B|308:210|401:197|436:73,1,202.500007724762,2|0,0:0|0:0,0:0:0:0:
389,72,118313,2,0,L|384:127,1,45,2|0,0:0|0:0,0:0:0:0:
505,174,118873,2,0,B|486:380|510:174|489:394,1,202.500007724762,2|0,0:0|0:0,0:0:0:0:
56,142,121584,6,0,B|46:159|46:159|46:196|86:246,1,90,2|0,0:0|0:0,0:0:0:0:
182,21,122172,6,0,B|187:45|218:50|218:50|244:28|275:32,1,101.250003862381,2|0,0:0|0:0,0:0:0:0:
445,292,122689,6,0,B|522:165|489:21|397:53|339:151|368:276,1,450,6|0,0:0|0:0,0:0:0:0:
502,365,124296,1,2,0:0:0:0:
502,365,124430,1,0,0:0:0:0:
502,365,124564,1,0,0:0:0:0:
474,334,124831,6,0,L|321:371,1,135.000005149842,2|0,0:0|0:0,0:0:0:0:
512,173,125367,2,0,L|386:144,1,112.5,2|0,0:0|0:0,0:0:0:0:
265,299,125903,2,0,L|65:333,2,202.500007724762,2|2|2,0:0|0:0|0:0,0:0:0:0:
293,321,127108,1,0,0:0:0:0:
293,321,127242,1,0,0:0:0:0:
343,18,128046,6,0,P|338:68|332:134,1,90,2|0,0:0|0:0,0:0:0:0:
417,371,128581,6,0,P|412:326|405:266,1,101.250003862381,2|0,0:0|0:0,0:0:0:0:
207,136,129117,6,0,P|166:65|16:36,1,225,6|0,0:0|0:0,0:0:0:0:
69,342,130189,1,0,0:0:0:0:
69,342,130322,1,0,0:0:0:0:
69,342,130456,1,0,0:0:0:0:
33,281,130724,6,0,B|177:377|177:377|227:326,1,225,2|2,0:0|0:0,0:0:0:0:
283,71,131528,1,0,0:0:0:0:
487,111,131796,2,0,L|320:146,1,112.5,2|0,0:0|0:0,0:0:0:0:
169,231,132331,5,2,0:0:0:0:
169,231,132867,2,0,P|163:171|175:230,2,180,2|2|2,0:0|0:0|0:0,0:0:0:0:
482,38,134474,6,0,P|443:60|407:98,1,90,2|0,0:0|0:0,0:0:0:0:
470,344,135010,6,0,P|388:292|376:248,1,101.250003862381,2|0,0:0|0:0,0:0:0:0:
285,12,135546,6,0,B|351:158|167:185|259:346,1,337.5,6|0,0:0|0:0,0:0:0:0:
151,131,136617,2,0,P|147:75|161:21,1,112.5,2|0,0:0|0:0,0:0:0:0:
340,227,137153,2,0,P|354:177|393:128,1,112.5,2|0,0:0|0:0,0:0:0:0:
147,317,137689,6,0,B|57:299|51:367|1:362|60:416|139:342,2,225,2|2|2,0:0|0:0|0:0,0:0:0:0:
199,365,138894,1,0,0:0:0:0:
199,365,139028,1,0,0:0:0:0:
364,182,139296,2,0,B|414:213|414:213|421:228|424:248|424:248|479:282,1,151.875005793572,2|0,0:0|0:0,0:0:0:0:
498,296,139831,2,0,B|486:362|486:362|477:343|477:343|501:266|483:156,1,270,2|0,0:0|0:0,0:0:0:0:
163,72,140903,6,0,B|95:71|17:38|17:38|0:14,1,180,2|2,0:0|0:0,0:0:0:0:
315,195,141706,1,0,0:0:0:0:
501,320,141974,6,0,B|392:270|286:266|286:266|244:314|229:369,1,337.5,6|0,0:0|0:0,0:0:0:0:
176,314,143045,2,0,P|175:276|199:186,1,112.5,2|0,0:0|0:0,0:0:0:0:
373,135,143581,2,0,P|359:78|330:11,1,112.5,2|0,0:0|0:0,0:0:0:0:
36,233,144116,6,0,B|51:219|51:219|91:109,1,112.5,2|0,0:0|0:0,0:0:0:0:
410,336,144652,2,0,B|412:311|412:311|355:212,1,112.5,2|0,0:0|0:0,0:0:0:0:
225,12,145188,6,0,B|211:38|211:38|253:150|253:150|236:200,1,168.75,2|0,0:0|0:0,0:0:0:0:
271,242,145724,1,2,0:0:0:0:
271,242,146259,6,0,L|257:355,1,101.250003862381,2|0,0:0|0:0,0:0:0:0:
276,362,146795,6,0,L|356:324,1,67.5000025749208
185,282,147286,6,0,L|105:244,1,56.25
307,181,147803,6,0,P|331:179|351:162,1,45
231,95,148402,6,0,P|220:84|195:87,2,33.7500012874604
197,357,149474,6,0,P|236:209|252:380,1,450,6|0,0:0|0:0,0:0:0:0:
110,152,151080,1,2,0:0:0:0:
74,93,151214,1,0,0:0:0:0:
31,122,151348,1,0,0:0:0:0:
188,104,151615,6,0,L|311:59,1,112.5,2|0,0:0|0:0,0:0:0:0:
291,304,152151,2,0,L|396:342,1,112.5,2|0,0:0|0:0,0:0:0:0:
20,371,152687,6,0,P|87:242|311:100,1,337.5,2|0,0:0|0:0,0:0:0:0:
304,14,153624,1,0,0:0:0:0:
337,36,153758,2,0,P|402:56|512:64,1,112.5,2|0,0:0|0:0,0:0:0:0:
369,328,154294,2,0,P|434:308|544:300,1,112.5,2|0,0:0|0:0,0:0:0:0:
67,215,154830,6,0,B|235:240|232:140|412:173,1,337.5,6|0,0:0|0:0,0:0:0:0:
446,123,155767,1,0,0:0:0:0:
392,146,155901,2,0,P|348:124|277:201,1,112.5,2|0,0:0|0:0,0:0:0:0:
230,225,156437,2,0,P|238:283|233:362,1,112.5,2|0,0:0|0:0,0:0:0:0:
129,149,156973,2,0,P|128:110|141:74,1,56.25,2|0,0:0|0:0,0:0:0:0:
173,33,157240,1,0,0:0:0:0:
512,192,157508,5,2,0:0:0:0:
512,192,158044,1,2,0:0:0:0:
512,192,158580,1,2,0:0:0:0:
502,253,158848,1,0,0:0:0:0:
506,222,159115,6,0,L|281:255,1,202.500007724762,2|0,0:0|0:0,0:0:0:0:
191,145,160186,2,0,P|151:109|89:83,1,112.5,2|0,0:0|0:0,0:0:0:0:
75,376,160722,2,0,P|126:353|173:307,1,112.5,2|0,0:0|0:0,0:0:0:0:
368,48,161257,2,0,B|265:129|336:190|326:225|303:254,3,225,6|2|2|2,0:0|0:0|0:0|0:0,0:0:0:0:
64,93,163132,2,0,P|63:109|37:176,1,56.25
36,330,163400,6,0,P|261:352|475:7,1,675,6|0,0:0|0:0,0:0:0:0:
444,33,165543,2,0,B|437:57|437:57|453:160,1,112.5,2|0,0:0|0:0,0:0:0:0:
212,228,166079,2,0,B|239:143|239:143|234:110,1,112.5,2|0,0:0|0:0,0:0:0:0:
5,197,166615,2,0,B|1:232|1:232|32:282|32:282|27:315,1,112.5,2|0,0:0|0:0,0:0:0:0:
406,370,167150,2,0,B|319:305|319:305|279:355|279:355|199:376,1,225,2|6,0:0|0:0,0:0:0:0:
256,192,167820,12,0,169830,0:0:0:0:
135,71,170385,6,0,B|138:89|153:94|164:215,1,90,2|0,0:0|0:0,0:0:0:0:
387,297,170941,6,0,B|405:229|353:235|384:168,1,101.250003862381,2|0,0:0|0:0,0:0:0:0:
62,135,171458,6,0,B|98:190|26:233|52:324,1,112.5,2|0,0:0|0:0,0:0:0:0:
6,302,171903,1,0,0:0:0:0:
0,384,172052,6,2,B|4:310|132:233|204:302|262:370,1,315.000003004074,6|2,0:1|0:1,0:1:0:0:
310,305,172709,1,0,0:0:0:0:
310,305,172841,1,0,0:0:0:0:
478,187,173104,5,2,0:1:0:0:
460,212,173280,5,0,0:0:0:0:
444,158,173455,5,0,0:0:0:0:
409,273,173630,6,2,P|405:381|402:394,2,90.0000034332277,2|0|0,0:1|0:0|0:0,0:1:0:0:
178,79,174157,6,2,B|139:19|42:-22|-21:67|83:101|140:-2,1,270.000010299683,6|2,0:1|0:1,0:1:0:0:
170,12,174815,1,0,0:0:0:0:
170,12,174946,1,0,0:0:0:0:
77,181,175209,6,2,B|54:210|66:231|60:265,2,60,2|0|0,0:1|0:0|0:0,0:1:0:0:
184,235,175736,6,2,B|205:269|191:280|202:321,1,60,2|0,0:1|0:0,0:1:0:0:
166,331,176087,5,0,0:0:0:0:
184,25,176262,6,2,B|324:20|290:154|496:145,1,270.000010299683,6|2,0:1|0:0,0:1:0:0:
497,119,176930,1,0,0:0:0:0:
453,107,177064,2,0,P|460:83|450:39,1,67.5000025749208
334,135,177331,2,0,B|316:140|278:170|316:229,1,90,2|0,0:0|0:0,0:0:0:0:
376,226,177688,6,0,B|394:262|354:299|308:330,1,112.5,2|2,0:0|0:0,0:0:0:0:
381,366,178044,6,0,B|396:346|427:334|461:346,1,75,0|2,0:0|0:0,0:0:0:0:
170,377,178401,6,0,P|147:314|226:249,1,168.75,2|0,0:0|0:0,0:0:0:0:
241,235,178935,6,0,P|246:200|239:134,1,90,2|0,0:0|0:0,0:0:0:0:
14,22,179470,6,0,P|37:57|108:104,1,101.250003862381,2|0,0:0|0:0,0:0:0:0:
450,51,180005,6,0,P|490:81|513:150,1,112.5,2|0,0:0|0:0,0:0:0:0:
195,368,180540,6,2,B|109:314|132:243|125:188|190:113,1,270.000010299683,6|2,0:1|0:1,0:1:0:0:
240,28,181208,1,0,0:0:0:0:
240,28,181342,1,0,0:0:0:0:
462,178,181609,6,2,P|434:189|375:152,2,90.0000034332277,2|0|0,0:1|0:0|0:0,0:1:0:0:
389,20,182144,6,2,P|357:29|303:71,1,90.0000034332277,2|0,0:1|0:0,0:1:0:0:
239,192,182500,5,0,0:0:0:0:
249,368,182679,6,2,B|334:404|369:249|233:166,1,270.000010299683,6|2,0:1|0:1,0:1:0:0:
168,213,183347,1,0,0:0:0:0:
168,213,183481,1,0,0:0:0:0:
0,0,183748,5,2,0:1:0:0:
114,31,183926,5,0,0:0:0:0:
57,44,184105,5,0,0:0:0:0:
57,44,184283,6,2,L|50:116,2,45.0000017166138,2|0|0,0:1|0:0|0:0,0:1:0:0:
19,243,184818,5,2,3:2:0:0:
24,165,184996,5,0,0:0:0:0:
61,237,185174,5,0,3:2:0:0:
120,143,185352,5,2,3:2:0:0:
174,254,185531,5,0,3:2:0:0:
244,117,185709,5,0,0:0:0:0:
280,283,185887,5,2,3:2:0:0:
348,207,186065,5,0,3:2:0:0:
286,313,186244,5,0,3:2:0:0:
369,277,186422,5,2,3:2:0:0:
281,344,186600,5,0,0:0:0:0:
357,328,186778,5,0,0:0:0:0:
263,370,186957,6,0,P|274:303|256:237,1,135.000005149842,2|0,3:2|3:0,0:0:0:0:
245,281,187358,1,0,0:0:0:0:
213,261,187491,2,0,B|170:260|153:224|125:223,1,90.0000034332277,2|0,3:2|3:0,0:0:0:0:
55,274,187848,5,0,3:1:0:0:
125,363,188026,5,0,3:2:0:0:
254,192,188204,5,0,3:2:0:0:
256,326,188383,5,0,3:2:0:0:
406,351,188561,6,0,L|443:263,2,90.0000034332277,2|0|0,3:2|0:0|0:0,0:0:0:0:
218,355,189096,6,2,L|520:288,1,292.5,6|0,0:0|0:0,0:1:0:0:
495,301,192227,5,2,0:0:0:0:
495,301,192753,1,2,0:0:0:0:
495,301,193353,2,0,L|465:7,1,270,2|2,0:0|0:0,0:0:0:0:
456,289,195497,2,0,L|486:111,1,180,2|2,0:0|0:0,0:0:0:0:
238,48,197106,5,2,0:0:0:0:
238,48,197508,1,2,0:0:0:0:
238,48,197642,2,0,P|205:125|5:129,1,270,2|2,0:0|0:0,0:0:0:0:
36,153,199786,2,0,P|99:129|146:146,1,90,2|2,0:0|0:0,0:0:0:0:
179,317,200859,6,0,B|280:260|344:350|471:271,1,270,2|0,0:0|0:0,0:0:0:0:
463,263,203003,1,0,0:0:0:0:
128,58,205148,6,0,B|81:139|180:189|171:247,1,180,2|0,0:0|0:0,0:0:0:0:
89,268,206757,2,0,L|81:334,1,45
169,222,207293,2,0,B|141:161|234:137|176:49,1,180,0|2,0:0|0:0,0:0:0:0:
38,97,209438,6,0,L|144:113,1,90,2|2,0:0|0:0,0:0:0:0:
276,14,210510,6,0,B|295:27|295:27|407:64,1,112.5,2|2,0:0|0:0,0:0:0:0:
350,275,211582,6,0,B|372:283|372:283|486:394,1,135.000005149842,2|2,0:0|0:0,0:0:0:0:
481,37,212655,6,0,P|483:64|505:141,1,78.7500007510185,2|0,0:0|0:0,0:0:0:0:
343,196,213191,6,0,P|346:223|351:324,1,78.7500007510185,2|0,0:0|0:0,0:0:0:0:
118,327,213727,6,0,B|151:391|185:412|303:373|60:244|188:104,1,315.000003004074,2|0,0:0|0:0,0:0:0:0:
51,7,215068,1,0,0:0:0:0:
0,26,215336,6,0,L|86:90,1,78.7500007510185,2|0,0:0|0:0,0:0:0:0:
391,112,215872,2,0,B|380:117|380:117|244:268,1,202.5,2|0,0:0|0:0,0:0:0:0:
36,308,218631,6,0,L|50:348,1,22.5,2|0,0:0|0:0,0:0:0:0:
9,350,218865,2,0,L|36:228,1,90,2|0,0:0|0:0,0:0:0:0:
55,62,219400,6,0,B|209:115|313:245|313:245|263:161|228:120,1,450,6|0,0:0|0:0,0:0:0:0:
153,13,220739,1,0,0:0:0:0:
59,99,221007,2,0,B|82:93|82:93|157:115|195:73,1,112.5,2|0,0:0|0:0,0:0:0:0:
469,198,221542,6,0,B|408:173|294:224|322:329|393:322,1,225,2|2,0:0|0:0,0:0:0:0:
469,198,222346,1,0,0:0:0:0:
423,146,222614,2,0,B|438:101|380:95|408:24,1,112.5,2|0,0:0|0:0,0:0:0:0:
362,316,223150,2,0,B|324:345|191:312|182:180,1,225,2|2,0:0|0:0,0:0:0:0:
188,217,224757,6,0,P|185:174|148:207,1,112.5,2|0,0:0|0:0,0:0:0:0:
346,132,225292,6,0,B|370:103|321:47|277:85,1,112.5,2|0,0:0|0:0,0:0:0:0:
414,350,225828,6,0,B|464:329|521:243|445:144,1,225,6|0,0:0|0:0,0:0:0:0:
231,312,226900,1,0,0:0:0:0:
19,248,227435,2,0,L|102:278,2,56.25,2|0|0,0:0|0:0|0:0,0:0:0:0:
2,305,227971,2,0,L|206:271,1,168.75,2|0,0:0|0:0,0:0:0:0:
192,260,228507,2,0,L|198:227,1,28.125,2|0,0:0|0:0,0:0:0:0:
465,1,229042,6,0,B|382:34|418:86|297:123,1,168.75,2|0,0:0|0:0,0:0:0:0:
293,124,229578,2,0,B|251:177|294:192|273:267,1,112.5,2|0,0:0|0:0,0:0:0:0:
462,368,230114,2,0,B|414:255|513:220|470:139,1,225,2|2,0:0|0:0,0:0:0:0:
14,9,231185,5,2,0:0:0:0:
14,9,231721,1,2,0:0:0:0:
63,183,232257,2,0,B|133:176|126:128|192:146|192:146|216:79|291:79|291:79|320:119|284:158,1,337.5,6|0,0:0|0:0,0:0:0:0:
108,267,233328,2,0,B|173:282|138:310|251:340,1,112.5,2|0,0:0|0:0,0:0:0:0:
367,201,233864,2,0,P|448:181|559:174,1,112.5,2|0,0:0|0:0,0:0:0:0:
70,13,234399,6,0,B|115:108|247:34|95:121|220:215,3,225,2|2|2|2,0:0|0:0|0:0|0:0,0:0:0:0:
95,384,236542,1,2,0:0:0:0:
99,375,237614,2,0,P|70:240|18:7,1,337.5,2|0,0:0|0:0,0:0:0:0:
0,159,238685,6,0,B|21:177|21:177|273:224,1,225,6|0,0:0|0:0,0:0:0:0:
453,99,239488,1,0,0:0:0:0:
453,99,239756,2,0,P|438:145|344:142,1,112.5,2|0,0:0|0:0,0:0:0:0:
256,76,240292,2,0,P|239:15|165:0,1,112.5,2|0,0:0|0:0,0:0:0:0:
425,288,240827,6,0,B|381:248|313:257|313:257|298:243|298:243|261:274|247:318|247:318|133:368,3,270.000010299683,2|2|2|2,0:0|0:0|0:0|0:0,0:0:0:0:
78,7,242971,1,2,0:0:0:0:
15,322,243506,5,0,0:0:0:0:
8,350,244042,5,0,0:0:0:0:
63,375,244577,5,0,0:0:0:0:
118,328,245113,5,0,0:0:0:0:
105,295,245649,5,0,0:0:0:0:
84,322,246183,6,0,B|226:278|181:368|357:306,1,270.000010299683,6|0,0:0|0:0,0:0:0:0:
473,163,246986,2,0,L|489:53,1,67.5000025749208
433,4,247254,6,0,B|297:-45|307:183|316:-65|141:110,1,270.000010299683
509,31,248058,1,0,0:0:0:0:
307,204,248325,6,0,B|261:144|246:147|158:184,1,135.000005149842,2|0,0:0|0:0,0:0:0:0:
476,328,248861,2,0,B|409:321|394:329|353:382,1,135.000005149842,2|0,0:0|0:0,0:0:0:0:
241,25,249397,2,0,P|121:88|34:255,1,270.000010299683,2|0,0:0|0:0,0:0:0:0:
210,371,250200,1,0,0:0:0:0:
368,235,250468,6,0,P|392:187|405:99,1,135.000005149842,2|0,0:0|0:0,0:0:0:0:
49,203,251004,2,0,P|89:278|136:322,1,135.000005149842,2|0,0:0|0:0,0:0:0:0:
404,72,251540,2,0,B|346:-5|228:-38|60:62,1,270.000010299683,6|2,0:0|0:0,0:0:0:0:
34,106,252343,1,0,0:0:0:0:
331,57,252611,6,0,P|267:102|189:126,1,135.000005149842,2|0,0:0|0:0,0:0:0:0:
499,315,253147,2,0,B|442:350|366:149|198:405,1,270.000010299683,2|2,0:0|0:0,0:0:0:0:
429,377,253950,1,0,0:0:0:0:
486,231,254218,6,0,P|501:115|515:5,2,135.000005149842,2|0|2,0:0|0:0|0:0,0:0:0:0:
441,56,255023,1,0,0:0:0:0:
397,0,255290,2,0,P|388:66|379:133,1,135.000005149842,2|0,0:0|0:0,0:0:0:0:
104,384,255825,6,0,P|114:262|136:57,1,270.000010299683,6|0,0:0|0:0,0:0:0:0:
291,10,256628,1,0,0:0:0:0:
403,157,256896,1,2,0:0:0:0:
391,211,257030,1,0,0:0:0:0:
384,265,257164,1,0,0:0:0:0:
107,75,257432,6,0,B|85:110|85:110|81:162|147:218,1,135.000005149842,2|0,0:0|0:0,0:0:0:0:
492,56,257967,1,2,0:0:0:0:
420,26,258101,1,0,0:0:0:0:
374,40,258235,1,0,0:0:0:0:
374,40,258503,6,0,B|353:86|356:136|356:136|394:183,1,135.000005149842,2|0,0:0|0:0,0:0:0:0:
470,308,258905,1,0,0:0:0:0:
432,345,259039,2,0,L|461:183,1,135.000005149842,2|0,0:0|0:0,0:0:0:0:
28,67,259842,2,0,L|70:9,1,67.5000025749208,2|0,0:0|0:0,0:0:0:0:
0,50,260110,2,0,L|316:32,1,270.000010299683,6|2,0:0|0:0,0:0:0:0:
278,191,260914,1,0,0:0:0:0:
133,292,261182,6,0,L|-15:258,1,135.000005149842,2|0,0:0|0:0,0:0:0:0:
379,207,261717,2,0,L|298:78,1,135.000005149842,2|0,0:0|0:0,0:0:0:0:
194,369,262253,2,0,L|228:220,1,135.000005149842,2|0,0:0|0:0,0:0:0:0:
0,151,262789,2,0,L|128:70,1,135.000005149842,2|0,0:0|0:0,0:0:0:0:
411,317,263325,2,0,L|332:169,1,135.000005149842,2|0,0:0|0:0,0:0:0:0:
123,363,263860,2,0,L|147:224,1,135.000005149842,2|0,0:0|0:0,0:0:0:0:
288,6,264396,6,0,L|249:395,1,360,2|0,0:0|0:0,0:0:0:0:
229,381,265787,1,0,0:0:0:0:
279,353,265942,2,0,P|280:325|291:225,1,101.250003862381
6,27,266870,6,0,B|45:62|10:96|46:32|0:11,1,90,2|2,0:0|0:0,0:0:0:0:
0,98,267953,2,0,B|29:63|97:108|144:146|111:188|146:245|225:231,1,270,2|2,0:0|0:0,0:0:0:0:
262,187,269763,1,0,0:0:0:0:
316,267,270021,6,0,L|514:245,1,180,2|2,0:0|0:0,0:0:0:0:
441,291,271350,1,0,0:0:0:0:
376,177,271628,1,2,0:0:0:0:
290,233,271906,1,0,0:0:0:0:
351,349,272184,6,0,B|226:322|243:413|162:374,1,180,2|0,0:0|0:0,0:0:0:0:
111,250,273523,1,0,0:0:0:0:
5,324,273791,2,0,B|45:305|45:305|82:343,1,90,2|2,0:0|0:0,0:0:0:0:
187,265,274539,1,0,0:0:0:0:
86,132,274833,2,0,B|102:193,1,45,2|0,0:0|0:0,0:0:0:0:
236,19,275368,6,0,P|223:94|210:206,1,180,2|2,0:0|0:0,0:0:0:0:
326,273,276696,1,0,0:0:0:0:
412,216,276990,2,0,P|409:191|393:153,1,45,2|0,0:0|0:0,0:0:0:0:
465,323,277578,2,0,P|434:325|390:368,1,90,2|2,0:0|0:0,0:0:0:0:
467,68,278616,5,2,0:0:0:0:
181,155,279228,6,0,P|173:193|172:230,1,67.5,2|2,0:0|0:0,0:0:0:0:
213,272,279754,6,0,P|271:255|263:149,1,180,2|2,0:0|0:0,0:0:0:0:
20,10,281305,2,0,B|40:85|16:72|31:125,1,90,2|0,0:0|0:0,0:0:0:0:
50,348,282503,2,0,L|85:358,1,22.5,2|0,0:0|0:0,0:0:0:0:
10,372,282878,2,0,L|121:362,1,90,2|2,0:0|0:0,0:0:0:0:
491,301,283949,6,0,P|471:282|424:292,1,67.5,2|0,0:0|0:0,0:0:0:0:
424,297,284484,2,0,L|416:218,1,50.6250019311906,2|0,0:0|0:0,0:0:0:0:
95,98,285020,2,0,P|135:122|196:125,1,84.375,2|0,0:0|0:0,0:0:0:0:
190,106,285556,2,0,P|196:82|168:63,1,61.875000590086,2|0,0:0|0:0,0:0:0:0:
36,240,286091,6,0,L|127:223,1,67.5000025749208,2|0,0:0|0:0,0:0:0:0:
36,240,286646,2,0,L|8:338,1,67.5000025749208,2|0,0:0|0:0,0:0:0:0:
394,210,287202,2,0,L|431:353,1,135.000005149842,0|2,0:0|0:0,0:0:0:0:
509,116,288086,1,0,0:0:0:0:
277,45,288382,6,0,B|245:26|245:26|131:19,1,135,6|0,0:0|0:0,0:0:0:0:
178,58,289484,2,0,L|10:79,1,157.5,6|0,0:0|0:0,0:0:0:0:
12,90,290518,5,6,0:0:0:0:
153,129,290869,5,0,0:0:0:0:
222,227,291221,5,2,0:0:0:0:
333,271,291573,5,0,0:0:0:0:
411,262,291925,6,0,B|440:334|421:345|315:387|256:236|321:76|386:21|481:29|363:215|370:240|317:285,1,517.5,2|0,0:0|0:0,0:0:0:0:
321,279,296147,5,2,0:0:0:0:
481,109,296682,1,2,0:0:0:0:
203,3,297218,1,2,0:0:0:0:
203,3,297753,6,0,P|211:68|213:136,2,112.5,0|0|2,0:0|0:0|0:0,0:0:0:0:
18,285,299360,2,0,P|111:244|246:247,1,225,2|2,0:0|0:0,0:0:0:0:
161,228,300968,1,2,0:0:0:0:
364,368,301503,5,2,0:0:0:0:
364,368,302039,2,0,P|381:332|394:235,2,112.5,0|0|2,0:0|0:0|0:0,0:0:0:0:
298,77,303646,2,0,L|271:7,1,56.25,2|0,0:0|0:0,0:0:0:0:
485,217,304182,2,0,L|458:287,1,56.25,2|0,0:0|0:0,0:0:0:0:
247,353,304718,6,0,P|172:347|45:326,1,180,2|0,0:0|0:0,0:0:0:0:
21,69,306327,1,0,0:0:0:0:
271,160,306863,1,0,0:0:0:0:
26,256,307400,2,0,B|70:260|68:232|124:242,2,90,2|2|2,0:0|0:0|0:0,0:0:0:0:
202,97,309010,6,0,B|180:175|360:309|501:166,1,360,2|0,0:0|0:0,0:0:0:0:
201,7,311693,1,2,0:0:0:0:
201,7,312230,1,2,0:0:0:0:
201,7,312498,1,0,0:0:0:0:
201,7,312766,1,2,0:0:0:0:
229,363,313303,6,0,B|223:333|223:333|226:314|226:314|214:252,1,90,2|2,0:0|0:0,0:0:0:0:
280,61,314109,1,0,0:0:0:0:
373,264,314377,6,0,B|397:254|397:254|421:192,1,67.5000025749208,2|0,0:0|0:0,0:0:0:0:
138,165,314913,2,0,B|122:159|122:159|108:114,1,45,2|0,0:0|0:0,0:0:0:0:
387,21,315450,5,2,0:0:0:0:
436,11,315718,1,0,0:0:0:0:
495,49,315987,1,2,0:0:0:0:
501,126,316255,1,0,0:0:0:0:
441,185,316523,6,0,B|399:167|399:167|343:184,1,90,2|2,0:0|0:0,0:0:0:0:
11,365,317597,6,0,B|-24:297|139:232|145:407|246:366,1,270,2|0,0:0|0:0,0:0:0:0:
366,132,319743,1,2,3:2:0:0:
366,132,319807,1,2,0:0:0:0:
0,192,321811,5,8,0:0:0:0:
0,192,322200,1,8,0:0:0:0:
0,192,322590,1,8,0:0:0:0:
135,205,322979,5,10,3:2:0:0:
99,274,323455,5,8,0:0:0:0:
160,344,323931,5,8,0:0:0:0:
276,371,324476,5,10,0:2:0:0:
422,281,324952,5,8,0:0:0:0:
393,104,325393,5,10,3:2:0:0:
393,104,325469,1,2,0:0:0:0:
240,7,326005,5,8,0:0:0:0:
57,81,326517,5,8,0:0:0:0:
34,294,327029,5,8,3:2:0:0:
34,294,327093,1,2,0:0:0:0:
224,382,327542,5,8,0:0:0:0:
420,327,328054,5,8,0:0:0:0:
487,114,328537,5,8,3:2:0:0:
487,114,328598,1,2,0:0:0:0:
254,0,329021,5,8,0:0:0:0:
16,126,329504,5,8,0:0:0:0:
105,382,330004,5,10,3:2:0:0:
105,382,330076,2,0,B|107:369|107:369|97:358|97:358|101:353|101:353|90:330|92:306,1,78.75,2|8,0:0|0:0,0:0:0:0:
148,150,331092,5,8,3:2:0:0:
148,150,331156,1,2,0:0:0:0:
453,364,332126,5,8,0:2:0:0:
490,381,332643,1,8,0:2:0:0:
507,348,333130,1,10,0:2:0:0:
479,358,333618,1,8,0:2:0:0:
496,376,334094,1,8,0:2:0:0:
504,366,334570,1,10,0:0:0:0:
496,362,335053,1,8,0:0:0:0:
504,366,335504,1,8,0:0:0:0:
505,363,335955,1,10,0:0:0:0:
504,366,336416,1,8,0:0:0:0:
507,365,336907,1,8,0:0:0:0:
