osu file format v14

[General]
AudioFilename: audio.mp3
AudioLeadIn: 0
PreviewTime: -1
Countdown: 0
SampleSet: Normal
StackLeniency: 0.7
Mode: 0
LetterboxInBreaks: 0
WidescreenStoryboard: 0

[Editor]
DistanceSpacing: 0.9
BeatDivisor: 4
GridSize: 4
TimelineZoom: 1

[Metadata]
Title:Slave Power
TitleUnicode:♂ Slave Power ♂
Artist:Noma
ArtistUnicode:Noma
Creator:-Derek
Version:Gachi
Source:
Tags:
BeatmapID:925403
BeatmapSetID:428846

[Difficulty]
HPDrainRate:0
CircleSize:5
OverallDifficulty:9
ApproachRate:9.8
SliderMultiplier:1.4
SliderTickRate:1

[Events]
//Background and Video events
0,0,"maxresdefault (1).jpg",0,0
//Break Periods
//Storyboard Layer 0 (Background)
//Storyboard Layer 1 (Fail)
//Storyboard Layer 2 (Pass)
//Storyboard Layer 3 (Foreground)
//Storyboard Sound Samples

[TimingPoints]
3277.97674418605,348.837209302326,4,1,0,100,1,0

[HitObjects]
172,124,3277,5,0,0:0:0:0:
316,144,3539,1,0,0:0:0:0:
368,52,3888,1,0,0:0:0:0:
468,164,4237,1,0,0:0:0:0:
268,224,4586,1,0,0:0:0:0:
208,104,4934,1,0,0:0:0:0:
356,52,5283,1,0,0:0:0:0:
380,140,5632,1,0,0:0:0:0:
248,232,5981,1,0,0:0:0:0:
164,288,6330,1,0,0:0:0:0:
104,128,6679,1,0,0:0:0:0:
236,76,7027,1,0,0:0:0:0:
280,168,7376,1,0,0:0:0:0:
264,248,7725,1,0,0:0:0:0:
412,240,8074,1,0,0:0:0:0:
404,88,8423,1,0,0:0:0:0:
292,88,8772,1,0,0:0:0:0:
312,144,9295,1,0,0:0:0:0:
128,112,9905,1,0,0:0:0:0:
224,60,10254,1,0,0:0:0:0:
308,152,10603,1,0,0:0:0:0:
300,188,10777,1,0,0:0:0:0:
324,200,10952,1,0,0:0:0:0:
328,200,11126,1,0,0:0:0:0:
340,200,11301,1,0,0:0:0:0:
352,204,11388,1,0,0:0:0:0:
356,204,11650,1,0,0:0:0:0:
360,204,11737,1,0,0:0:0:0:
364,204,11911,1,0,0:0:0:0:
376,208,12086,1,0,0:0:0:0:
376,208,12260,1,0,0:0:0:0:
380,208,12434,1,0,0:0:0:0:
388,212,12609,1,0,0:0:0:0:
396,216,12783,1,0,0:0:0:0:
400,216,12958,1,0,0:0:0:0:
408,220,13045,1,0,0:0:0:0:
420,224,13219,1,0,0:0:0:0:
424,224,13394,1,0,0:0:0:0:
436,232,13568,1,0,0:0:0:0:
448,236,13743,1,0,0:0:0:0:
456,240,13917,1,0,0:0:0:0:
468,244,14179,1,0,0:0:0:0:
160,212,14527,1,0,0:0:0:0:
248,120,14702,1,0,0:0:0:0:
316,232,15051,1,0,0:0:0:0:
332,288,15312,1,0,0:0:0:0:
384,72,15574,1,0,0:0:0:0:
176,176,15748,1,0,0:0:0:0:
136,248,15923,1,0,0:0:0:0:
280,40,16272,1,0,0:0:0:0:
320,144,16621,1,0,0:0:0:0:
292,240,16969,1,0,0:0:0:0:
180,244,17318,1,0,0:0:0:0:
168,124,17667,1,0,0:0:0:0:
264,120,18016,1,0,0:0:0:0:
328,184,18365,1,0,0:0:0:0:
232,248,18714,1,0,0:0:0:0:
228,140,19062,1,0,0:0:0:0:
368,84,19498,1,0,0:0:0:0:
344,200,19760,1,0,0:0:0:0:
216,252,20109,1,0,0:0:0:0:
216,132,20458,1,0,0:0:0:0:
260,64,20807,1,0,0:0:0:0:
352,68,21155,1,0,0:0:0:0:
296,192,21591,1,0,0:0:0:0:
296,192,21766,1,0,0:0:0:0:
296,192,21940,1,0,0:0:0:0:
296,192,22027,1,0,0:0:0:0:
296,192,22202,1,0,0:0:0:0:
296,192,22376,1,0,0:0:0:0:
264,184,22551,1,0,0:0:0:0:
276,184,22725,1,0,0:0:0:0:
280,184,22900,1,0,0:0:0:0:
280,184,23074,1,0,0:0:0:0:
280,184,23248,1,0,0:0:0:0:
280,184,23336,1,0,0:0:0:0:
280,184,23510,1,0,0:0:0:0:
284,184,23684,1,0,0:0:0:0:
280,184,23859,1,0,0:0:0:0:
280,184,24033,1,0,0:0:0:0:
280,184,24208,1,0,0:0:0:0:
280,184,24382,1,0,0:0:0:0:
284,184,24557,1,0,0:0:0:0:
284,184,24731,1,0,0:0:0:0:
280,184,24818,1,0,0:0:0:0:
280,184,24993,1,0,0:0:0:0:
280,184,25167,1,0,0:0:0:0:
280,184,25341,1,0,0:0:0:0:
284,184,25516,1,0,0:0:0:0:
284,184,25690,1,0,0:0:0:0:
400,180,25865,1,0,0:0:0:0:
168,184,26214,1,0,0:0:0:0:
284,76,26475,1,0,0:0:0:0:
284,220,26737,1,0,0:0:0:0:
200,108,27086,1,0,0:0:0:0:
436,112,27434,1,0,0:0:0:0:
384,264,27609,1,0,0:0:0:0:
216,184,27783,1,0,0:0:0:0:
280,56,27958,1,0,0:0:0:0:
284,236,28219,1,0,0:0:0:0:
184,140,29964,1,0,0:0:0:0:
420,156,30225,1,0,0:0:0:0:
292,72,30487,1,0,0:0:0:0:
276,240,30836,1,0,0:0:0:0:
292,152,31272,1,0,0:0:0:0:
192,160,32405,1,0,0:0:0:0:
348,172,32580,1,0,0:0:0:0:
248,56,32841,1,0,0:0:0:0:
260,240,33190,1,0,0:0:0:0:
184,200,34934,1,0,0:0:0:0:
352,212,35109,1,0,0:0:0:0:
252,80,35371,1,0,0:0:0:0:
256,248,35545,1,0,0:0:0:0:
92,136,36068,1,0,0:0:0:0:
268,168,37289,1,0,0:0:0:0:
372,228,37638,1,0,0:0:0:0:
420,112,37812,1,0,0:0:0:0:
316,44,37987,1,0,0:0:0:0:
208,148,38161,1,0,0:0:0:0:
328,232,38859,1,0,0:0:0:0:
244,136,39905,1,0,0:0:0:0:
328,120,40167,1,0,0:0:0:0:
308,268,40429,1,0,0:0:0:0:
184,164,41301,1,0,0:0:0:0:
340,124,41824,1,0,0:0:0:0:
260,52,41998,1,0,0:0:0:0:
248,280,42173,1,0,0:0:0:0:
108,136,43394,1,0,0:0:0:0:
344,120,43743,1,0,0:0:0:0:
328,256,44091,1,0,0:0:0:0:
140,104,46621,1,0,0:0:0:0:
332,92,46795,1,0,0:0:0:0:
356,140,46969,1,0,0:0:0:0:
220,272,47057,1,0,0:0:0:0:
240,72,47318,1,0,0:0:0:0:
184,128,49062,1,0,0:0:0:0:
340,132,49411,1,0,0:0:0:0:
268,56,49760,1,0,0:0:0:0:
200,148,51243,1,0,0:0:0:0:
312,120,51766,1,0,0:0:0:0:
208,84,52289,1,0,0:0:0:0:
244,184,53336,1,0,0:0:0:0:
336,128,53510,1,0,0:0:0:0:
320,92,53684,1,0,0:0:0:0:
160,132,54033,1,0,0:0:0:0:
208,296,54295,1,0,0:0:0:0:
264,208,54469,1,0,0:0:0:0:
184,68,54644,1,0,0:0:0:0:
368,124,54818,1,0,0:0:0:0:
392,208,54993,1,0,0:0:0:0:
208,304,55167,1,0,0:0:0:0:
176,96,55254,1,0,0:0:0:0:
312,124,55516,1,0,0:0:0:0:
248,216,55865,1,0,0:0:0:0:
212,152,56126,1,0,0:0:0:0:
264,72,56475,1,0,0:0:0:0:
264,160,57173,1,0,0:0:0:0:
120,148,57522,1,0,0:0:0:0:
224,68,57958,1,0,0:0:0:0:
252,160,58307,1,0,0:0:0:0:
332,156,58655,1,0,0:0:0:0:
364,72,58917,1,0,0:0:0:0:
196,72,59266,1,0,0:0:0:0:
184,160,59527,1,0,0:0:0:0:
208,176,59615,1,0,0:0:0:0:
284,120,59876,1,0,0:0:0:0:
280,68,60051,1,0,0:0:0:0:
256,64,60225,1,0,0:0:0:0:
360,72,60400,1,0,0:0:0:0:
376,108,60487,1,0,0:0:0:0:
272,160,60748,1,0,0:0:0:0:
236,88,61097,1,0,0:0:0:0:
128,144,61359,1,0,0:0:0:0:
308,208,61795,1,0,0:0:0:0:
272,88,62144,1,0,0:0:0:0:
228,204,62493,1,0,0:0:0:0:
128,132,62754,1,0,0:0:0:0:
188,92,62929,1,0,0:0:0:0:
240,92,63190,1,0,0:0:0:0:
316,144,63452,1,0,0:0:0:0:
328,172,63626,1,0,0:0:0:0:
372,80,63888,1,0,0:0:0:0:
340,60,64062,1,0,0:0:0:0:
208,108,64324,1,0,0:0:0:0:
160,184,64586,1,0,0:0:0:0:
168,72,64934,1,0,0:0:0:0:
336,80,65196,1,0,0:0:0:0:
328,200,65632,1,0,0:0:0:0:
184,248,65981,1,0,0:0:0:0:
192,108,66330,1,0,0:0:0:0:
260,64,66679,1,0,0:0:0:0:
280,160,67027,1,0,0:0:0:0:
256,240,67376,1,0,0:0:0:0:
176,160,67725,1,0,0:0:0:0:
212,80,68074,1,0,0:0:0:0:
368,84,68423,1,0,0:0:0:0:
248,144,68597,1,0,0:0:0:0:
252,64,68946,1,0,0:0:0:0:
312,112,69208,1,0,0:0:0:0:
308,208,69557,1,0,0:0:0:0:
204,192,69905,1,0,0:0:0:0:
232,112,70254,1,0,0:0:0:0:
280,64,70516,1,0,0:0:0:0:
332,108,70865,1,0,0:0:0:0:
328,184,71214,1,0,0:0:0:0:
152,188,71562,1,0,0:0:0:0:
180,92,71911,1,0,0:0:0:0:
280,80,72260,1,0,0:0:0:0:
276,160,72609,1,0,0:0:0:0:
204,192,72958,1,0,0:0:0:0:
208,112,73307,1,0,0:0:0:0:
288,104,73743,1,0,0:0:0:0:
232,192,75051,2,0,P|272:192|272:192,17,35
224,96,76533,1,0,0:0:0:0:
312,240,76882,1,0,0:0:0:0:
52,128,77057,1,0,0:0:0:0:
212,36,77231,1,0,0:0:0:0:
356,148,77405,1,0,0:0:0:0:
300,352,77580,1,0,0:0:0:0:
236,192,77929,2,0,L|292:192,16,35
216,88,79324,1,0,0:0:0:0:
340,100,79673,1,0,0:0:0:0:
360,272,79847,1,0,0:0:0:0:
284,292,79934,1,0,0:0:0:0:
144,152,80196,1,0,0:0:0:0:
208,44,80283,1,0,0:0:0:0:
260,112,80458,1,0,0:0:0:0:
224,192,80632,2,0,L|268:192,17,35
336,180,82027,1,0,0:0:0:0:
264,96,82464,1,0,0:0:0:0:
220,192,82551,1,0,0:0:0:0:
200,296,82725,1,0,0:0:0:0:
152,232,82987,1,0,0:0:0:0:
164,52,83074,1,0,0:0:0:0:
288,72,83248,1,0,0:0:0:0:
232,192,83423,2,0,L|280:192,16,35
372,208,84905,1,0,0:0:0:0:
332,72,85080,1,0,0:0:0:0:
180,88,85167,1,0,0:0:0:0:
132,192,85429,1,0,0:0:0:0:
180,308,85603,1,0,0:0:0:0:
380,252,85777,1,0,0:0:0:0:
356,92,85952,1,0,0:0:0:0:
236,192,86214,2,0,L|280:192,16,35
264,132,87696,1,0,0:0:0:0:
372,212,88045,1,0,0:0:0:0:
240,284,88219,1,0,0:0:0:0:
160,116,88394,1,0,0:0:0:0:
264,76,88481,1,0,0:0:0:0:
320,76,88655,1,0,0:0:0:0:
400,172,88830,1,0,0:0:0:0:
232,192,88917,2,0,L|280:192,17,35
212,88,90487,1,0,0:0:0:0:
344,80,90748,1,0,0:0:0:0:
396,232,90923,1,0,0:0:0:0:
280,316,91097,1,0,0:0:0:0:
152,248,91359,1,0,0:0:0:0:
180,140,91533,1,0,0:0:0:0:
224,192,91708,2,0,L|264:192,17,35
320,112,93277,1,0,0:0:0:0:
408,208,93626,1,0,0:0:0:0:
264,296,93801,1,0,0:0:0:0:
164,228,93975,1,0,0:0:0:0:
204,72,94324,1,0,0:0:0:0:
320,80,94411,1,0,0:0:0:0:
212,192,94498,2,0,L|256:192,17,35
240,96,95981,1,0,0:0:0:0:
384,128,96155,1,0,0:0:0:0:
380,248,96330,1,0,0:0:0:0:
248,280,96504,1,0,0:0:0:0:
176,252,96679,1,0,0:0:0:0:
156,92,96940,1,0,0:0:0:0:
224,192,97289,2,0,L|276:192,17,35
264,92,98772,1,0,0:0:0:0:
400,136,99033,1,0,0:0:0:0:
312,296,99295,1,0,0:0:0:0:
212,264,99469,1,0,0:0:0:0:
152,200,99644,1,0,0:0:0:0:
160,84,99818,1,0,0:0:0:0:
236,56,99905,1,0,0:0:0:0:
236,192,100080,2,0,L|304:192,17,35
272,88,101562,1,0,0:0:0:0:
436,172,101824,1,0,0:0:0:0:
280,308,101998,1,0,0:0:0:0:
176,264,102173,1,0,0:0:0:0:
160,164,102347,1,0,0:0:0:0:
216,72,102522,1,0,0:0:0:0:
240,192,102783,2,0,L|284:192,17,35
320,112,104353,1,0,0:0:0:0:
388,220,104615,1,0,0:0:0:0:
260,296,104789,1,0,0:0:0:0:
188,216,104964,1,0,0:0:0:0:
148,140,105138,1,0,0:0:0:0:
224,56,105312,1,0,0:0:0:0:
308,52,105487,1,0,0:0:0:0:
232,192,105574,2,0,L|276:192,17,35
256,88,107057,1,0,0:0:0:0:
416,224,107231,1,0,0:0:0:0:
316,320,107405,1,0,0:0:0:0:
144,248,107580,1,0,0:0:0:0:
192,68,107754,1,0,0:0:0:0:
344,100,107929,1,0,0:0:0:0:
252,296,108103,1,0,0:0:0:0:
272,132,108277,1,0,0:0:0:0:
