osu file format v14

[General]
AudioFilename: audio.mp3
AudioLeadIn: 0
PreviewTime: 0
Countdown: 0
SampleSet: Soft
StackLeniency: 0.7
Mode: 0
LetterboxInBreaks: 0
WidescreenStoryboard: 0

[Editor]
DistanceSpacing: 1
BeatDivisor: 2
GridSize: 4
TimelineZoom: 0.9999998

[Metadata]
Title:PEPSI * MAN
TitleUnicode:PEPSI ☆ MAN
Artist:NOMA
ArtistUnicode:ノマ
Creator:Seto Kousuke
Version:BOSS' NORMAL
Source:ペプシマン
Tags:NOFFY MONSTRATA TRYNNA TESTO BLUE DRAGON MISMAGIUS ALEXSANDER BOSSANDY PEPSIMAN MOWTENDOO THE COMPLETIONIST
BeatmapID:1838661
BeatmapSetID:879193

[Difficulty]
HPDrainRate:3.5
CircleSize:3.5
OverallDifficulty:4
ApproachRate:5.5
SliderMultiplier:1
SliderTickRate:1

[Events]
//Background and Video events
Video,0,"pepsi man.avi"
0,0,"coca cola man.jpg",0,0
//Break Periods
//Storyboard Layer 0 (Background)
//Storyboard Layer 1 (Fail)
//Storyboard Layer 2 (Pass)
//Storyboard Layer 3 (Foreground)
//Storyboard Sound Samples

[TimingPoints]
10,333.333333333333,4,2,1,60,1,0
1343,-100,4,2,2,60,0,0
2093,-100,4,2,1,60,0,0
2684,333.333333333333,4,2,1,80,1,0

[Colours]
Combo1 : 217,13,44
Combo2 : 198,106,4
Combo3 : 0,96,213
Combo4 : 245,146,10
SliderBorder : 255,255,255

[HitObjects]
256,28,10,5,2,0:0:0:0:
112,272,1343,5,8,0:0:0:0:
208,296,1676,1,8,0:0:0:0:
304,324,2009,2,0,L|359:340,1,50,8|0,0:0|3:0,0:0:0:0:
400,352,2343,1,8,0:2:0:0:
476,288,2684,6,0,L|464:188,1,100,0|8,3:0|0:2,0:0:0:0:
416,172,3183,1,0,3:0:0:0:
400,72,3517,2,0,L|392:8,1,50,0|8,1:0|0:2,0:0:0:0:
348,0,3850,1,0,3:0:0:0:
304,24,4017,6,0,P|256:32|208:16,1,100,0|8,3:0|0:2,0:0:0:0:
168,44,4517,1,0,3:0:0:0:
80,92,4850,2,0,L|88:152,1,50,0|8,1:0|0:2,0:0:0:0:
60,184,5183,1,0,3:0:0:0:
96,220,5350,6,0,P|108:280|76:332,1,100,0|8,3:0|0:2,0:0:0:0:
56,348,5850,1,0,3:0:0:0:
152,380,6183,1,0,1:0:0:0:
190,346,6350,2,0,P|220:344|256:352,1,50,8|0,0:2|3:0,0:0:0:0:
288,364,6683,6,0,P|352:356|392:288,1,100,0|8,3:0|0:2,0:0:0:0:
364,284,7183,2,0,B|355:259|364:235|364:235|372:211|364:186,1,100,0|0,3:0|3:0,0:0:0:0:
348,136,7683,2,0,L|356:80,1,50,8|0,0:2|3:0,0:0:0:0:
360,36,8017,6,0,L|464:24,1,100,2|2,3:3|0:3,0:0:0:0:
472,124,8683,2,0,L|484:228,1,100,2|2,0:3|3:3,0:0:0:0:
384,232,9350,6,0,L|280:244,1,100,2|2,3:3|0:3,0:0:0:0:
272,144,10016,2,0,L|260:40,1,100,2|2,0:3|3:3,0:0:0:0:
164,16,10683,6,0,P|111:19|63:47,1,100,2|2,3:3|0:3,0:0:0:0:
52,140,11350,2,0,P|104:136|152:108,1,100,2|2,3:3|0:3,0:0:0:0:
244,88,12017,5,2,3:3:0:0:
340,112,12350,1,2,3:3:0:0:
404,188,12683,1,2,3:3:0:0:
420,288,13017,1,2,3:3:0:0:
500,228,13350,6,0,L|504:176,2,50,0|0|10,3:0|1:0|0:2,0:0:0:0:
448,368,14183,2,0,L|348:372,1,100,2|2,1:2|3:2,0:0:0:0:
296,376,14683,6,0,B|288:363|288:363|293:349|293:349|285:336|285:336|291:322|291:322|283:309|283:309|289:296|289:296|281:283|281:283|286:269|286:269|278:256|278:256|284:242|284:242|276:230|276:230|282:216|282:216|274:203|274:203|279:189|279:189|271:176|271:176|277:162|277:162|269:150|269:150|275:136|275:136|267:123|267:123|272:109|272:109,1,300,2|2,0:1|0:1,0:0:0:0:
208,32,16017,6,0,L|120:40,2,50,0|0|10,3:0|1:0|0:2,0:0:0:0:
356,24,16850,2,0,B|392:20|392:20|416:32|416:32|452:28,1,100,2|2,1:2|3:2,0:0:0:0:
492,60,17350,6,0,L|476:128,1,50,2|0,0:1|3:0,0:0:0:0:
468,156,17683,1,2,0:3:0:0:
420,140,17850,2,0,B|382:128|346:140|346:140|310:153|273:140,1,150,2|0,0:1|3:0,0:0:0:0:
192,84,18683,6,0,L|204:24,2,50,0|0|10,3:0|1:0|0:2,0:0:0:0:
64,160,19517,2,0,P|52:224|64:272,1,100,2|2,1:2|3:2,0:0:0:0:
92,296,20017,6,0,B|109:303|127:296|127:296|145:303|163:296|163:296|181:303|198:296|198:296|216:303|234:296|234:296|252:303|270:296|270:296|287:303|305:296|305:296|323:303|341:296|341:296|362:303|383:296,1,300,2|2,0:1|0:1,0:0:0:0:
468,240,21350,6,0,P|484:264|488:288,2,50,0|0|10,3:0|1:0|0:2,0:0:0:0:
364,132,22183,2,0,P|336:84|336:40,1,100,2|2,1:2|3:2,0:0:0:0:
296,12,22683,6,0,L|248:24,1,50,2|2,0:1|0:3,0:0:0:0:
201,34,23016,1,2,0:3:0:0:
152,52,23183,2,0,B|140:89|152:125|152:125|165:161|152:199,1,150,2|2,0:1|0:1,0:0:0:0:
56,232,24017,6,0,L|68:332,1,100,0|8,3:0|0:2,0:0:0:0:
76,380,24516,1,0,3:0:0:0:
168,344,24850,2,0,L|224:320,1,50,0|8,1:0|0:2,0:0:0:0:
264,336,25183,1,0,3:0:0:0:
312,324,25350,6,0,P|356:336|408:324,1,100,0|8,3:0|0:2,0:0:0:0:
456,332,25850,1,0,3:0:0:0:
504,244,26183,2,0,L|496:184,1,50,0|8,1:0|0:2,0:0:0:0:
492,144,26516,1,0,3:0:0:0:
488,96,26683,6,0,B|436:80|436:80|390:87,1,100,0|8,3:0|0:2,0:0:0:0:
340,92,27183,1,0,3:0:0:0:
272,164,27516,1,0,1:0:0:0:
221,169,27683,2,0,P|191:171|155:163,1,50,8|0,0:2|3:0,0:0:0:0:
120,160,28016,6,0,P|120:212|104:264,1,100,0|8,3:0|0:2,0:0:0:0:
56,256,28517,2,0,P|42:208|42:158,1,100,0|0,3:0|3:0,0:0:0:0:
60,116,29016,2,0,P|67:87|68:60,1,50,8|0,0:2|3:0,0:0:0:0:
52,20,29350,5,0,3:0:0:0:
152,4,29683,1,8,0:2:0:0:
188,40,29850,2,0,P|240:48|348:-12,1,150,0|8,3:0|0:2,0:0:0:0:
376,16,30517,1,0,3:0:0:0:
416,44,30683,5,0,3:0:0:0:
416,144,31016,1,8,0:2:0:0:
380,180,31183,2,0,P|328:188|220:128,1,150,0|8,3:0|0:2,0:0:0:0:
192,156,31850,1,0,3:0:0:0:
152,184,32016,5,0,3:0:0:0:
116,276,32350,2,0,L|112:332,2,50,8|0|0,3:2|3:0|3:0,0:0:0:0:
208,312,33017,2,0,L|250:348,1,50,8|0,3:2|3:0,0:0:0:0:
292,360,33350,6,0,P|340:372|400:352,1,100,0|8,3:0|3:2,0:0:0:0:
488,352,34017,2,0,P|474:304|427:262,1,100,0|8,3:0|3:2,0:0:0:0:
388,184,34683,6,0,P|353:219|340:281,1,100,4|0,3:1|0:0,0:0:0:0:
256,192,35183,12,8,37350,0:1:0:0:
