osu file format v14

[General]
AudioFilename: audio.mp3
AudioLeadIn: 0
PreviewTime: 0
Countdown: 0
SampleSet: Soft
StackLeniency: 0.7
Mode: 0
LetterboxInBreaks: 0
WidescreenStoryboard: 0

[Editor]
Bookmarks: 13330,23997,29997
DistanceSpacing: 1.3
BeatDivisor: 1
GridSize: 4
TimelineZoom: 2.699999

[Metadata]
Title:PEPSI * MAN
TitleUnicode:PEPSI ☆ MAN
Artist:NOMA
ArtistUnicode:ノマ
Creator:Seto Kousuke
Version:ANOTHER
Source:ペプシマン
Tags:NOFFY MONSTRATA TRYNNA TESTO BLUE DRAGON MISMAGIUS ALEXSANDER BOSSANDY PEPSIMAN MOWTENDOO THE COMPLETIONIST
BeatmapID:1838663
BeatmapSetID:879193

[Difficulty]
HPDrainRate:5
CircleSize:4
OverallDifficulty:8
ApproachRate:9
SliderMultiplier:1.8
SliderTickRate:1

[Events]
//Background and Video events
Video,0,"pepsi man.avi"
0,0,"coca cola man.jpg",0,0
//Break Periods
//Storyboard Layer 0 (Background)
//Storyboard Layer 1 (Fail)
//Storyboard Layer 2 (Pass)
//Storyboard Layer 3 (Foreground)
//Storyboard Sound Samples

[TimingPoints]
10,333.333333333333,4,2,1,60,1,0
1343,-133.333333333333,4,2,2,60,0,0
2093,-133.333333333333,4,2,1,60,0,0
2684,333.333333333333,4,2,1,80,1,0
37350,-333.333333333333,4,2,1,80,0,1
37433,-250,4,2,1,80,0,0
38433,-250,4,2,1,5,0,0

[Colours]
Combo1 : 217,13,44
Combo2 : 198,106,4
Combo3 : 0,96,213
Combo4 : 245,146,10
SliderBorder : 255,255,255

[HitObjects]
174,190,1343,6,0,P|185:240|118:313,2,135.000005149841,8|8|8,0:0|0:0|0:0,0:0:0:0:
64,110,2176,1,0,3:0:0:0:
240,35,2343,1,8,0:2:0:0:
240,35,2684,6,0,P|287:84|406:75,1,180,0|8,3:0|0:2,0:0:0:0:
491,203,3183,1,0,3:0:0:0:
491,203,3267,1,0,1:0:0:0:
491,203,3350,2,0,P|440:194|400:214,1,90,0|0,1:0|1:0,0:0:0:0:
270,242,3683,1,8,0:2:0:0:
348,311,3850,1,0,3:0:0:0:
225,363,4017,6,0,B|190:364|158:353|158:353|118:367|118:367|83:359|13:357,1,180,0|8,3:0|0:2,0:0:0:0:
26,183,4517,1,0,3:0:0:0:
26,183,4600,1,0,1:0:0:0:
26,183,4683,2,0,P|27:228|21:273,1,90,0|0,1:0|1:0,0:0:0:0:
104,119,5017,1,8,0:2:0:0:
191,179,5183,1,0,3:0:0:0:
324,58,5350,6,0,B|227:77|237:16|136:54,1,180,0|8,3:0|0:2,0:0:0:0:
25,19,5850,1,0,3:0:0:0:
25,19,5933,1,0,1:0:0:0:
25,19,6017,2,0,P|42:67|27:116,1,90,0|0,1:0|1:0,0:0:0:0:
21,270,6350,2,0,P|42:224|88:199,1,90,8|0,0:2|3:0,0:0:0:0:
202,125,6683,6,0,L|169:304,1,180,0|8,3:0|0:2,0:0:0:0:
288,370,7183,1,0,3:0:0:0:
288,370,7267,1,0,1:0:0:0:
288,370,7350,2,0,P|326:363|406:366,1,90,0|0,1:0|3:0,0:0:0:0:
495,284,7683,1,8,0:2:0:0:
404,236,7850,1,0,3:0:0:0:
497,133,8017,6,0,L|518:81,7,45,2|2|2|2|2|2|2|2,3:3|0:3|0:3|0:3|0:3|0:3|1:3|0:3,0:0:0:0:
377,75,8683,2,0,L|356:23,7,45,2|2|2|2|2|2|2|2,3:3|0:3|0:3|0:3|1:3|0:3|1:3|0:3,0:0:0:0:
298,163,9350,6,0,L|307:210,3,45,2|2|2|2,3:3|0:3|0:3|0:3,0:0:0:0:
219,112,9683,2,0,L|210:156,3,45,2|2|2|2,3:3|0:3|1:3|0:3,0:0:0:0:
132,183,10017,2,0,L|141:230,3,45,2|2|2|2,3:3|0:3|0:3|0:3,0:0:0:0:
52,111,10350,2,0,L|43:155,3,45,2|2|2|2,3:3|0:3|3:3|0:3,0:0:0:0:
35,256,10683,6,0,L|29:277,2,22.5,2|2|2,3:3|1:3|1:3,0:0:0:0:
95,337,10850,1,2,0:3:0:0:
95,337,10933,1,2,0:3:0:0:
95,337,11017,2,0,P|138:348|196:330,1,90,2|2,0:3|3:3,0:0:0:0:
286,250,11350,2,0,L|286:227,2,22.5,2|2|2,3:3|1:3|1:3,0:0:0:0:
307,339,11517,1,2,0:3:0:0:
307,339,11600,1,2,0:3:0:0:
307,339,11684,2,0,P|350:346|407:323,1,90,2|2,0:3|3:3,0:0:0:0:
498,260,12017,6,0,L|498:237,4,22.5,2|2|2|2|2,3:3|1:3|1:3|1:3|1:3,0:0:0:0:
369,139,12350,2,0,L|358:158,4,22.5,2|2|2|2|2,3:3|1:3|1:3|1:3|1:3,0:0:0:0:
482,47,12683,1,2,3:3:0:0:
482,47,12767,1,2,1:3:0:0:
482,47,12850,6,0,L|492:66,8,22.5,2|0|2|0|2|2|2|2|2,0:3|0:0|0:3|0:0|3:3|1:3|1:3|1:3|1:3,0:0:0:0:
362,18,13350,5,0,3:0:0:0:
293,101,13517,1,0,1:0:0:0:
182,17,13683,1,10,0:2:0:0:
302,125,13850,2,0,P|297:190|247:216,1,90,0|0,3:0|0:0,0:0:0:0:
126,292,14183,1,2,1:2:0:0:
134,145,14350,1,8,0:2:0:0:
125,323,14517,1,2,3:2:0:0:
27,196,14683,5,2,0:1:0:0:
28,173,14766,1,0,1:0:0:0:
29,151,14849,1,2,0:3:0:0:
31,128,14933,1,2,0:3:0:0:
32,106,15016,1,2,0:3:0:0:
140,56,15183,1,2,0:1:0:0:
138,78,15266,1,0,1:0:0:0:
137,100,15349,1,2,0:3:0:0:
135,123,15433,1,2,0:3:0:0:
134,145,15517,2,0,P|182:168|242:143,1,90,2|2,0:3|0:1,0:0:0:0:
234,147,15766,1,2,0:1:0:0:
235,125,15849,1,2,0:1:0:0:
237,102,15933,1,2,0:1:0:0:
238,80,16016,5,0,3:0:0:0:
320,14,16183,1,0,1:0:0:0:
390,150,16350,1,10,0:2:0:0:
491,36,16517,2,0,P|497:87|489:143,1,90,0|0,3:0|0:0,0:0:0:0:
447,260,16850,1,2,1:2:0:0:
378,132,17017,1,8,0:2:0:0:
449,292,17183,1,2,3:2:0:0:
300,342,17350,5,2,0:1:0:0:
277,346,17433,1,0,3:0:0:0:
255,345,17516,1,0,3:0:0:0:
233,339,17599,1,0,3:0:0:0:
213,329,17683,2,0,P|213:303|219:269,1,45,2|0,0:3|1:0,0:0:0:0:
255,190,17850,1,2,0:1:0:0:
277,195,17933,1,2,0:1:0:0:
298,206,18017,2,0,P|298:232|292:266,1,45,0|0,1:0|1:0,0:0:0:0:
386,151,18183,2,0,P|386:177|392:211,1,45,2|0,0:1|1:0,0:0:0:0:
305,105,18350,1,0,3:0:0:0:
305,105,18433,1,0,3:0:0:0:
305,105,18517,1,2,0:1:0:0:
450,71,18683,5,0,3:0:0:0:
361,12,18850,1,0,1:0:0:0:
386,151,19017,1,10,0:2:0:0:
269,23,19183,2,0,P|229:23|173:69,1,90,0|0,3:0|0:0,0:0:0:0:
120,156,19517,1,2,1:2:0:0:
69,62,19683,1,8,0:2:0:0:
62,241,19850,1,2,3:2:0:0:
218,173,20017,6,0,L|215:253,1,45,2|2,0:1|0:1,0:0:0:0:
210,317,20183,1,2,3:2:0:0:
210,317,20267,1,2,3:2:0:0:
210,317,20350,1,2,3:2:0:0:
325,180,20517,6,0,L|322:260,1,45,2|2,0:1|0:1,0:0:0:0:
317,324,20683,1,2,3:2:0:0:
317,324,20767,1,2,3:2:0:0:
317,324,20850,1,2,3:2:0:0:
433,187,21017,6,0,L|430:267,1,45,2|2,0:1|0:1,0:0:0:0:
425,331,21183,1,2,3:2:0:0:
425,331,21267,1,0,0:0:0:0:
425,331,21350,5,0,3:0:0:0:
506,284,21517,1,0,1:0:0:0:
352,217,21683,1,10,0:2:0:0:
484,128,21850,2,0,P|498:87|477:32,1,90,0|0,3:0|0:0,0:0:0:0:
292,83,22183,2,0,L|382:83,1,90,2|8,1:2|0:2,0:0:0:0:
196,16,22517,1,2,3:2:0:0:
228,177,22683,6,0,P|220:199|189:244,1,45,2|2,0:1|1:3,0:0:0:0:
105,157,22850,2,0,P|104:179|106:201,1,45,2|2,0:3|1:3,0:0:0:0:
173,106,23017,1,2,0:3:0:0:
239,209,23183,6,0,P|231:231|200:276,1,45,2|2,0:1|1:3,0:0:0:0:
116,189,23350,2,0,P|115:211|117:233,1,45,2|2,0:3|1:3,0:0:0:0:
184,138,23517,1,2,0:3:0:0:
156,316,23683,1,2,0:1:0:0:
156,316,23767,1,2,0:1:0:0:
156,316,23850,1,2,0:1:0:0:
374,260,24017,6,0,P|296:214|204:279,1,180,0|8,3:0|0:2,0:0:0:0:
295,366,24517,1,0,3:0:0:0:
295,366,24600,1,0,1:0:0:0:
295,366,24683,2,0,L|404:366,1,90,0|0,1:0|1:0,0:0:0:0:
496,285,25017,1,8,0:2:0:0:
416,172,25183,1,0,3:0:0:0:
292,260,25350,6,0,B|261:281|236:272|236:272|181:217|98:260,1,180,0|8,3:0|0:2,0:0:0:0:
18,152,25850,1,0,3:0:0:0:
18,152,25933,1,0,1:0:0:0:
18,152,26017,2,0,P|64:151|109:129,1,90,0|0,1:0|1:0,0:0:0:0:
218,18,26350,1,8,0:2:0:0:
98,32,26517,1,0,3:0:0:0:
218,135,26683,6,0,B|251:144|276:140|276:140|331:89|331:89|364:79|401:107,1,180,0|8,3:0|0:2,0:0:0:0:
491,15,27183,1,0,3:0:0:0:
491,15,27267,1,0,1:0:0:0:
491,15,27350,2,0,P|478:72|475:130,1,90,0|0,1:0|1:0,0:0:0:0:
405,256,27683,2,0,P|408:213|389:141,1,90,8|0,0:2|3:0,0:0:0:0:
263,35,28017,6,0,P|247:134|241:216,1,180,0|8,3:0|0:2,0:0:0:0:
291,341,28517,1,0,3:0:0:0:
291,341,28600,1,0,1:0:0:0:
291,341,28683,2,0,P|240:325|196:333,1,90,0|0,1:0|3:0,0:0:0:0:
61,231,29017,1,8,0:2:0:0:
95,349,29183,1,0,3:0:0:0:
225,238,29350,6,0,P|224:182|89:147,1,180,0|8,3:0|0:2,0:0:0:0:
36,27,29850,1,0,3:0:0:0:
36,27,29933,1,0,1:0:0:0:
36,27,30017,2,0,B|39:61|39:61|37:109,1,45,0|0,1:0|0:0,0:0:0:0:
128,0,30183,2,0,B|124:34|124:34|127:82,1,45,0|0,1:0|0:0,0:0:0:0:
213,46,30350,2,0,B|216:80|216:80|214:128,1,45,8|0,0:0|0:0,0:0:0:0:
304,13,30517,2,0,B|300:47|300:47|303:95,1,45,0|0,3:0|0:0,0:0:0:0:
409,81,30683,6,0,B|411:107|400:119|400:119|404:140|414:139|414:139|400:147|400:147|419:179|419:179|386:194|386:194|399:225|422:234|422:234|409:251|373:272|373:272|404:287|415:332,1,315,0|0,3:0|0:0,0:0:0:0:
334,333,31350,2,0,B|308:335|296:324|296:324|275:328|276:338|276:338|268:324|268:324|240:324|240:324|221:310|221:310|190:323|181:334|181:334|164:333|143:297|143:297|124:318|124:318|114:297|114:297|78:284,1,315,0|0,3:0|0:0,0:0:0:0:
15,264,32017,6,0,B|7:219|10:186|10:186|46:202|80:207|80:207|73:173|52:132|52:132|93:139|130:137|130:137|139:117|134:75,1,360,0|0,3:0|3:0,0:0:0:0:
197,23,32850,1,0,1:0:0:0:
291,114,33017,2,0,P|294:158|282:201,1,90,8|0,0:0|0:0,0:0:0:0:
381,32,33350,5,0,3:0:0:0:
406,179,33517,1,0,1:0:0:0:
503,117,33683,1,8,3:2:0:0:
450,288,33850,1,0,1:0:0:0:
282,201,34017,2,0,P|276:245|285:289,1,90,0|0,3:0|1:0,0:0:0:0:
102,381,34350,2,0,P|114:341|106:270,1,90,8|0,3:2|1:0,0:0:0:0:
74,117,34683,5,4,0:1:0:0:
256,192,34767,12,0,37183,0:0:0:0:
349,172,37350,6,0,B|246:196|269:124|167:154,1,188.999994232178,8|0,0:1|0:0,0:0:0:0:
