osu file format v14

[General]
AudioFilename: audio.mp3
AudioLeadIn: 0
PreviewTime: 0
Countdown: 0
SampleSet: Soft
StackLeniency: 0.7
Mode: 0
LetterboxInBreaks: 0
WidescreenStoryboard: 0

[Editor]
DistanceSpacing: 1
BeatDivisor: 2
GridSize: 8
TimelineZoom: 1.9

[Metadata]
Title:PEPSI * MAN
TitleUnicode:PEPSI ☆ MAN
Artist:NOMA
ArtistUnicode:ノマ
Creator:Seto Kousuke
Version:ALEX'S HARD
Source:ペプシマン
Tags:NOFFY MONSTRATA TRYNNA TESTO BLUE DRAGON MISMAGIUS ALEXSANDER BOSSANDY PEPSIMAN MOWTENDOO THE COMPLETIONIST
BeatmapID:1838660
BeatmapSetID:879193

[Difficulty]
HPDrainRate:5
CircleSize:4
OverallDifficulty:6
ApproachRate:7.5
SliderMultiplier:1.4
SliderTickRate:1

[Events]
//Background and Video events
Video,0,"pepsi man.avi"
0,0,"coca cola man.jpg",0,0
//Break Periods
//Storyboard Layer 0 (Background)
//Storyboard Layer 1 (Fail)
//Storyboard Layer 2 (Pass)
//Storyboard Layer 3 (Foreground)
//Storyboard Sound Samples

[TimingPoints]
10,333.333333333333,4,2,2,60,1,0
10,-125,4,2,2,60,0,0
1343,-125,4,2,2,60,0,0
2093,-125,4,2,1,60,0,0
2684,333.333333333333,4,2,1,80,1,0
33433,-100,4,2,1,5,0,0
33517,-100,4,2,1,80,0,0
33600,-100,4,2,1,5,0,0
33683,-100,4,2,1,80,0,0
33767,-100,4,2,1,5,0,0
33850,-100,4,2,1,80,0,0
33933,-100,4,2,1,5,0,0
34017,-100,4,2,1,80,0,0
34100,-100,4,2,1,5,0,0
34183,-100,4,2,1,80,0,0
34267,-100,4,2,1,5,0,0
34350,-100,4,2,1,80,0,0
34433,-100,4,2,1,5,0,0
34517,-100,4,2,1,80,0,0
34600,-100,4,2,1,5,0,0
34683,-100,4,2,1,80,0,0
35350,-100,4,2,1,60,0,0
36017,-100,4,2,1,50,0,0
36683,-100,4,2,1,40,0,0
37350,-100,4,2,1,80,0,0

[Colours]
Combo1 : 217,13,44
Combo2 : 198,106,4
Combo3 : 0,96,213
Combo4 : 245,146,10
SliderBorder : 255,255,255

[HitObjects]
75,125,10,6,0,L|87:192,1,56,2|0,0:0|0:0,0:0:0:0:
126,255,343,1,2,0:0:0:0:
197,184,509,2,0,B|273:136|281:209|367:162,1,168,2|0,0:0|0:0,0:0:0:0:
455,290,1343,6,0,P|447:322|430:346,1,56,8|0,0:0|0:0,0:0:0:0:
369,289,1676,1,8,0:0:0:0:
258,384,2009,1,8,0:0:0:0:
184,330,2176,1,0,3:0:0:0:
254,269,2343,2,0,P|267:242|271:203,1,56,8|0,0:2|0:0,0:0:0:0:
201,158,2684,6,0,L|121:159,1,70,0|0,3:0|1:0,0:0:0:0:
57,105,3017,1,8,0:2:0:0:
125,45,3183,2,0,L|268:43,1,140,0|0,3:0|1:0,0:0:0:0:
329,107,3683,1,8,0:2:0:0:
393,42,3850,1,0,3:0:0:0:
457,106,4017,6,0,B|486:179|430:171|463:264,1,140,0|8,3:0|0:2,0:0:0:0:
386,301,4517,2,0,B|342:294|342:294|297:305|297:305|226:294,1,140,0|0,3:0|1:0,0:0:0:0:
175,352,5017,1,8,0:2:0:0:
120,277,5183,1,0,3:0:0:0:
195,224,5350,6,0,L|196:132,1,70,0|0,3:0|1:0,0:0:0:0:
176,67,5683,1,8,0:2:0:0:
118,137,5850,2,0,L|120:277,1,140,0|0,3:0|1:0,0:0:0:0:
184,341,6350,1,8,0:2:0:0:
248,276,6517,1,0,3:0:0:0:
324,324,6683,6,0,B|392:346|392:346|468:317,1,140,0|8,3:0|0:2,0:0:0:0:
456,230,7183,2,0,B|391:205|391:205|323:227,1,140,0|0,3:0|3:0,0:0:0:0:
248,276,7683,1,8,0:2:0:0:
199,198,7850,1,0,3:0:0:0:
164,275,8017,6,0,B|107:284,3,35,2|2|2|2,3:3|0:3|0:3|0:3,0:0:0:0:
122,289,8350,2,0,B|65:298,3,35,2|2|2|2,0:3|0:3|3:3|0:3,0:0:0:0:
83,305,8683,2,0,B|26:314,3,35,2|2|2|2,0:3|0:3|0:3|0:3,0:0:0:0:
45,321,9017,2,0,B|-12:330,3,35,2|2|2|2,3:3|0:3|3:3|0:3,0:0:0:0:
2,292,9350,6,0,P|30:225|-14:161,1,140,2|2,3:3|0:3,0:0:0:0:
64,105,9850,2,0,P|131:133|195:89,1,140,2|2,3:3|0:3,0:0:0:0:
250,167,10350,1,2,3:3:0:0:
250,167,10517,1,2,3:3:0:0:
314,103,10683,6,0,P|337:88|360:80,3,35,2|2|2|2,3:3|1:3|0:3|0:3,0:0:0:0:
388,96,11017,1,2,0:3:0:0:
431,16,11183,1,2,3:3:0:0:
483,90,11350,2,0,L|487:148,3,35,2|2|2|2,3:3|1:3|0:3|0:3,0:0:0:0:
499,168,11683,1,2,0:3:0:0:
434,232,11850,1,2,3:3:0:0:
357,183,12017,6,0,L|356:139,2,35,2|2|2,3:3|1:3|0:3,0:0:0:0:
265,183,12350,2,0,L|264:139,2,35,2|2|2,3:3|1:3|0:3,0:0:0:0:
173,183,12683,2,0,L|172:139,2,35,2|2|2,3:3|1:3|0:3,0:0:0:0:
81,183,13017,2,0,L|80:139,2,35,2|2|2,3:3|1:3|1:3,0:0:0:0:
27,256,13350,5,0,3:0:0:0:
82,329,13517,1,0,1:0:0:0:
164,270,13683,2,0,B|231:245|231:245|298:271,1,140,10|0,0:2|0:0,0:0:0:0:
369,344,14183,2,0,L|461:341,1,70,2|8,1:2|0:2,0:0:0:0:
294,269,14517,2,0,L|386:266,1,70,2|2,3:2|0:1,0:0:0:0:
455,268,14850,6,0,L|510:260,2,35,2|2|2,0:3|0:3|0:3,0:0:0:0:
459,176,15183,1,2,0:1:0:0:
459,176,15267,1,2,0:3:0:0:
459,176,15350,2,0,P|442:141|447:93,1,70,2|2,0:3|0:3,0:0:0:0:
391,34,15683,2,0,L|318:30,1,70,2|2,0:1|0:1,0:0:0:0:
260,116,16017,5,0,3:0:0:0:
200,30,16183,1,0,1:0:0:0:
125,104,16350,2,0,L|128:253,1,140,10|0,0:2|0:0,0:0:0:0:
127,349,16850,2,0,L|204:348,1,70,2|8,1:2|0:2,0:0:0:0:
271,273,17183,2,0,L|348:272,1,70,2|2,3:2|0:1,0:0:0:0:
364,289,17433,1,0,3:0:0:0:
364,289,17517,5,0,3:0:0:0:
305,375,17683,1,2,0:3:0:0:
196,348,17850,2,0,B|127:317|125:379|48:341,1,140,2|2,0:1|0:1,0:0:0:0:
35,244,18350,2,0,P|28:213|13:190,2,35,0|0|2,3:0|3:0|0:1,0:0:0:0:
99,161,18683,5,0,3:0:0:0:
147,254,18850,1,0,1:0:0:0:
224,182,19017,2,0,P|283:150|352:196,1,140,10|0,0:2|0:0,0:0:0:0:
343,285,19517,2,0,L|254:284,1,70,2|8,1:2|0:2,0:0:0:0:
378,363,19850,2,0,L|289:362,1,70,2|2,3:2|0:1,0:0:0:0:
205,337,20183,5,2,3:2:0:0:
205,337,20267,1,2,3:2:0:0:
205,337,20350,2,0,P|177:313|157:267,1,70,2|2,3:2|0:1,0:0:0:0:
70,230,20683,2,0,P|94:202|140:182,1,70,2|2,3:2|3:2,0:0:0:0:
179,96,21017,2,0,P|207:120|227:166,1,70,2|0,0:1|0:0,0:0:0:0:
269,242,21350,5,0,3:0:0:0:
322,151,21517,1,0,1:0:0:0:
378,239,21683,2,0,L|379:383,1,140,10|0,0:2|0:0,0:0:0:0:
484,378,22183,2,0,L|483:308,1,70,2|8,1:2|0:2,0:0:0:0:
483,202,22517,2,0,L|482:132,1,70,2|2,3:2|0:1,0:0:0:0:
427,42,22850,5,2,0:3:0:0:
410,28,22933,1,2,1:3:0:0:
390,18,23017,2,0,L|350:13,3,35,2|0|2|2,0:3|0:0|0:1|1:3,0:0:0:0:
335,24,23350,2,0,L|348:110,1,70,2|2,0:3|0:3,0:0:0:0:
311,192,23683,1,2,0:1:0:0:
238,115,23850,1,2,0:1:0:0:
188,207,24017,6,0,L|114:208,1,70,0|0,3:0|1:0,0:0:0:0:
53,272,24350,1,8,0:2:0:0:
117,336,24517,2,0,L|279:333,1,140,0|0,3:0|1:0,0:0:0:0:
321,269,25017,1,8,0:2:0:0:
385,333,25183,1,0,3:0:0:0:
449,268,25350,6,0,L|449:118,1,140,0|8,3:0|0:2,0:0:0:0:
384,63,25850,2,0,B|343:42|343:42|239:50,1,140,0|0,3:0|1:0,0:0:0:0:
184,113,26350,1,8,0:2:0:0:
248,177,26517,1,0,3:0:0:0:
183,241,26683,6,0,L|83:242,1,70,0|0,3:0|1:0,0:0:0:0:
31,283,27017,1,8,0:2:0:0:
31,192,27183,2,0,L|30:40,1,140,0|0,3:0|1:0,0:0:0:0:
105,0,27683,1,8,0:2:0:0:
137,85,27850,1,0,3:0:0:0:
215,37,28017,6,0,P|262:21|340:80,1,140,0|8,3:0|0:2,0:0:0:0:
334,156,28517,2,0,B|336:307,1,140,0|0,3:0|3:0,0:0:0:0:
285,372,29017,1,8,0:2:0:0:
208,320,29183,1,0,3:0:0:0:
260,245,29350,6,0,B|258:155,1,70,0|0,3:0|1:0,0:0:0:0:
252,84,29683,1,8,0:2:0:0:
183,144,29850,2,0,B|119:165|119:165|48:145,1,140,0|0,3:0|1:0,0:0:0:0:
0,222,30350,1,8,0:2:0:0:
44,301,30517,1,0,3:0:0:0:
131,276,30683,6,0,B|200:256|200:256|264:277,1,140,0|8,3:0|0:2,0:0:0:0:
329,341,31183,2,0,B|398:360|398:360|462:339,1,140,0|0,3:0|0:0,0:0:0:0:
509,261,31683,1,8,0:2:0:0:
429,215,31850,1,0,3:0:0:0:
483,141,32017,6,0,P|504:83|463:8,1,140,0|8,3:0|0:0,0:0:0:0:
412,83,32517,2,0,L|268:81,1,140,0|0,3:0|3:0,0:0:0:0:
194,128,33017,1,8,0:0:0:0:
261,188,33183,1,0,3:0:0:0:
183,235,33350,6,0,L|99:235,1,70,0|0,3:0|0:0,0:0:0:0:
113,326,33683,2,0,L|183:326,1,70,8|0,3:2|0:0,0:0:0:0:
261,279,34017,2,0,L|331:279,1,70,0|0,3:0|0:0,0:0:0:0:
331,188,34350,2,0,L|261:188,1,70,8|0,3:2|0:0,0:0:0:0:
180,145,34683,6,0,P|167:108|176:58,1,70,4|0,0:1|0:0,0:0:0:0:
222,11,35017,1,2,0:0:0:0:
282,88,35183,1,2,0:0:0:0:
256,192,35267,12,8,37350,0:1:0:0:
