osu file format v14

[General]
AudioFilename: audio.mp3
AudioLeadIn: 0
PreviewTime: 111791
Countdown: 0
SampleSet: Normal
StackLeniency: 0.9
Mode: 0
LetterboxInBreaks: 0
SkinPreference:Crystal gem
WidescreenStoryboard: 1

[Editor]
DistanceSpacing: 0.8
BeatDivisor: 4
GridSize: 32
TimelineZoom: 1

[Metadata]
Title:Something Entirely New
TitleUnicode:Something Entirely New
Artist:Nokae feat. Adriana Figueroa & Miku-Tan
ArtistUnicode:Nokae
Creator:Landwii
Version:The answer
Source:Steven Universe
Tags:aivi & surasshu, the Answer, ruby, sapphire
BeatmapID:1039357
BeatmapSetID:487515

[Difficulty]
HPDrainRate:8.6
CircleSize:5
OverallDifficulty:8.4
ApproachRate:8
SliderMultiplier:1.4
SliderTickRate:1

[Events]
//Background and Video events
0,0,"tumblr_static_tumblr_static_7gymypwtvcsg84g0s4o0wwwck_640.jpg",0,0
//Break Periods
2,86507,89296
//Storyboard Layer 0 (Background)
//Storyboard Layer 1 (Fail)
//Storyboard Layer 2 (Pass)
//Storyboard Layer 3 (Foreground)
//Storyboard Sound Samples

[TimingPoints]
58,468.75,4,1,0,100,1,0
30058,-100,4,1,0,100,0,1
45058,-100,4,1,0,100,0,0
112558,-100,4,1,0,100,0,1
138339,-100,4,1,0,100,0,0

[Colours]
Combo1 : 3,5,86
Combo2 : 213,0,0
Combo3 : 114,114,252
Combo4 : 183,0,183
Combo5 : 255,147,252

[HitObjects]
100,84,14120,2,0,P|112:56|84:24,1,70
113,178,14472,2,0,P|117:144|144:124,1,70
184,40,14823,2,0,L|240:72,1,35
280,75,15058,2,4,L|281:132,1,35
266,158,15409,5,2,0:0:0:0:
306,220,15643,1,8,0:0:0:0:
298,266,15878,6,0,L|214:267,1,70
180,212,16229,2,0,P|184:192|208:188,1,35
212,328,16464,1,0,0:0:0:0:
100,260,16698,2,0,B|133:266|142:280|136:316,1,70
105,238,17401,6,0,L|140:239,1,35
157,224,17753,1,8,0:0:0:0:
170,204,17870,2,8,L|208:204,1,35
228,209,18104,2,0,L|264:243,1,35
288,248,18339,6,0,L|280:292,1,35
352,231,18573,2,8,L|412:232,1,35
421,227,18808,2,8,L|343:140,1,105
304,100,19276,5,0,0:0:0:0:
256,72,19511,6,0,L|204:54,1,35
193,41,19745,1,0,0:0:0:0:
72,64,19862,1,0,0:0:0:0:
228,176,19979,2,0,P|248:192|264:180,1,35
140,148,20214,2,0,P|120:132|132:108,1,35
89,209,20448,2,12,P|81:249|111:257,1,70
164,261,21151,6,8,L|204:280,1,35
208,184,21386,1,8,0:0:0:0:
288,220,21620,2,0,P|338:266|376:241,1,105
413,190,22089,1,0,0:0:0:0:
413,190,22206,1,8,0:0:0:0:
446,118,22558,2,0,L|349:28,1,105
312,152,23026,1,8,0:0:0:0:
276,40,23261,2,0,L|199:90,1,70
124,132,23612,2,0,L|36:108,1,70
124,140,23964,6,8,L|124:193,1,35
192,249,24198,1,8,0:0:0:0:
268,278,24433,1,0,0:0:0:0:
337,291,24901,5,2,0:0:0:0:
188,291,25136,6,0,L|141:290,1,35
126,281,25370,1,0,0:0:0:0:
143,252,25604,2,0,L|136:189,2,35
143,319,26073,1,8,0:0:0:0:
161,341,26190,2,8,P|223:341|222:305,1,105
196,261,26776,1,0,0:0:0:0:
216,216,27011,5,0,0:0:0:0:
334,244,27128,1,0,0:0:0:0:
277,160,27362,1,8,0:0:0:0:
276,311,27597,1,8,0:0:0:0:
378,285,27948,2,4,P|423:277|425:243,1,70
431,163,28417,6,0,P|394:85|308:65,1,175
263,66,29120,1,8,0:0:0:0:
170,123,29354,1,0,0:0:0:0:
312,160,29589,1,8,0:0:0:0:
225,14,29823,1,0,0:0:0:0:
121,33,29940,2,0,L|69:58,1,35
52,99,30175,6,0,L|55:188,1,70
72,226,30526,1,2,0:0:0:0:
120,276,30643,2,0,P|116:320|72:332,1,70
200,336,30995,1,8,0:0:0:0:
227,247,31229,1,0,0:0:0:0:
338,253,31347,1,0,0:0:0:0:
418,340,31464,1,0,0:0:0:0:
323,327,31698,1,8,0:0:0:0:
306,321,31815,1,8,0:0:0:0:
288,300,31933,2,0,B|256:288|304:276|256:256|300:240|252:232|296:212|252:208|300:200|256:184|296:176|276:188,1,105
289,152,32518,1,2,0:0:0:0:
291,126,32636,6,0,P|317:94|288:74,1,70
241,34,32987,1,0,0:0:0:0:
87,83,33104,1,2,0:0:0:0:
244,176,33339,2,0,P|268:192|288:168,1,35
183,201,33573,5,8,0:0:0:0:
164,216,33690,2,0,L|152:307,2,70
165,163,34276,1,0,0:0:0:0:
157,101,34511,2,0,L|236:120,1,70
344,48,34862,2,0,L|271:55,1,70
176,68,35214,1,8,0:0:0:0:
244,144,35448,1,8,0:0:0:0:
312,60,35683,5,0,0:0:0:0:
312,60,35800,1,0,0:0:0:0:
311,60,35917,2,2,P|338:86|344:143,1,70
361,166,36268,1,0,0:0:0:0:
306,216,36386,5,0,0:0:0:0:
402,242,36503,1,0,0:0:0:0:
350,287,36620,1,8,0:0:0:0:
412,334,36854,2,8,L|329:366,1,70
270,322,37323,1,0,0:0:0:0:
268,252,37558,5,0,0:0:0:0:
270,215,37675,2,8,P|261:184|202:179,1,70
160,175,38026,1,0,0:0:0:0:
86,182,38495,5,0,0:0:0:0:
40,66,38729,1,8,0:0:0:0:
208,114,38847,1,8,0:0:0:0:
88,4,38964,1,0,0:0:0:0:
223,55,39081,2,0,B|279:71|291:106|288:92,1,70
367,67,39433,1,6,0:0:0:0:
468,49,39901,6,0,P|492:102|457:191,1,140
392,272,40604,2,0,L|352:292,1,35
380,132,40839,2,0,L|400:96,1,35
274,135,41073,2,0,P|225:178|232:191,1,70
272,248,41425,2,0,P|286:286|254:308,1,70
150,272,41893,5,8,0:0:0:0:
248,236,42011,1,2,0:0:0:0:
144,184,42128,5,8,0:0:0:0:
256,140,42479,5,0,0:0:0:0:
312,72,42597,1,0,0:0:0:0:
280,244,42714,1,0,0:0:0:0:
360,184,42948,2,0,L|384:116,1,70
412,171,43300,6,8,L|366:171,1,35
274,179,43534,1,8,0:0:0:0:
256,192,43651,12,0,44940,0:0:0:0:
191,95,45058,6,0,L|319:95,1,105
332,93,45526,1,8,0:0:0:0:
397,52,45761,1,6,0:0:0:0:
448,128,45995,5,0,0:0:0:0:
384,192,46229,1,0,0:0:0:0:
486,257,46464,1,0,0:0:0:0:
448,288,46933,6,0,L|288:288,1,140
288,288,47518,1,8,0:0:0:0:
224,288,47636,1,8,0:0:0:0:
160,224,47987,5,0,0:0:0:0:
317,219,48104,1,0,0:0:0:0:
221,106,48339,1,8,0:0:0:0:
253,339,48573,1,6,0:0:0:0:
146,315,49042,6,0,P|125:309|121:293,1,35
119,238,49276,1,8,0:0:0:0:
36,184,49511,2,8,L|24:112,1,70
98,74,49979,2,0,L|211:74,1,105
274,70,50448,1,8,0:0:0:0:
260,117,50565,2,0,L|260:177,1,35
266,210,50917,2,0,P|303:253|355:241,1,105
393,202,51386,5,0,0:0:0:0:
469,149,51620,1,0,0:0:0:0:
335,124,51854,1,0,0:0:0:0:
484,59,52089,1,0,0:0:0:0:
425,46,52323,5,0,0:0:0:0:
352,20,52440,2,0,P|328:64|292:48,1,70
124,20,52792,1,0,0:0:0:0:
224,124,52909,1,8,0:0:0:0:
104,136,53261,5,0,0:0:0:0:
184,216,53495,5,0,0:0:0:0:
240,88,53964,1,8,0:0:0:0:
115,160,54433,2,8,B|116:206|130:231|176:243,1,105
194,253,54901,1,0,0:0:0:0:
304,284,55136,1,8,0:0:0:0:
384,191,55370,5,0,0:0:0:0:
471,129,55604,5,8,0:0:0:0:
288,131,55839,5,0,0:0:0:0:
381,65,56073,5,8,0:0:0:0:
380,136,56308,5,0,0:0:0:0:
219,25,56659,5,0,0:0:0:0:
204,52,56776,2,0,L|204:132,1,70
205,131,57128,1,8,0:0:0:0:
204,202,57245,5,0,0:0:0:0:
208,202,57362,2,0,L|272:201,3,35
299,202,57948,6,8,B|297:251|287:266|269:274|238:280,1,105
216,278,58417,1,0,0:0:0:0:
168,247,58534,1,0,0:0:0:0:
107,271,58886,6,0,L|88:192,1,70
240,200,59237,2,0,L|256:288,1,70
156,364,59706,2,0,B|63:364|38:340|36:316,1,140
33,238,60526,5,8,0:0:0:0:
85,238,60643,2,8,L|155:237,1,70
172,144,60995,2,0,P|136:136|156:112,1,70
256,120,61347,1,8,0:0:0:0:
346,211,61464,2,0,L|424:211,2,70
298,211,62050,1,0,0:0:0:0:
313,301,62167,6,8,P|371:301|424:283,1,105
423,212,62636,2,8,P|343:214|305:238,1,105
265,277,63104,2,0,B|268:228|252:215|251:212|251:213|251:213|308:179,1,105
299,140,63573,1,6,0:0:0:0:
391,176,63808,6,0,P|423:149|423:149,1,35
343,133,64042,2,0,L|301:109,1,35
315,65,64276,6,0,P|276:19|249:31,1,70
238,55,64628,2,8,L|237:118,1,35
278,159,64862,2,0,B|242:162|222:198|229:224,1,70
228,253,65214,2,8,P|198:284|214:306,1,70
268,302,65565,2,0,P|349:302|349:302,2,70
208,300,66151,5,0,0:0:0:0:
143,237,66386,1,8,0:0:0:0:
158,354,66620,1,0,0:0:0:0:
261,303,66854,5,0,0:0:0:0:
340,355,67089,1,8,0:0:0:0:
334,230,67323,1,0,0:0:0:0:
336,128,67558,2,0,B|366:107|366:107|334:80|334:80|364:56|363:56,1,105
415,59,68026,5,8,0:0:0:0:
421,103,68143,2,0,L|421:181,1,70
420,211,68495,2,0,L|351:148,1,70
332,110,68847,2,0,L|260:148,1,70
224,175,69198,6,0,P|183:208|158:167,1,105
165,98,69667,2,0,P|121:61|89:102,1,105
80,128,70136,2,0,B|80:184|96:200|144:196,1,105
84,104,70604,2,0,B|80:64|44:40|8:80,1,105
48,224,71073,5,0,0:0:0:0:
144,228,71308,1,8,0:0:0:0:
164,312,71542,6,0,L|221:338,1,35
233,329,71776,2,0,B|252:338|275:322|271:293,1,35
268,293,72011,2,0,L|328:290,1,35
355,272,72245,2,2,P|404:246|395:174,1,105
394,123,72714,2,0,L|464:123,2,70
304,124,73417,2,6,B|293:78|196:57|165:140,1,175
149,241,74120,6,0,L|241:240,1,70
266,217,74472,1,0,0:0:0:0:
314,254,74589,2,0,B|316:306|309:313|238:323,1,105
172,320,75058,2,0,P|182:370|245:366,1,105
282,347,75526,1,8,0:0:0:0:
378,340,75995,6,0,L|378:266,1,70
346,205,76464,2,0,B|271:206|271:206|293:139,1,140
340,102,77050,1,6,0:0:0:0:
374,41,77401,6,0,L|300:41,1,70
251,52,77753,1,8,0:0:0:0:
251,62,77870,2,0,L|251:148,1,70
248,160,78222,2,0,L|174:97,1,70
150,81,78573,2,8,L|112:146,1,70
81,215,78925,5,0,0:0:0:0:
121,242,79042,2,0,L|206:242,1,70
248,243,79511,2,0,P|271:284|299:281,1,70
303,278,79862,2,8,L|335:326,1,35
344,326,80097,2,2,B|382:336|421:326|435:275,1,105
437,209,80565,5,0,0:0:0:0:
437,209,80683,2,0,P|445:171|420:140,1,70
394,103,81034,1,8,0:0:0:0:
256,192,81151,12,0,82675,0:0:0:0:
130,75,83612,6,0,L|253:75,1,105
272,32,84081,1,0,0:0:0:0:
272,126,84198,1,8,0:0:0:0:
306,77,84315,1,0,0:0:0:0:
354,81,84433,2,0,L|465:81,1,105
465,101,85136,1,8,0:0:0:0:
451,144,85253,2,0,P|434:220|472:257,1,105
468,249,85839,1,0,0:0:0:0:
487,270,85956,1,0,0:0:0:0:
464,284,86073,2,0,L|368:259,1,70
256,191,90058,5,2,0:0:0:0:
270,193,90175,2,0,B|349:192|349:192|283:142,1,140
278,134,90878,1,8,0:0:0:0:
282,108,90995,2,8,L|282:17,1,70
268,27,91464,2,0,L|159:27,1,105
151,47,92050,1,8,0:0:0:0:
134,65,92167,2,0,L|134:185,1,105
141,213,92753,2,0,B|54:173|54:173|59:136|59:136|1:136,1,175
5,179,93456,1,4,0:0:0:0:
256,192,94159,12,0,97089,0:0:0:0:
96,64,97558,5,0,0:0:0:0:
96,64,97675,1,8,0:0:0:0:
96,31,97909,1,8,0:0:0:0:
31,32,98261,1,0,0:0:0:0:
32,64,98495,2,0,P|80:100|108:88,1,70
28,152,98847,2,0,P|60:180|44:224,1,70
100,264,99198,1,0,0:0:0:0:
136,168,99315,1,12,0:0:0:0:
209,182,99433,5,0,0:0:0:0:
269,158,99667,5,8,0:0:0:0:
296,148,99784,1,8,0:0:0:0:
337,135,99901,1,8,0:0:0:0:
369,128,100018,1,8,0:0:0:0:
401,129,100136,2,0,L|403:256,1,105
406,268,100604,5,0,0:0:0:0:
415,302,100722,1,0,0:0:0:0:
400,332,100839,1,8,0:0:0:0:
367,351,101073,6,0,B|305:335|320:299|346:257,1,105
369,243,101542,1,0,0:0:0:0:
369,243,101659,1,0,0:0:0:0:
447,257,101893,5,0,0:0:0:0:
450,241,102011,1,8,0:0:0:0:
448,201,102128,1,8,0:0:0:0:
448,201,102245,2,0,B|449:138|421:107|368:103,1,140
346,96,102831,1,0,0:0:0:0:
332,73,102948,1,0,0:0:0:0:
311,97,103065,1,8,0:0:0:0:
256,32,103300,5,0,0:0:0:0:
192,48,103417,1,0,0:0:0:0:
216,120,103651,1,8,0:0:0:0:
144,96,103768,1,8,0:0:0:0:
157,163,103886,1,0,0:0:0:0:
152,162,104003,2,0,P|65:139|86:109,1,140
95,77,104589,1,0,0:0:0:0:
152,91,104940,6,8,L|153:151,1,35
154,177,105175,1,0,0:0:0:0:
117,205,105292,1,0,0:0:0:0:
192,237,105526,1,8,0:0:0:0:
228,212,105643,1,8,0:0:0:0:
268,211,105761,1,0,0:0:0:0:
285,211,105878,2,0,L|285:259,1,35
264,263,106229,1,8,0:0:0:0:
284,272,106347,1,0,0:0:0:0:
301,273,106464,2,0,B|346:275|378:273|410:239|390:173,1,140
374,148,107050,5,8,0:0:0:0:
323,159,107167,1,0,0:0:0:0:
292,149,107284,1,8,0:0:0:0:
267,161,107401,1,0,0:0:0:0:
279,177,107518,2,0,P|275:235|222:283,1,105
228,282,107987,1,2,0:0:0:0:
176,332,108222,5,12,0:0:0:0:
132,284,108456,5,0,0:0:0:0:
84,245,108573,1,0,0:0:0:0:
90,218,108690,1,8,0:0:0:0:
116,193,108808,1,8,0:0:0:0:
181,195,108925,2,0,P|225:163|210:132,1,70
199,140,109276,1,0,0:0:0:0:
174,114,109393,1,8,0:0:0:0:
228,128,109511,6,0,P|248:100|280:128,1,70
306,82,109862,1,2,0:0:0:0:
264,48,109979,2,0,B|232:80|192:32|192:32|184:56,1,105
112,47,110448,1,0,0:0:0:0:
132,88,110800,5,0,0:0:0:0:
88,136,110917,1,0,0:0:0:0:
184,136,111034,1,0,0:0:0:0:
195,188,111151,5,0,0:0:0:0:
111,191,111268,5,0,0:0:0:0:
134,215,111386,1,0,0:0:0:0:
122,234,111503,1,0,0:0:0:0:
145,242,111620,1,0,0:0:0:0:
143,295,111737,6,0,L|245:295,1,70
239,295,112089,1,8,0:0:0:0:
268,288,112206,2,6,L|335:234,1,70
360,188,112558,5,4,0:0:0:0:
447,267,113026,5,0,0:0:0:0:
442,189,113143,2,0,L|442:116,2,70
442,196,113729,1,8,0:0:0:0:
458,298,113847,2,0,L|419:298,1,35
312,284,114081,2,0,B|272:263|237:253|237:253|261:206,1,105
340,126,114550,2,8,P|326:85|274:84,1,70
252,68,114901,1,0,0:0:0:0:
226,29,115018,5,0,0:0:0:0:
195,74,115136,2,8,L|123:74,1,70
63,97,115487,2,8,L|123:170,1,70
151,202,115839,1,0,0:0:0:0:
104,252,115956,2,0,P|88:288|48:292,1,70
50,348,116308,6,0,L|116:337,1,35
151,322,116542,1,8,0:0:0:0:
194,277,116659,1,8,0:0:0:0:
259,321,116776,5,8,0:0:0:0:
288,299,116893,2,8,B|287:251|287:251|327:237|327:237|328:280,1,105
377,311,117362,1,0,0:0:0:0:
451,204,117479,2,0,B|442:153|424:122|387:104,1,105
306,79,117948,5,2,0:0:0:0:
184,37,118183,5,0,0:0:0:0:
112,130,118417,2,0,B|88:169|92:204|112:236|169:260,1,140
231,272,119003,1,8,0:0:0:0:
198,268,119120,1,8,0:0:0:0:
320,270,119237,5,0,0:0:0:0:
319,188,119472,5,0,0:0:0:0:
319,188,119589,1,0,0:0:0:0:
366,140,119706,1,8,0:0:0:0:
321,93,119823,1,0,0:0:0:0:
303,23,119940,6,0,L|242:23,1,35
221,30,120175,1,0,0:0:0:0:
192,50,120292,2,0,L|191:142,1,70
191,184,120643,5,0,0:0:0:0:
226,192,120761,2,0,P|240:206|259:198,1,35,8|0,0:0|0:0,0:0:0:0:
317,161,120995,1,0,0:0:0:0:
299,88,121112,6,0,L|203:86,1,70
214,59,121464,1,8,0:0:0:0:
226,52,121581,1,2,0:0:0:0:
302,43,121698,2,0,P|346:72|340:115,1,70
332,121,122050,2,0,B|291:190|285:231|312:273,1,140
330,301,122636,5,8,0:0:0:0:
326,350,122753,2,0,L|241:350,1,70
192,310,123104,1,8,0:0:0:0:
203,231,123222,5,8,0:0:0:0:
203,231,123339,1,8,0:0:0:0:
164,173,123456,2,0,P|168:110|222:83,1,105
281,87,123925,2,0,P|316:118|291:176,1,105
249,214,124393,5,0,0:0:0:0:
275,268,124511,2,8,P|311:291|357:271,1,70
411,239,124862,1,6,0:0:0:0:
475,357,124979,2,0,L|384:357,1,70
277,355,125331,1,0,0:0:0:0:
230,298,125448,2,4,P|252:274|289:298,1,70
330,314,125800,5,0,0:0:0:0:
318,369,125917,1,0,0:0:0:0:
267,327,126034,1,0,0:0:0:0:
229,368,126151,1,8,0:0:0:0:
188,351,126268,2,0,L|188:250,1,70
190,217,126620,5,0,0:0:0:0:
271,200,126737,5,8,0:0:0:0:
310,287,126854,1,8,0:0:0:0:
378,185,127089,2,8,L|314:112,1,70
283,86,127558,6,0,L|238:86,1,35
197,84,127792,1,0,0:0:0:0:
278,81,128026,5,2,0:0:0:0:
295,82,128143,1,0,0:0:0:0:
320,86,128261,2,0,P|362:123|350:145,1,70
318,194,128612,6,0,L|229:193,1,70
206,253,128964,1,8,0:0:0:0:
135,221,129081,2,2,L|135:108,1,105
129,44,129550,2,0,P|52:66|33:110,1,105
100,131,130018,1,8,0:0:0:0:
156,178,130136,2,0,L|74:264,1,105
63,274,130604,5,0,0:0:0:0:
190,269,130722,1,0,0:0:0:0:
126,351,130839,1,8,0:0:0:0:
236,348,131073,2,0,L|208:288,1,35
296,352,131308,2,0,L|304:304,1,35
361,323,131542,6,0,L|361:239,1,70
368,195,131893,1,0,0:0:0:0:
407,152,132011,1,8,0:0:0:0:
464,161,132128,2,0,P|502:199|486:260,1,105
408,336,132597,6,0,P|376:304|344:328,1,70
296,332,132948,1,0,0:0:0:0:
242,312,133065,1,0,0:0:0:0:
175,282,133183,2,4,L|175:243,1,35
252,198,133417,6,0,L|281:166,2,35
185,254,133768,2,0,P|166:257|146:236,3,35
277,275,134237,1,10,0:0:0:0:
362,256,134354,5,0,0:0:0:0:
414,191,134472,5,0,0:0:0:0:
320,144,134589,1,0,0:0:0:0:
435,77,134706,1,0,0:0:0:0:
352,8,134823,1,6,0:0:0:0:
313,54,134940,6,0,L|258:54,1,35
227,1,135175,1,0,0:0:0:0:
194,82,135292,2,0,P|151:125|122:112,1,70
46,171,135643,5,0,0:0:0:0:
55,244,135761,6,0,B|108:245|108:245|135:208,1,70
178,243,136112,1,0,0:0:0:0:
203,313,136229,2,0,P|234:337|272:328,1,70
298,244,136581,2,0,B|324:185|358:177|401:219,1,105
407,245,137050,5,8,0:0:0:0:
432,278,137167,2,8,L|488:229,1,70
503,180,137518,1,0,0:0:0:0:
482,172,137636,2,8,L|417:164,1,35
397,152,137870,2,0,B|369:123|331:110|312:112,1,70
262,95,138222,5,8,0:0:0:0:
259,191,138339,5,14,0:0:0:0:
