osu file format v14

[General]
AudioFilename: audio.mp3
AudioLeadIn: 0
PreviewTime: 111791
Countdown: 0
SampleSet: Normal
StackLeniency: 0.4
Mode: 0
LetterboxInBreaks: 0
SkinPreference:Crystal gem
CountdownOffset: 1
WidescreenStoryboard: 1

[Editor]
DistanceSpacing: 0.8
BeatDivisor: 4
GridSize: 4
TimelineZoom: 1

[Metadata]
Title:Something Entirely New
TitleUnicode:Something Entirely New
Artist:Nokae feat. Adriana Figueroa & Miku-Tan
ArtistUnicode:Nokae
Creator:Landwii
Version:Hard Sapphire
Source:Steven Universe
Tags:aivi & surasshu, the Answer, ruby, sapphire
BeatmapID:1039359
BeatmapSetID:487515

[Difficulty]
HPDrainRate:6
CircleSize:3.8
OverallDifficulty:4.8
ApproachRate:6
SliderMultiplier:1.4
SliderTickRate:1

[Events]
//Background and Video events
0,0,"Newbackground2.jpg",0,0
//Break Periods
2,81234,88846
//Storyboard Layer 0 (Background)
//Storyboard Layer 1 (Fail)
//Storyboard Layer 2 (Pass)
//Storyboard Layer 3 (Foreground)
//Storyboard Sound Samples

[TimingPoints]
58,468.75,4,1,0,100,1,0
30058,-100,4,1,0,100,0,1
45058,-100,4,1,0,100,0,0
112558,-100,4,1,0,100,0,1
138339,-100,4,1,0,100,0,0

[Colours]
Combo1 : 114,114,114
Combo2 : 213,0,0
Combo3 : 114,114,252
Combo4 : 113,1,150

[HitObjects]
68,64,14120,5,8,0:0:0:0:
137,63,14354,1,8,0:0:0:0:
203,63,14589,1,0,0:0:0:0:
258,63,14940,2,0,P|354:63|322:127,1,175
289,188,15878,6,8,P|220:205|220:205,1,70
209,224,16229,1,0,0:0:0:0:
251,260,16464,1,0,0:0:0:0:
267,313,16698,2,0,B|203:345|171:249|107:345,1,175
26,333,17636,5,0,0:0:0:0:
93,307,17870,1,0,0:0:0:0:
47,265,18104,1,8,0:0:0:0:
111,239,18339,2,0,L|188:221,1,70
277,183,18808,2,0,P|236:106|202:122,1,140
164,159,19511,5,0,0:0:0:0:
75,154,19745,1,8,0:0:0:0:
118,224,19979,1,8,0:0:0:0:
162,288,20448,2,0,L|251:342,1,105
340,344,21151,5,8,0:0:0:0:
290,285,21386,1,8,0:0:0:0:
339,239,21620,2,8,L|469:216,1,105
440,147,22089,1,0,0:0:0:0:
428,65,22558,2,8,L|328:49,1,70
292,78,23026,5,8,0:0:0:0:
339,164,23261,1,8,0:0:0:0:
317,249,23495,2,8,L|186:236,1,105
175,236,23964,1,0,0:0:0:0:
100,230,24198,2,0,B|-49:183|201:161|-29:123|105:71,1,210
194,57,25136,5,0,0:0:0:0:
217,62,25370,2,0,P|257:62|285:28,1,70
363,65,25839,1,8,0:0:0:0:
458,98,26073,2,0,P|456:137|424:166,2,70
418,32,26776,5,0,0:0:0:0:
366,78,27128,2,0,P|331:170|225:201,1,210
153,206,27948,1,4,0:0:0:0:
256,192,28183,12,0,30058,0:0:0:0:
75,50,30995,5,0,0:0:0:0:
129,63,31229,2,2,B|161:95|161:95|193:63|193:63|225:95|225:95|257:63,1,175
277,43,31933,1,0,0:0:0:0:
326,88,32167,1,0,0:0:0:0:
373,206,32870,6,0,B|319:192|290:221|287:261,1,105
253,245,33339,2,0,B|267:191|238:162|198:159,1,105
135,96,34511,5,0,0:0:0:0:
80,31,34979,2,0,L|-15:53,1,70
6,132,35448,1,12,0:0:0:0:
78,212,35683,6,0,L|186:262,1,105
225,287,36268,2,0,B|280:296|280:296|268:341|290:374,1,105
369,301,37089,1,8,0:0:0:0:
397,332,37558,6,0,P|447:360|461:300,1,105
466,260,38143,2,0,L|428:225,1,35
374,178,38495,1,0,0:0:0:0:
321,146,38729,2,2,B|289:114|289:114|321:82|321:82|289:50|289:50|321:18,1,175
362,85,39433,2,0,L|202:117,1,140
114,112,40370,6,0,P|91:149|122:192,1,70
148,186,40722,2,0,P|171:223|140:266,1,70
108,332,41542,1,0,0:0:0:0:
196,273,42011,6,0,L|280:242,2,70
110,315,42831,1,6,0:0:0:0:
256,192,42948,12,0,44589,0:0:0:0:
192,92,45058,5,0,0:0:0:0:
288,92,45409,1,0,0:0:0:0:
240,176,45761,1,8,0:0:0:0:
240,176,46933,6,0,P|240:272|272:336,1,140
336,360,47636,1,2,0:0:0:0:
311,244,49159,5,8,0:0:0:0:
299,269,49276,1,8,0:0:0:0:
256,320,49745,2,0,P|174:343|118:294,1,140
128,234,50448,2,8,L|128:138,2,70
95,89,52440,6,0,B|148:15|167:154|270:116,1,175
352,96,53261,1,6,0:0:0:0:
416,64,54315,2,0,P|416:160|384:224,1,140
359,273,55136,1,8,0:0:0:0:
116,302,56659,5,0,0:0:0:0:
139,286,56776,1,8,0:0:0:0:
190,229,57011,1,0,0:0:0:0:
78,240,57245,1,8,0:0:0:0:
53,159,57597,1,0,0:0:0:0:
122,92,57831,2,8,L|214:129,1,70
212,124,58183,2,8,L|304:87,1,70
352,64,58886,5,0,0:0:0:0:
472,130,59354,1,0,0:0:0:0:
367,171,59823,1,0,0:0:0:0:
472,240,60175,1,0,0:0:0:0:
406,294,60526,5,8,0:0:0:0:
312,236,60761,1,8,0:0:0:0:
288,256,60995,2,0,P|224:256|192:224,1,105
188,174,61581,2,0,L|220:46,1,105
297,96,62167,5,8,0:0:0:0:
133,95,62636,1,8,0:0:0:0:
177,159,62987,2,0,L|273:287,1,140
436,183,64276,5,8,0:0:0:0:
422,237,64511,1,8,0:0:0:0:
350,250,64745,2,0,L|286:314,1,70
250,325,65214,1,8,0:0:0:0:
149,323,65448,1,0,0:0:0:0:
86,283,65683,1,0,0:0:0:0:
72,224,65917,1,0,0:0:0:0:
127,213,66268,5,2,0:0:0:0:
127,213,66854,1,0,0:0:0:0:
256,256,67323,1,0,0:0:0:0:
256,256,67792,1,8,0:0:0:0:
305,195,68026,5,0,0:0:0:0:
417,193,68495,2,0,L|513:193,2,70
284,188,69198,6,0,P|317:132|297:68,1,105
252,124,69667,2,0,P|308:157|372:137,1,105
428,96,70604,1,0,0:0:0:0:
384,8,71073,5,0,0:0:0:0:
288,64,71659,5,8,0:0:0:0:
260,64,71776,1,8,0:0:0:0:
195,60,72011,2,0,P|148:66|119:27,1,70
66,71,72479,1,8,0:0:0:0:
41,144,72714,1,0,0:0:0:0:
71,246,72948,1,2,0:0:0:0:
144,320,73417,2,0,B|136:272|184:312|232:320|236:288|160:268|128:224|196:216,1,175
228,188,74120,5,8,0:0:0:0:
320,104,74354,1,0,0:0:0:0:
320,249,74589,1,8,0:0:0:0:
416,192,74940,2,0,P|416:64|352:32,1,210
252,33,75995,5,8,0:0:0:0:
136,104,76229,1,8,0:0:0:0:
252,152,76464,1,0,0:0:0:0:
272,224,76698,2,0,L|135:238,1,105
48,248,77636,5,0,0:0:0:0:
133,354,78104,1,0,0:0:0:0:
224,316,78456,2,0,B|216:260|268:232|312:260,1,105
423,105,79511,5,0,0:0:0:0:
352,200,79979,1,8,0:0:0:0:
280,112,80448,1,8,0:0:0:0:
352,108,80683,2,0,B|359:57|307:29|291:46,1,105
257,216,90058,5,0,0:0:0:0:
314,233,90175,6,0,B|410:265|410:169|314:169,1,175
263,156,90995,6,8,L|263:28,1,105
247,27,91464,1,0,0:0:0:0:
163,33,91815,2,8,L|163:161,1,105
173,224,92518,2,0,B|193:246|279:318|254:201,1,140
259,154,93339,2,0,P|326:154|376:206,1,140
256,192,94862,12,0,97089,0:0:0:0:
85,64,97558,6,0,P|121:66|153:38,1,70
180,62,97909,2,0,P|213:38|252:74,1,70
396,22,98729,1,0,0:0:0:0:
383,47,98847,2,10,P|447:79|415:175,1,175
358,232,99667,1,0,0:0:0:0:
243,292,100253,5,0,0:0:0:0:
168,304,100370,2,10,P|104:272|136:176,1,175
138,148,101073,2,0,B|62:119|62:119|54:117,1,70
95,40,101893,5,0,0:0:0:0:
196,44,102479,2,10,P|260:76|228:172,1,175
178,215,103417,5,0,0:0:0:0:
220,320,103651,2,8,L|320:320,1,70
388,320,104354,1,0,0:0:0:0:
416,288,104589,2,10,P|480:256|448:160,1,175
307,99,105526,5,8,0:0:0:0:
156,124,105995,2,10,P|92:156|124:252,1,175
195,329,107050,6,0,L|292:336,1,70
271,301,107401,2,0,L|360:292,1,70
383,337,107870,2,10,P|447:305|415:209,1,175
256,192,108690,12,0,111972,0:0:0:0:
148,60,112558,5,0,0:0:0:0:
240,24,113026,1,8,0:0:0:0:
333,63,113495,2,0,L|333:159,1,70
335,181,113964,1,8,0:0:0:0:
333,236,114081,2,0,P|267:231|219:262,1,105
183,199,114667,2,0,P|119:327|311:295,1,420
308,142,116776,6,0,L|304:13,1,105
344,32,117245,1,8,0:0:0:0:
376,88,117479,2,0,P|386:136|365:184,1,70
368,228,117948,1,0,0:0:0:0:
304,208,118183,2,0,P|314:160|293:112,1,70
256,92,118534,1,0,0:0:0:0:
183,110,118768,1,8,0:0:0:0:
128,144,119354,6,0,P|148:163|175:155,1,35
184,200,119589,2,0,P|164:219|137:211,1,35
102,307,120058,5,0,0:0:0:0:
208,341,120526,1,0,0:0:0:0:
292,276,120995,2,0,L|292:180,1,70
296,144,121464,1,0,0:0:0:0:
344,136,121933,2,0,P|349:70|318:22,1,105
215,60,122636,5,0,0:0:0:0:
131,56,122987,6,8,L|54:107,1,70
75,122,123339,2,0,B|40:180|56:232|132:246,1,140
195,304,124159,1,0,0:0:0:0:
336,316,124745,6,0,P|357:263|336:210,1,105
291,164,125448,1,8,0:0:0:0:
215,139,125683,2,0,P|194:86|215:33,1,105
294,60,126386,1,8,0:0:0:0:
379,107,126620,6,0,L|443:171,1,70
340,210,127089,1,8,0:0:0:0:
432,268,127323,1,0,0:0:0:0:
340,332,127558,1,8,0:0:0:0:
250,360,128026,5,0,0:0:0:0:
116,308,128495,2,0,L|116:212,1,70
155,209,128964,2,0,L|156:59,1,140
208,3,129784,2,8,P|262:28|272:99,1,105
278,128,130253,2,0,L|112:128,1,140
54,111,130956,1,8,0:0:0:0:
123,70,131308,6,0,L|251:70,1,105
282,81,131893,2,0,P|305:115|359:108,1,70
324,144,132362,2,0,P|358:167|351:221,1,70
312,256,132831,1,0,0:0:0:0:
240,308,133183,6,0,P|217:342|163:335,1,70
80,316,133651,1,0,0:0:0:0:
124,228,133886,1,8,0:0:0:0:
199,206,134237,5,0,0:0:0:0:
217,185,134354,1,0,0:0:0:0:
243,194,134472,1,0,0:0:0:0:
268,182,134589,2,0,L|300:118,1,70
307,63,135058,5,8,0:0:0:0:
180,64,135526,1,8,0:0:0:0:
72,124,135995,6,0,L|81:220,1,70
112,237,136464,2,0,L|208:228,1,70
217,188,136933,6,0,L|217:60,1,105
218,55,137401,1,8,0:0:0:0:
270,72,137518,1,0,0:0:0:0:
277,108,137636,2,0,B|308:138|294:168|259:178|285:228,1,105
272,288,138339,6,4,P|204:329|180:256,1,175
