osu file format v14

[General]
AudioFilename: audio.mp3
AudioLeadIn: 0
PreviewTime: 111791
Countdown: 0
SampleSet: Normal
StackLeniency: 0.4
Mode: 0
LetterboxInBreaks: 0
SkinPreference:Crystal gem
WidescreenStoryboard: 1

[Editor]
DistanceSpacing: 0.8
BeatDivisor: 3
GridSize: 32
TimelineZoom: 1

[Metadata]
Title:Something Entirely New
TitleUnicode:Something Entirely New
Artist:Nokae feat. Adriana Figueroa & Miku-Tan
ArtistUnicode:Nokae
Creator:Landwii
Version:Easy Ruby
Source:Steven Universe
Tags:aivi & surasshu, the Answer, ruby, sapphire
BeatmapID:1039358
BeatmapSetID:487515

[Difficulty]
HPDrainRate:1.8
CircleSize:2.2
OverallDifficulty:0.7
ApproachRate:1.6
SliderMultiplier:1.4
SliderTickRate:1

[Events]
//Background and Video events
0,0,"buby_and_sapphire_by_ssstawa-d8ljo70.png",0,0
//Break Periods
2,42601,55013
2,81350,95951
//Storyboard Layer 0 (Background)
//Storyboard Layer 1 (Fail)
//Storyboard Layer 2 (Pass)
//Storyboard Layer 3 (Foreground)
//Storyboard Sound Samples

[TimingPoints]
58,468.75,4,1,0,100,1,0
30058,-100,4,1,0,100,0,1
45058,-100,4,1,0,100,0,0
112558,-90.9090909090909,4,1,0,100,0,1
138339,-100,4,1,0,100,0,0

[Colours]
Combo1 : 92,5,1
Combo2 : 213,0,0
Combo3 : 57,57,251
Combo4 : 194,239,226

[HitObjects]
256,192,1933,5,0,0:0:0:0:
160,128,3808,1,0,0:0:0:0:
352,128,5683,1,0,0:0:0:0:
352,288,7558,1,0,0:0:0:0:
192,288,9433,1,0,0:0:0:0:
256,192,11308,1,0,0:0:0:0:
256,192,13183,1,0,0:0:0:0:
128,96,14120,6,8,B|320:96|320:96|320:192|217:191,1,350
133,213,15839,2,8,B|165:309|317:284|317:284|353:350,1,280
450,323,17558,6,0,L|529:216,1,105
472,144,18339,2,0,L|384:36,1,140
269,7,19433,6,0,P|203:73|341:189,1,315
357,235,22089,6,8,P|293:267|207:241,1,140
139,146,23183,5,0,0:0:0:0:
236,168,23964,2,8,P|336:203|336:203,1,93.3333333333333
388,188,25058,6,0,P|456:132|500:212,1,140
376,200,26933,2,4,B|202:215|290:326|290:326|231:349|161:342|161:342|153:380,1,385
260,252,29120,6,0,L|321:287,1,70
217,234,29589,2,0,L|156:199,1,70
128,248,30058,6,8,L|278:319,1,140
360,344,30995,1,0,0:0:0:0:
300,248,31464,1,0,0:0:0:0:
355,153,31933,2,8,P|419:153|483:185,1,105
464,259,32870,6,0,L|528:259,1,46.6666666666667
512,280,33339,2,8,B|477:356|477:356|373:352,1,175
289,331,35058,5,0,0:0:0:0:
217,287,35370,1,0,0:0:0:0:
252,243,35683,2,8,L|316:147,1,105
342,109,36308,2,0,P|438:141|342:237,1,280
272,188,37558,6,8,P|208:188|144:220,1,105
160,328,38651,2,0,B|224:392|224:392|288:360|288:296,1,210
336,212,40214,6,8,L|442:308,2,140
276,161,41464,2,0,B|187:121|102:126|19:188|15:219,1,280
252,97,56620,6,0,P|348:129|316:257,1,245
253,290,57870,2,0,L|157:290,2,70
208,181,60526,5,0,0:0:0:0:
247,141,60683,1,0,0:0:0:0:
348,213,61464,2,8,L|316:335,1,93.3333333333333
241,346,62089,5,0,0:0:0:0:
207,268,62558,1,0,0:0:0:0:
154,180,63026,2,0,P|90:180|90:116,1,140
239,42,64120,2,8,P|377:51|335:106,1,280
307,132,65370,2,8,L|217:171,1,93.3333333333333
173,261,68026,5,0,0:0:0:0:
228,250,68183,1,0,0:0:0:0:
299,294,68651,2,0,L|203:358,1,105
184,340,69120,6,0,L|120:276,1,70
136,248,69589,2,0,L|200:184,1,70
311,91,70526,2,0,P|407:91|439:123,1,140
401,297,72558,6,0,P|209:329|113:137,1,420
138,46,75058,5,0,0:0:0:0:
309,182,76620,1,0,0:0:0:0:
384,296,77401,6,0,P|192:328|96:136,1,420
100,48,79433,6,0,P|68:176|140:226,1,233.333333333333
216,152,80526,2,0,P|246:271|176:330,1,186.666666666667
255,156,97558,5,0,0:0:0:0:
128,160,98495,6,0,P|256:256|383:157,1,326.666666666667
408,107,99901,5,0,0:0:0:0:
318,83,100214,1,0,0:0:0:0:
232,115,100683,6,0,P|343:309|491:92,1,560
424,38,103339,5,0,0:0:0:0:
342,121,103808,1,0,0:0:0:0:
257,190,104276,6,0,P|257:62|428:41,1,326.666666666667
468,112,105683,5,0,0:0:0:0:
396,152,105995,6,0,P|392:301|244:319,1,326.666666666667
196,232,107089,5,0,0:0:0:0:
272,144,107558,1,0,0:0:0:0:
304,40,107870,6,0,P|176:40|155:211,1,326.666666666667
256,192,109120,12,4,111776,0:0:0:0:
118,67,113495,5,0,0:0:0:0:
206,129,113964,1,0,0:0:0:0:
274,76,114433,2,0,P|402:76|397:160,1,205.33333959961
345,266,115839,2,8,L|188:265,1,154.000004699707
124,226,116776,5,0,0:0:0:0:
220,152,117245,1,0,0:0:0:0:
220,152,118183,1,0,0:0:0:0:
324,216,119276,2,0,B|356:184|356:184|324:152|324:152|388:120|388:120|304:72,1,256.666674499512
288,80,120995,6,0,B|153:32|65:56|65:56|155:123|112:225|112:225|55:190,1,462.000014099122
32,172,122558,2,0,L|105:347,1,154.000004699707
176,364,124745,6,0,L|340:356,1,154.000004699707
320,268,125683,2,0,L|152:248,1,154.000004699707
108,133,126620,2,0,B|172:69|172:69|204:133|204:133|304:23,1,308.000009399414
415,73,128026,1,4,0:0:0:0:
422,98,128495,6,0,P|495:259|495:259,2,154.000004699707
351,33,130058,2,0,P|136:56|136:56,1,205.33333959961
92,139,131308,6,0,L|248:139,2,154.000004699707
133,196,133183,2,0,B|293:196|293:196|334:107,1,256.666674499512
391,23,134276,5,0,0:0:0:0:
269,23,135058,6,0,L|109:23,1,154.000004699707
14,93,135995,1,0,0:0:0:0:
102,179,136464,1,0,0:0:0:0:
217,221,136933,2,0,B|286:257|248:335|248:335|514:327|514:327|471:201,1,513.333348999024
