osu file format v14

[General]
AudioFilename: audio.mp3
AudioLeadIn: 0
PreviewTime: 22276
Countdown: 1
SampleSet: Normal
StackLeniency: 0.7
Mode: 0
LetterboxInBreaks: 0
WidescreenStoryboard: 0

[Editor]
Bookmarks: 101246,110511,112982
DistanceSpacing: 1.2
BeatDivisor: 4
GridSize: 8
TimelineZoom: 2.999999

[Metadata]
Title:Oni
TitleUnicode:Oni
Artist:Nokae
ArtistUnicode:Nokae
Creator:QuiescentRabbit
Version:Extra
Source:
Tags:Future Bass
BeatmapID:1403576
BeatmapSetID:663087

[Difficulty]
HPDrainRate:5
CircleSize:5
OverallDifficulty:8
ApproachRate:9.3
SliderMultiplier:2.2
SliderTickRate:1

[Events]
//Background and Video events
0,0,"Nokae Oni.jpg",0,0
//Break Periods
2,45417,55957
2,68710,78192
//Storyboard Layer 0 (Background)
//Storyboard Layer 1 (Fail)
//Storyboard Layer 2 (Pass)
//Storyboard Layer 3 (Foreground)
//Storyboard Sound Samples

[TimingPoints]
394,352.941176470588,4,1,0,20,1,0
5688,-200,4,1,0,20,0,0
6393,-100,4,1,0,20,0,0
10276,-100,4,1,0,25,0,0
10364,-100,4,1,0,30,0,0
10452,-100,4,1,0,35,0,0
10541,-100,4,1,0,40,0,0
10629,-100,4,1,0,45,0,0
10717,-100,4,1,0,55,0,0
10805,-100,4,1,0,60,0,0
10893,-100,4,1,0,65,0,0
10982,-100,4,1,0,70,0,0
11070,-100,4,1,0,75,0,0
11158,-100,4,1,0,80,0,0
11246,-100,4,1,0,85,0,0
11335,-100,4,1,0,90,0,0
11511,-100,4,1,0,70,0,0
11599,-100,4,1,0,65,0,0
11688,-100,4,1,0,60,0,0
11776,-100,4,1,0,55,0,0
11864,-100,4,1,0,50,0,0
11952,-100,4,1,0,45,0,0
12041,-100,4,1,0,40,0,0
12129,-100,4,1,0,35,0,0
12217,-100,4,1,0,30,0,0
18835,-100,4,1,0,70,0,0
22276,-800,4,1,0,70,0,0
22629,-80,4,1,0,70,0,1
24570,-66.6666666666667,4,1,0,70,0,1
24746,-80,4,1,0,70,0,1
27393,-66.6666666666667,4,1,0,70,0,1
27570,-80,4,1,0,70,0,1
33570,-200,4,1,0,70,0,1
34099,-83.3333333333333,4,1,0,70,0,1
45217,-83.3333333333333,4,1,0,70,0,0
61011,-200,4,1,0,70,0,0
66217,-125,4,1,0,50,0,0
67011,-100,4,1,0,90,0,0
67805,-125,4,1,0,30,0,0
78746,-125,4,1,0,70,0,0
90041,-800,4,1,0,70,0,0
90393,-71.4285714285714,4,1,0,70,0,1
93570,-60.6060606060606,4,1,0,70,0,1
93923,-71.4285714285714,4,1,0,70,0,1
101335,-200,4,1,0,70,0,1
101688,-71.4285714285714,4,1,0,70,0,1
110070,-142.857142857143,4,1,0,70,0,0
112982,-142.857142857143,4,1,0,5,0,0

[HitObjects]
169,349,746,6,0,P|124:336|108:316,1,55
163,287,1099,1,0,0:0:0:0:
264,324,1276,1,0,0:0:0:0:
372,360,1452,1,0,0:0:0:0:
432,212,1629,1,4,0:0:0:0:
496,224,1805,6,0,P|494:193|476:164,1,55
368,224,2158,2,0,P|370:193|388:164,1,55
160,384,2511,6,0,P|160:352|176:320,1,55
352,304,2864,6,0,P|352:272|336:240,1,55
176,224,3217,6,0,P|176:192|192:160,1,55
352,144,3570,6,0,P|352:112|336:80,1,55
130,269,3923,5,0,0:0:0:0:
256,272,4099,1,0,0:0:0:0:
382,269,4276,1,0,0:0:0:0:
424,152,4452,1,4,0:0:0:0:
416,88,4629,6,0,P|448:91|488:136,1,55
384,160,4982,6,0,P|416:163|456:208,1,55
360,232,5335,6,0,P|392:235|432:280,1,55
256,192,5688,12,0,6393,0:0:0:0:
56,344,6746,5,0,0:0:0:0:
56,230,6923,1,0,0:0:0:0:
56,113,7099,1,0,0:0:0:0:
224,112,7275,1,0,0:0:0:0:
255,168,7452,6,0,P|224:176|196:168,1,55
254,57,7805,6,0,P|223:49|195:57,1,55
227,262,8158,5,0,0:0:0:0:
227,113,8511,1,0,0:0:0:0:
375,113,8864,1,0,0:0:0:0:
375,262,9217,1,0,0:0:0:0:
160,280,9570,2,0,L|197:215,1,55
216,176,9746,1,0,0:0:0:0:
56,264,9923,2,0,L|93:199,1,55
112,160,10099,1,0,0:0:0:0:
108,52,10276,5,2,0:0:0:0:
160,36,10364,1,2,0:0:0:0:
214,42,10452,1,2,0:0:0:0:
263,68,10540,1,2,0:0:0:0:
298,109,10628,1,2,0:0:0:0:
315,161,10717,1,2,0:0:0:0:
312,216,10805,1,2,0:0:0:0:
288,265,10893,1,2,0:0:0:0:
248,302,10981,1,2,0:0:0:0:
197,321,11070,1,2,0:0:0:0:
142,320,11158,1,2,0:0:0:0:
92,298,11246,1,2,0:0:0:0:
48,264,11335,6,8,L|40:192,1,55,8|0,0:0|0:0,0:0:0:0:
52,156,11511,1,2,0:0:0:0:
74,106,11600,1,2,0:0:0:0:
114,68,11688,1,2,0:0:0:0:
165,48,11776,1,2,0:0:0:0:
216,40,11864,1,2,0:0:0:0:
269,49,11953,1,2,0:0:0:0:
316,79,12041,1,2,0:0:0:0:
352,116,12129,1,2,0:0:0:0:
383,160,12217,1,2,0:0:0:0:
446,179,12393,6,0,P|399:224|324:192,1,110
238,130,12746,1,0,0:0:0:0:
238,228,12923,1,0,0:0:0:0:
289,273,13099,6,0,P|239:296|181:261,1,110
103,197,13452,2,0,L|154:155,1,55
339,147,13805,6,0,P|327:187|351:255,1,110
393,195,14158,1,0,0:0:0:0:
397,294,14511,6,0,P|337:313|289:282,1,110
269,211,14864,2,0,L|214:241,1,55
136,276,15217,6,0,P|161:305|205:297,1,55
256,280,15393,2,0,L|216:232,1,55
176,180,15570,1,0,0:0:0:0:
152,96,15746,2,0,L|229:54,1,55
271,57,15923,2,0,P|310:70|338:106,1,55
418,167,16276,5,0,0:0:0:0:
469,210,16452,2,0,P|446:231|416:234,1,55
346,232,16629,1,0,0:0:0:0:
276,136,16805,1,0,0:0:0:0:
109,231,16982,1,4,0:0:0:0:
230,192,17335,6,0,P|160:185|130:136,1,110
199,132,17688,1,0,0:0:0:0:
256,72,17952,2,0,P|315:72|331:72,1,55
347,20,18217,2,0,P|378:82|346:131,1,110
309,192,18570,2,0,P|282:158|295:104,2,55
28,133,19099,5,8,0:0:0:0:
73,34,19276,1,0,0:0:0:0:
121,176,19452,1,8,0:0:0:0:
158,35,19629,1,0,0:0:0:0:
205,226,19805,2,0,L|205:303,1,55
163,334,19982,6,0,P|217:348|260:332,1,55
374,350,20158,1,0,0:0:0:0:
286,255,20335,1,0,0:0:0:0:
286,255,20423,1,0,0:0:0:0:
286,255,20511,1,0,0:0:0:0:
134,118,20776,1,0,0:0:0:0:
50,61,21041,6,0,P|160:203|250:151,1,275
279,131,21570,1,0,0:0:0:0:
326,157,21658,1,0,0:0:0:0:
353,204,21746,1,0,0:0:0:0:
352,259,21834,1,0,0:0:0:0:
323,305,21922,1,0,0:0:0:0:
275,330,22011,1,0,0:0:0:0:
221,327,22099,1,0,0:0:0:0:
176,296,22187,1,0,0:0:0:0:
137,259,22276,6,0,L|121:238,1,20.625
90,172,22629,6,0,B|30:161|30:161|180:141|180:141,1,206.25
289,128,22982,2,0,P|324:169|329:202,1,68.75
203,230,23158,2,0,L|275:181,1,68.75
368,115,23335,1,0,0:0:0:0:
187,68,23511,5,0,0:0:0:0:
142,77,23599,2,0,P|93:126|111:201,1,137.5
157,149,23864,1,0,0:0:0:0:
154,262,24041,2,0,P|213:311|261:298,1,68.75
310,268,24217,1,0,0:0:0:0:
99,156,24393,1,0,0:0:0:0:
241,80,24570,6,0,L|286:156,1,82.5000031471254
319,230,24746,2,0,L|241:208,1,68.75
154,188,24923,2,0,B|155:121|155:121|89:285,1,206.25
189,346,25276,1,0,0:0:0:0:
293,233,25364,2,0,B|454:233|454:233|340:193|344:193,1,275
264,156,25805,5,0,0:0:0:0:
208,148,25893,1,0,0:0:0:0:
156,168,25981,1,0,0:0:0:0:
104,220,26158,6,0,P|104:284|116:300,1,68.75
132,328,26335,1,0,0:0:0:0:
184,340,26423,1,0,0:0:0:0:
240,340,26511,2,0,B|291:325|291:325|281:303,1,68.75
237,225,26688,2,0,L|201:110,1,68.75
329,131,26864,1,0,0:0:0:0:
48,85,27041,5,0,0:0:0:0:
93,222,27217,1,0,0:0:0:0:
184,100,27393,6,0,P|210:148|254:167,1,82.5000031471254
320,188,27570,2,0,B|354:126|354:126|328:283,1,206.25
253,331,27923,2,0,B|213:249|213:249|176:324|61:245,1,206.25
101,342,28276,2,0,P|45:277|125:207,1,206.25
181,210,28629,6,0,P|158:158|116:147,1,68.75
117,46,28805,1,0,0:0:0:0:
117,46,28893,1,0,0:0:0:0:
117,46,28982,2,0,B|99:22|99:22|221:83,1,137.5
284,115,29246,6,0,B|255:209|255:209|311:168,1,137.5
364,135,29511,2,0,P|430:132|443:255,1,206.25
363,302,29864,1,0,0:0:0:0:
401,197,30041,2,0,B|343:239|304:183|304:183|198:205,1,206.25
44,257,30393,1,0,0:0:0:0:
26,181,30570,2,0,B|7:108|7:108|101:181|148:47,1,206.25
65,70,30923,5,0,0:0:0:0:
257,73,31099,2,0,B|325:143|300:217|300:217|224:173,1,206.25
211,147,31452,2,0,P|194:219|223:262,1,68.75
199,285,31629,5,0,0:0:0:0:
199,285,31717,1,0,0:0:0:0:
199,285,31805,2,0,B|301:300|301:300|260:332,1,137.5
356,252,32070,2,0,P|405:198|376:123,1,137.5
339,182,32335,2,0,B|320:135|257:175|257:175|227:126|227:126|160:156,1,206.25
99,177,32688,5,0,0:0:0:0:
100,113,32864,2,0,P|38:159|83:240,1,137.5
117,312,33217,1,0,0:0:0:0:
267,59,33570,6,0,L|353:71,1,82.5
464,85,33923,1,0,0:0:0:0:
453,210,34099,2,0,B|415:266|362:227|353:228|353:228|359:237|392:286|307:326,1,197.99999395752
231,324,34452,5,0,0:0:0:0:
231,324,34541,1,0,0:0:0:0:
231,324,34629,2,0,B|228:223|228:223|173:259,1,131.99999597168
162,301,34893,2,0,P|133:255|206:168,1,131.99999597168
230,132,35158,2,0,B|343:182|343:182|280:102,1,197.99999395752
261,70,35511,5,0,0:0:0:0:
188,180,35688,1,0,0:0:0:0:
108,296,35864,1,0,0:0:0:0:
149,308,35952,1,0,0:0:0:0:
186,317,36041,2,0,P|261:306|290:276,1,65.9999979858399
347,279,36217,1,0,0:0:0:0:
437,221,36393,6,0,P|432:171|391:132,1,65.9999979858399
336,81,36570,1,0,0:0:0:0:
272,157,36746,2,0,P|208:215|108:173,1,197.99999395752
189,142,37099,2,0,L|185:68,1,65.9999979858399
180,0,37276,1,0,0:0:0:0:
99,118,37452,1,0,0:0:0:0:
165,255,37629,1,0,0:0:0:0:
231,64,37805,1,0,0:0:0:0:
281,299,37982,1,0,0:0:0:0:
303,359,38158,6,0,P|344:306|326:260,1,65.9999979858399
336,231,38335,1,0,0:0:0:0:
256,114,38511,1,0,0:0:0:0:
216,236,38688,2,0,L|120:260,1,65.9999979858399
136,180,38864,2,0,P|80:232|144:324,1,197.99999395752
216,340,39217,5,0,0:0:0:0:
353,213,39393,1,0,0:0:0:0:
224,200,39570,2,0,B|205:275|205:275|187:101,1,197.99999395752
130,155,39923,2,0,P|172:95|207:97,1,65.9999979858399
268,105,40099,5,0,0:0:0:0:
268,105,40188,1,0,0:0:0:0:
268,105,40276,2,0,B|368:70|368:70|369:114,1,131.99999597168
328,150,40541,2,0,B|392:180|429:132|429:132|466:182,1,131.99999597168
469,209,40805,2,0,L|276:324,1,197.99999395752
201,240,41246,1,0,0:0:0:0:
105,165,41335,2,0,B|169:213|207:152|207:152|295:131|295:131,1,197.99999395752
370,113,41688,5,0,0:0:0:0:
258,228,41864,1,0,0:0:0:0:
433,195,42041,2,0,L|356:208,1,65.9999979858399
392,302,42217,1,0,0:0:0:0:
277,330,42393,1,0,0:0:0:0:
255,235,42570,1,0,0:0:0:0:
233,142,42746,2,0,L|115:176,1,65.9999979858399
143,224,42923,5,0,0:0:0:0:
143,224,43011,1,0,0:0:0:0:
143,224,43099,2,0,P|104:146|167:93,1,131.99999597168
64,83,43364,2,0,P|116:49|192:107,1,131.99999597168
235,156,43629,2,0,B|324:260|324:260|310:176,1,197.99999395752
306,123,43982,1,0,0:0:0:0:
326,349,44158,2,0,B|281:367|224:254|224:254|150:263,1,197.99999395752
146,323,44511,2,0,P|109:263|206:195,1,197.99999395752
326,195,44864,2,0,P|363:135|266:68,1,197.99999395752
291,132,45217,5,2,0:0:0:0:
404,292,56511,5,0,0:0:0:0:
276,68,56864,5,0,0:0:0:0:
200,192,57041,1,0,0:0:0:0:
132,72,57217,1,0,0:0:0:0:
344,192,57570,5,0,0:0:0:0:
276,344,57746,1,0,0:0:0:0:
228,188,57923,1,0,0:0:0:0:
368,288,58099,1,0,0:0:0:0:
180,272,58276,1,0,0:0:0:0:
60,44,58629,5,0,0:0:0:0:
496,224,58982,5,0,0:0:0:0:
64,328,59335,5,0,0:0:0:0:
256,48,59688,5,0,0:0:0:0:
420,348,60041,5,0,0:0:0:0:
128,192,60393,5,0,0:0:0:0:
300,244,60570,1,0,0:0:0:0:
184,108,60746,1,0,0:0:0:0:
200,284,60923,1,0,0:0:0:0:
512,384,61099,6,2,L|512:296,1,82.5,2|0,0:0|0:0,0:0:0:0:
344,272,61452,6,2,L|344:188,1,82.5,2|0,0:0|0:0,0:0:0:0:
144,184,61805,6,2,L|144:88,1,82.5,2|0,0:0|0:0,0:0:0:0:
0,0,62158,6,6,L|0:104,1,82.5,6|0,0:0|0:0,0:0:0:0:
228,328,62511,5,0,0:0:0:0:
416,72,62864,5,0,0:0:0:0:
104,40,63129,5,0,0:0:0:0:
104,40,63217,1,0,0:0:0:0:
128,200,63393,1,0,0:0:0:0:
236,88,63570,1,0,0:0:0:0:
60,120,63746,1,0,0:0:0:0:
226,172,63923,1,0,0:0:0:0:
65,321,64276,5,0,0:0:0:0:
274,325,64541,5,0,0:0:0:0:
274,325,64629,1,0,0:0:0:0:
327,225,64805,1,0,0:0:0:0:
393,320,64982,1,0,0:0:0:0:
367,43,65335,5,0,0:0:0:0:
93,168,65688,5,0,0:0:0:0:
138,258,65952,2,0,L|165:313,1,55
212,375,66217,5,2,0:0:0:0:
255,380,66305,1,2,0:0:0:0:
299,375,66393,1,2,0:0:0:0:
340,361,66481,1,2,0:0:0:0:
377,337,66569,1,2,0:0:0:0:
407,305,66658,1,2,0:0:0:0:
429,267,66746,1,2,0:0:0:0:
442,225,66834,1,2,0:0:0:0:
444,181,66922,1,2,0:0:0:0:
432,136,67011,5,0,0:0:0:0:
398,92,67099,1,0,0:0:0:0:
352,62,67187,1,0,0:0:0:0:
299,50,67275,1,0,0:0:0:0:
245,57,67363,1,0,0:0:0:0:
196,81,67452,1,0,0:0:0:0:
158,121,67540,1,0,0:0:0:0:
137,172,67628,1,0,0:0:0:0:
133,226,67716,1,0,0:0:0:0:
142,267,67805,5,2,0:0:0:0:
168,300,67893,1,2,0:0:0:0:
203,328,67981,1,2,0:0:0:0:
242,347,68069,1,2,0:0:0:0:
285,356,68157,1,2,0:0:0:0:
329,355,68246,1,2,0:0:0:0:
371,344,68334,1,2,0:0:0:0:
410,323,68422,1,2,0:0:0:0:
443,293,68510,1,2,0:0:0:0:
186,308,78746,5,0,0:0:0:0:
361,90,79099,1,0,0:0:0:0:
23,126,79452,1,0,0:0:0:0:
399,307,79805,1,0,0:0:0:0:
248,23,80158,1,0,0:0:0:0:
212,307,80511,5,0,0:0:0:0:
124,165,80688,1,0,0:0:0:0:
40,306,80864,1,0,0:0:0:0:
393,66,81217,5,0,0:0:0:0:
266,354,81570,1,0,0:0:0:0:
127,46,81923,1,0,0:0:0:0:
499,207,82276,1,0,0:0:0:0:
41,309,82629,5,0,0:0:0:0:
304,32,82982,1,0,0:0:0:0:
138,104,83335,5,0,0:0:0:0:
47,261,83511,1,0,0:0:0:0:
226,261,83688,1,0,0:0:0:0:
364,36,84041,5,0,0:0:0:0:
113,322,84393,1,0,0:0:0:0:
57,56,84746,1,0,0:0:0:0:
418,315,85099,5,0,0:0:0:0:
229,314,85276,1,0,0:0:0:0:
314,163,85452,1,0,0:0:0:0:
76,71,85805,5,0,0:0:0:0:
62,241,86158,1,0,0:0:0:0:
339,294,86511,5,0,0:0:0:0:
269,112,86688,1,0,0:0:0:0:
464,176,86864,2,0,L|409:136,1,44
265,42,87217,5,0,0:0:0:0:
144,320,87570,5,0,0:0:0:0:
344,192,87746,1,0,0:0:0:0:
120,180,87923,1,0,0:0:0:0:
300,332,88099,1,0,0:0:0:0:
232,104,88276,1,0,0:0:0:0:
216,324,88452,1,0,0:0:0:0:
132,68,88629,1,0,0:0:0:0:
104,320,88805,1,0,0:0:0:0:
284,80,88982,1,0,0:0:0:0:
264,332,89158,1,0,0:0:0:0:
141,262,89335,5,0,0:0:0:0:
112,228,89423,1,0,0:0:0:0:
98,187,89511,1,0,0:0:0:0:
102,143,89599,1,0,0:0:0:0:
123,105,89687,1,0,0:0:0:0:
157,77,89776,1,0,0:0:0:0:
199,65,89864,1,0,0:0:0:0:
242,70,89952,1,0,0:0:0:0:
286,92,90041,2,0,L|303:103,1,20.625
446,201,90393,6,0,B|368:230|368:230|369:188|369:188|261:228,1,230.99999295044
283,289,90746,2,0,P|230:279|205:232,1,76.9999976501466
203,223,90923,2,0,P|245:164|308:171,1,76.9999976501466
381,139,91099,2,0,B|302:7|302:7|262:121,1,230.99999295044
309,156,91452,2,0,P|394:207|425:67,1,230.99999295044
438,54,91805,2,0,P|379:31|318:36,1,76.9999976501466
284,32,91982,5,0,0:0:0:0:
131,62,92158,2,0,P|100:137|100:178,1,76.9999976501466
104,263,92335,2,0,P|141:322|179:328,1,76.9999976501466
168,264,92511,2,0,L|230:209,1,76.9999976501466
288,156,92688,1,0,0:0:0:0:
360,88,92864,6,0,B|424:160|424:160|352:224|352:224|412:296,1,230.99999295044
452,224,93217,2,0,P|432:300|292:272,1,230.99999295044
264,239,93570,2,0,B|245:197|245:197|228:204|228:204|205:145,1,90.7500008654595
144,176,93746,2,0,B|134:204|134:204|114:196|114:196|95:246,1,90.7500008654595
28,200,93923,2,0,P|55:287|180:237,1,230.99999295044
207,204,94276,6,0,L|297:238,1,76.9999976501466
364,167,94452,2,0,L|292:140,1,76.9999976501466
364,72,94629,2,0,L|454:106,1,76.9999976501466
505,88,94805,2,0,P|463:162|413:161,1,76.9999976501466
392,207,94982,2,0,B|347:230|287:201|287:201|288:229|288:229|220:201|220:201|220:238,1,230.99999295044
216,292,95335,2,0,P|149:283|104:247,1,76.9999976501466
87,223,95511,5,0,0:0:0:0:
32,128,95688,2,0,B|179:29|179:29|224:86,1,230.99999295044
160,120,96041,2,0,P|220:144|208:6,1,230.99999295044
181,31,96393,5,0,0:0:0:0:
57,205,96570,1,0,0:0:0:0:
187,306,96746,2,0,B|253:369|253:369|273:204,1,230.99999295044
190,231,97099,2,0,P|239:155|352:237,1,230.99999295044
367,284,97452,2,0,P|424:237|421:183,1,76.9999976501466
440,156,97629,1,0,0:0:0:0:
436,64,97805,6,0,B|402:34|402:34|370:34,1,76.9999976501466
296,44,97982,2,0,B|254:58|254:58|222:58,1,76.9999976501466
135,55,98158,2,0,L|132:135,1,76.9999976501466
128,223,98335,1,0,0:0:0:0:
52,214,98511,2,0,P|116:298|209:227,1,230.99999295044
206,125,98864,1,0,0:0:0:0:
363,81,99217,5,0,0:0:0:0:
362,196,99393,2,0,B|326:248|326:248|272:252|272:252,1,76.9999976501466
289,176,99570,2,0,P|243:228|344:320,1,230.99999295044
404,320,99923,2,0,L|404:242,1,76.9999976501466
412,148,100099,2,0,P|347:131|319:143,1,76.9999976501466
281,159,100276,2,0,P|239:213|245:270,1,76.9999976501466
225,286,100452,1,0,0:0:0:0:
253,344,100629,6,0,P|194:345|165:291,1,76.9999976501466
141,275,100805,2,0,L|124:176,1,76.9999976501466
127,127,100982,1,0,0:0:0:0:
221,117,101158,2,0,L|234:197,1,76.9999976501466
252,260,101335,6,0,P|307:252|349:231,1,82.5
368,307,101688,2,0,P|405:224|271:198,1,230.99999295044
244,261,102041,6,0,L|179:198,1,76.9999976501466
139,128,102217,6,0,L|138:52,1,76.9999976501466
41,259,102393,6,0,L|106:196,1,76.9999976501466
304,316,102746,6,0,B|468:356|468:356|432:300,1,230.99999295044,4|0,0:0|0:0,0:0:0:0:
376,228,103099,5,4,0:0:0:0:
303,31,103276,1,0,0:0:0:0:
216,216,103452,1,4,0:0:0:0:
421,89,103629,1,0,0:0:0:0:
196,80,103805,1,4,0:0:0:0:
124,164,103982,5,0,0:0:0:0:
139,355,104158,1,4,0:0:0:0:
316,232,104335,1,0,0:0:0:0:
192,252,104511,1,4,0:0:0:0:
368,180,104864,6,4,L|281:154,1,76.9999976501466,12|0,0:0|0:0,0:0:0:0:
213,116,105041,6,0,L|176:49,1,76.9999976501466
192,276,105216,6,4,L|219:189,1,76.9999976501466,4|0,0:0|0:0,0:0:0:0:
384,128,105570,5,4,0:0:0:0:
256,292,105746,1,0,0:0:0:0:
480,292,105923,1,4,0:0:0:0:
200,128,106099,5,4,0:0:0:0:
348,292,106275,1,0,0:0:0:0:
104,292,106452,1,4,0:0:0:0:
288,72,106629,1,4,0:0:0:0:
206,297,106982,6,4,L|195:192,1,76.9999976501466,4|0,0:0|0:0,0:0:0:0:
218,90,107158,6,0,L|267:31,1,76.9999976501466
26,143,107334,6,0,L|130:135,1,76.9999976501466,4|0,0:0|0:0,0:0:0:0:
368,236,107688,6,0,L|358:312,1,76.9999976501466,4|0,0:0|0:0,0:0:0:0:
306,89,107864,6,0,L|355:149,1,76.9999976501466
442,181,108040,6,0,L|519:189,1,76.9999976501466,4|0,0:0|0:0,0:0:0:0:
136,312,108393,5,4,0:0:0:0:
72,66,108570,1,0,0:0:0:0:
284,239,108746,1,4,0:0:0:0:
16,206,108923,1,0,0:0:0:0:
246,85,109099,1,4,0:0:0:0:
396,216,109276,5,0,0:0:0:0:
276,348,109452,1,4,0:0:0:0:
144,220,109629,1,0,0:0:0:0:
248,24,109805,2,0,B|294:201|294:201|328:100,1,230.99999295044,4|0,0:0|0:0,0:0:0:0:
228,334,110511,6,0,L|192:308,1,38.4999988250733
150,257,110688,2,0,L|134:221,1,38.4999988250733
117,155,110864,2,0,L|111:113,1,38.4999988250733
169,41,111217,2,0,L|226:150,1,115.49999647522
276,202,111570,2,0,L|366:254,1,76.9999976501466
437,241,111923,1,0,0:0:0:0:
436,104,112099,1,0,0:0:0:0:
308,102,112276,2,0,L|222:105,1,76.9999976501466
160,123,112629,2,0,L|89:164,1,76.9999976501466
256,192,112982,12,0,118982,0:0:0:0:
