osu file format v14

[General]
AudioFilename: innocence.mp3
AudioLeadIn: 0
PreviewTime: 33049
Countdown: 0
SampleSet: Soft
StackLeniency: 0.7
Mode: 0
LetterboxInBreaks: 0
WidescreenStoryboard: 1

[Editor]
DistanceSpacing: 1.5
BeatDivisor: 6
GridSize: 8
TimelineZoom: 1.4

[Metadata]
Title:Innocence
TitleUnicode:Innocence
Artist:NoisyCell
ArtistUnicode:NoisyCell
Creator:appleeaterx
Version:Hard
Source:ばらかもん
Tags:ryo ryosuke barakamon ending tv size your hands
BeatmapID:1181880
BeatmapSetID:557231

[Difficulty]
HPDrainRate:5
CircleSize:3.7
OverallDifficulty:5.5
ApproachRate:6.5
SliderMultiplier:2
SliderTickRate:1

[Events]
//Background and Video events
0,0,"bg.jpg",0,0
Video,-2105,"innocence.avi"
//Break Periods
//Storyboard Layer 0 (Background)
//Storyboard Layer 1 (Fail)
//Storyboard Layer 2 (Pass)
//Storyboard Layer 3 (Foreground)
//Storyboard Sound Samples

[TimingPoints]
1067,689.655172413793,4,2,1,40,1,0
1067,-83.3333333333333,4,2,1,40,0,0
1239,-83.3333333333333,4,2,1,50,0,0
21066,-83.3333333333333,4,2,1,40,0,0
21239,-83.3333333333333,4,2,1,50,0,0
21584,-83.3333333333333,4,2,1,40,0,0
21756,-83.3333333333333,4,2,1,50,0,0
23135,-83.3333333333333,4,2,1,25,0,0
23308,-133.333333333333,4,2,1,35,0,0
28653,-83.3333333333333,4,2,1,45,0,0
29342,-83.3333333333333,4,2,1,50,0,0
30032,-83.3333333333333,4,2,1,52,0,0
30722,-83.3333333333333,4,2,1,40,0,0
31066,-83.3333333333333,4,2,1,52,0,0
31411,-83.3333333333333,4,2,1,52,0,0
34170,-83.3333333333333,4,2,1,63,0,1
34860,-83.3333333333333,4,2,1,47,0,1
35032,-83.3333333333333,4,2,1,63,0,1
40377,-83.3333333333333,4,2,1,47,0,1
40549,-83.3333333333333,4,2,1,63,0,1
45894,-83.3333333333333,4,2,1,47,0,1
46066,-83.3333333333333,4,2,1,63,0,1
46239,-83.3333333333333,4,2,1,37,0,1
46411,-83.3333333333333,4,2,1,63,0,1
51411,-83.3333333333333,4,2,1,47,0,1
51584,-83.3333333333333,4,2,1,63,0,1
54170,-83.3333333333333,4,2,1,47,0,1
54342,-83.3333333333333,4,2,1,63,0,1
56066,-83.3333333333333,4,2,1,63,0,0
56239,-83.3333333333333,4,2,1,63,0,1
56929,-83.3333333333333,4,2,1,47,0,1
57101,-83.3333333333333,4,2,1,63,0,1
62446,-83.3333333333333,4,2,1,47,0,1
62618,-83.3333333333333,4,2,1,63,0,1
65204,-83.3333333333333,4,2,1,47,0,1
65377,-83.3333333333333,4,2,1,63,0,1
69342,-83.3333333333333,4,2,1,47,0,1
69515,-83.3333333333333,4,2,1,63,0,1
73480,-83.3333333333333,4,2,1,47,0,1
75549,-83.3333333333333,4,2,1,55,0,0
76929,-83.3333333333333,4,2,1,40,0,0
77273,-83.3333333333333,4,2,1,55,0,0
78308,-83.3333333333333,4,2,1,63,0,1
84515,-83.3333333333333,4,2,1,47,0,1
84687,-83.3333333333333,4,2,1,63,0,1
87791,-83.3333333333333,4,2,1,35,0,0

[Colours]
Combo1 : 252,201,220
Combo2 : 252,207,141
Combo3 : 255,128,64

[HitObjects]
38,93,1067,6,0,L|159:74,1,119.999996337891,4|0,3:2|0:0,0:0:0:0:
222,22,1584,1,0,3:0:0:0:
287,73,1756,2,0,P|345:65|395:96,1,119.999996337891,8|0,0:0|0:0,0:0:0:0:
430,203,2273,1,2,3:2:0:0:
430,203,2618,1,8,0:0:0:0:
370,263,2791,2,0,L|356:341,1,59.9999981689454,0|0,0:0|3:0,0:0:0:0:
283,358,3135,2,0,L|268:224,1,119.999996337891,8|0,0:0|0:0,0:0:0:0:
203,187,3653,1,0,3:0:0:0:
136,237,3825,6,0,P|88:270|21:261,1,119.999996337891,2|0,3:2|0:0,0:0:0:0:
14,182,4342,1,0,3:0:0:0:
54,108,4515,2,0,P|102:75|169:84,1,119.999996337891,8|0,0:0|0:0,0:0:0:0:
203,187,5032,1,2,3:2:0:0:
203,187,5377,1,8,0:0:0:0:
291,202,5549,2,0,L|356:189,1,59.9999981689454,0|0,0:0|3:0,0:0:0:0:
260,119,5894,2,0,P|255:100|257:53,1,59.9999981689454,8|0,0:0|0:0,0:0:0:0:
291,202,6239,2,0,P|296:221|294:268,1,59.9999981689454,0|0,0:0|0:0,0:0:0:0:
231,315,6584,6,0,L|105:294,1,119.999996337891,2|0,3:2|0:0,0:0:0:0:
51,237,7101,1,0,3:0:0:0:
79,158,7273,2,0,L|68:95,2,59.9999981689454,8|0|0,0:0|0:0|0:0,0:0:0:0:
157,189,7791,2,0,L|285:168,1,119.999996337891,2|8,3:2|0:0,0:0:0:0:
349,209,8308,2,0,P|378:221|418:219,1,59.9999981689454,0|0,0:0|3:0,0:0:0:0:
393,138,8653,1,8,0:0:0:0:
302,279,8998,2,0,L|295:326,3,29.9999990844727
309,339,9342,6,0,P|255:298|181:308,1,119.999996337891,2|0,3:2|0:0,0:0:0:0:
150,362,9860,1,0,3:0:0:0:
71,332,10032,2,0,P|50:280|67:215,1,119.999996337891,8|0,0:0|0:0,0:0:0:0:
131,150,10549,1,2,3:2:0:0:
131,150,10894,1,8,0:0:0:0:
92,75,11067,2,0,L|27:66,1,59.9999981689454,0|0,0:0|3:0,0:0:0:0:
171,41,11411,2,0,L|239:30,1,59.9999981689454,8|0,0:0|0:0,0:0:0:0:
468,10,11929,1,8,0:0:0:0:
468,10,12015,1,0,0:0:0:0:
468,10,12101,6,0,P|442:65|455:122,1,119.999996337891,2|0,3:2|0:0,0:0:0:0:
411,193,12618,1,0,0:0:0:0:
487,228,12791,2,0,L|458:354,1,119.999996337891,8|0,0:0|0:0,0:0:0:0:
359,372,13308,1,2,3:2:0:0:
359,373,13653,1,8,0:0:0:0:
315,301,13825,2,0,L|248:288,1,59.9999981689454,0|0,0:0|3:0,0:0:0:0:
182,248,14170,1,8,0:0:0:0:
144,323,14342,2,0,P|81:354|30:344,1,119.999996337891,0|0,3:0|3:0,0:0:0:0:
16,262,14860,6,0,L|38:136,1,119.999996337891,2|0,3:2|0:0,0:0:0:0:
111,104,15377,2,0,L|98:36,1,59.9999981689454,0|8,3:0|0:0,0:0:0:0:
270,46,15894,1,0,0:0:0:0:
339,93,16067,2,0,L|314:226,1,119.999996337891,2|8,3:2|0:0,0:0:0:0:
335,293,16584,2,0,P|367:307|406:305,1,59.9999981689454,0|0,0:0|3:0,0:0:0:0:
253,268,16929,2,0,L|129:296,1,119.999996337891,8|2,0:0|0:0,0:0:0:0:
152,127,17618,6,0,L|28:155,1,119.999996337891,2|0,3:2|0:0,0:0:0:0:
41,69,18135,1,0,3:0:0:0:
122,48,18308,2,0,L|246:20,1,119.999996337891,8|0,0:0|0:0,0:0:0:0:
347,57,18825,1,2,3:2:0:0:
347,57,19170,1,8,0:0:0:0:
297,124,19342,2,0,P|286:165|284:187,1,59.9999981689454,0|0,0:0|3:0,0:0:0:0:
337,248,19687,1,8,0:0:0:0:
197,153,20032,2,0,L|148:160,3,29.9999990844727,0|0|0|0,0:0|0:0|0:0|0:0,0:0:0:0:
133,131,20377,6,0,L|102:264,1,119.999996337891,2|0,3:2|0:0,0:0:0:0:
33,291,20894,1,0,3:0:0:0:
133,357,21066,2,0,P|193:364|247:325,1,119.999996337891,12|0,3:2|3:0,0:0:0:0:
310,284,21584,2,0,P|260:252|201:260,1,119.999996337891,12|8,0:0|0:0,0:0:0:0:
159,187,22101,2,0,L|147:127,1,59.9999981689454,0|8,3:0|0:0,0:0:0:0:
231,130,22446,2,0,L|219:70,1,59.9999981689454,8|8,0:0|0:3,0:0:0:0:
303,77,22791,2,0,L|291:16,1,59.9999981689454,0|0,3:0|3:0,0:0:0:0:
374,27,23135,5,6,0:2:0:0:
411,191,24860,2,0,L|493:177,2,75.0000028610231,0|2|0,0:0|0:0|0:0,0:0:0:0:
343,246,25894,6,0,L|220:230,1,112.500004291535,2|0,0:0|0:0,0:0:0:0:
174,301,26756,1,0,0:0:0:0:
174,301,26929,2,0,P|143:233|177:165,1,150.000005722046,2|0,0:0|0:0,0:0:0:0:
258,146,27963,2,0,P|248:97|238:65,1,75.0000028610231,0|0,0:0|0:0,0:0:0:0:
156,44,28653,6,0,L|13:22,3,119.999996337891,10|0|0|0,3:2|3:0|3:0|3:0,0:0:0:0:
104,157,30032,2,0,L|247:179,3,119.999996337891,8|8|8|0,3:2|0:0|3:2|3:0,0:0:0:0:
301,298,31411,5,10,3:2:0:0:
369,346,31584,2,0,L|496:326,1,119.999996337891,2|0,3:2|3:0,0:0:0:0:
381,259,32101,2,0,L|445:250,1,59.9999981689454,8|0,0:0|0:0,0:0:0:0:
310,214,32446,1,8,0:0:0:0:
301,298,32618,1,2,3:2:0:0:
14,102,34170,6,0,P|74:49|170:65,1,179.999994506836,6|0,3:2|3:0,0:0:0:0:
241,114,34860,2,0,P|257:61|254:39,1,59.9999981689454,12|0,0:0|0:0,0:0:0:0:
167,62,35204,1,8,0:0:0:0:
103,125,35377,2,0,L|120:254,1,119.999996337891,2|8,3:2|0:0,0:0:0:0:
190,299,35894,2,0,L|176:373,2,59.9999981689454,0|0|8,0:0|3:0|0:0,0:0:0:0:
368,268,36584,2,0,L|354:200,1,59.9999981689454,0|0,0:0|0:0,0:0:0:0:
269,184,36929,6,0,P|188:192|125:123,1,179.999994506836,6|0,3:2|3:0,0:0:0:0:
37,104,37618,2,0,P|63:59|77:48,1,59.9999981689454,8|0,0:0|0:0,0:0:0:0:
34,187,37963,1,8,0:0:0:0:
58,269,38135,2,0,P|101:313|171:322,1,119.999996337891,2|8,3:2|0:0,0:0:0:0:
236,281,38653,2,0,L|302:295,1,59.9999981689454,0|0,0:0|3:0,0:0:0:0:
377,257,38998,1,8,0:0:0:0:
367,346,39170,2,0,L|501:328,1,119.999996337891,0|8,3:0|0:0,0:0:0:0:
474,240,39687,6,0,B|466:184|466:184|479:132|479:132|468:58,1,179.999994506836,6|0,3:2|3:0,0:0:0:0:
345,33,40377,2,0,L|279:22,1,59.9999981689454,12|0,0:0|0:0,0:0:0:0:
388,110,40722,1,8,0:0:0:0:
324,172,40894,2,0,P|275:209|207:199,1,119.999996337891,2|8,3:2|0:0,0:0:0:0:
179,123,41411,1,0,0:0:0:0:
179,123,41584,1,0,3:0:0:0:
93,139,41756,2,0,L|61:275,1,119.999996337891,8|0,0:0|0:0,0:0:0:0:
24,336,42273,1,8,0:0:0:0:
110,361,42446,6,0,P|161:324|277:325,1,179.999994506836,6|0,3:2|3:0,0:0:0:0:
357,358,43135,2,0,P|364:313|372:283,1,59.9999981689454,8|0,0:0|0:0,0:0:0:0:
299,239,43480,1,8,0:0:0:0:
384,210,43653,2,0,P|374:157|354:85,1,119.999996337891,2|8,3:2|0:0,0:0:0:0:
281,42,44170,2,0,P|265:99|253:158,1,119.999996337891,0|8,0:0|0:0,0:0:0:0:
185,219,44687,2,0,P|155:239|114:245,1,59.9999981689454
125,156,45032,1,8,0:0:0:0:
253,158,45204,6,0,P|305:110|417:120,1,179.999994506836,6|0,3:2|3:0,0:0:0:0:
467,209,45894,2,0,L|442:333,1,119.999996337891,12|12,0:0|0:0,0:0:0:0:
360,357,46411,2,0,P|308:323|247:334,1,119.999996337891,2|8,3:2|0:0,0:0:0:0:
165,353,46929,2,0,L|94:371,1,59.9999981689454,0|0,0:0|3:0,0:0:0:0:
187,269,47273,1,8,0:0:0:0:
206,180,47446,2,0,L|342:154,1,119.999996337891,0|8,3:0|0:0,0:0:0:0:
407,190,47963,6,0,P|447:133|428:27,1,179.999994506836,6|0,3:2|3:0,0:0:0:0:
339,22,48653,2,0,L|255:34,1,59.9999981689454,8|0,0:0|0:0,0:0:0:0:
198,69,48998,1,8,0:0:0:0:
113,38,49170,2,0,L|83:182,1,119.999996337891,2|8,3:2|0:0,0:0:0:0:
30,225,49687,2,0,L|12:300,1,59.9999981689454,0|0,0:0|3:0,0:0:0:0:
73,352,50032,1,8,0:0:0:0:
139,291,50204,2,0,P|187:252|256:252,1,119.999996337891,0|8,3:0|0:0,0:0:0:0:
345,206,50722,6,0,P|271:216|208:136,1,179.999994506836,6|0,3:2|3:0,0:0:0:0:
267,45,51411,2,0,L|390:32,1,119.999996337891,12|8,0:0|0:0,0:0:0:0:
461,83,51929,2,0,P|487:143|472:196,1,119.999996337891,2|8,3:2|0:0,0:0:0:0:
418,264,52446,2,0,L|404:341,1,59.9999981689454,0|0,0:0|3:0,0:0:0:0:
345,206,52791,2,0,L|359:129,2,59.9999981689454,8|0|0,0:0|3:0|0:0,0:0:0:0:
273,261,53308,1,0,0:0:0:0:
217,190,53480,6,0,P|156:211|118:254,1,119.999996337891,6|0,3:2|3:0,0:0:0:0:
50,203,53998,1,0,3:0:0:0:
50,203,54084,1,0,3:0:0:0:
50,203,54170,2,0,P|27:284|37:336,1,119.999996337891,12|8,0:0|0:0,0:0:0:0:
107,366,54687,2,0,L|234:344,1,119.999996337891,2|8,3:2|0:0,0:0:0:0:
310,315,55204,2,0,L|381:329,1,59.9999981689454,0|0,0:0|0:0,0:0:0:0:
241,263,55549,2,0,L|217:134,1,119.999996337891,8|0,0:0|3:0,0:0:0:0:
143,220,56066,1,8,0:0:0:0:
137,118,56239,6,0,P|178:73|287:95,1,179.999994506836,6|0,3:2|3:0,0:0:0:0:
370,26,56929,2,0,P|397:94|391:145,1,119.999996337891,12|8,0:0|0:0,0:0:0:0:
481,157,57446,2,0,P|456:210|458:270,1,119.999996337891,2|8,3:2|0:0,0:0:0:0:
411,347,57963,1,0,0:0:0:0:
411,347,58135,1,0,3:0:0:0:
329,307,58308,2,0,L|200:289,1,119.999996337891,8|0,0:0|0:0,0:0:0:0:
141,348,58825,1,8,0:0:0:0:
63,301,58998,6,0,P|28:237|62:139,1,179.999994506836,6|0,3:2|3:0,0:0:0:0:
117,71,59687,2,0,P|74:54|53:52,1,59.9999981689454,8|0,0:0|0:0,0:0:0:0:
60,140,60032,1,8,0:0:0:0:
138,183,60204,2,0,P|206:188|256:147,1,119.999996337891,2|8,3:2|0:0,0:0:0:0:
298,85,60722,2,0,L|286:18,1,59.9999981689454,0|0,0:0|3:0,0:0:0:0:
388,111,61066,2,0,L|376:44,1,59.9999981689454,8|0,0:0|3:0,0:0:0:0:
478,142,61411,2,0,L|466:75,1,59.9999981689454,8|0,0:3|3:0,0:0:0:0:
365,191,61756,6,0,L|333:371,1,179.999994506836,6|0,3:2|3:0,0:0:0:0:
229,329,62446,2,0,L|214:202,1,119.999996337891,12|8,0:0|0:0,0:0:0:0:
129,179,62963,2,0,L|145:59,1,119.999996337891,2|8,3:2|0:0,0:0:0:0:
224,17,63480,1,0,0:0:0:0:
224,17,63653,1,0,3:0:0:0:
298,66,63825,2,0,P|336:96|418:95,1,119.999996337891,8|0,0:0|0:0,0:0:0:0:
374,14,64342,1,8,0:0:0:0:
298,66,64515,6,0,P|223:104|147:60,1,179.999994506836,6|0,3:2|0:0,0:0:0:0:
53,118,65204,2,0,P|66:186|71:247,1,119.999996337891,12|8,0:0|0:0,0:0:0:0:
106,320,65722,2,0,P|111:260|123:201,1,119.999996337891,2|8,3:2|0:0,0:0:0:0:
183,133,66239,1,0,0:0:0:0:
344,213,66584,2,0,L|417:201,5,39.9999987792969,2|8|8|0|0|0,3:2|0:3|0:3|3:0|3:0|3:0,0:0:0:0:
416,256,67273,6,0,L|451:73,1,179.999994506836,6|0,3:2|3:0,0:0:0:0:
375,27,67963,2,0,P|340:63|252:60,1,119.999996337891,8|8,0:0|0:0,0:0:0:0:
197,21,68480,2,0,P|182:71|181:91,1,59.9999981689454,2|0,3:2|0:0,0:0:0:0:
206,165,68825,1,8,0:0:0:0:
119,188,68998,2,0,P|133:253|135:317,1,119.999996337891,0|12,0:0|0:0,0:0:0:0:
214,349,69515,2,0,L|222:301,5,29.9999990844727,0|8|8|8|8|0,0:0|0:0|0:0|0:0|0:0|0:0,0:0:0:0:
263,311,70032,6,0,P|310:254|422:260,1,179.999994506836,6|0,3:2|3:0,0:0:0:0:
471,186,70722,2,0,P|489:116|479:59,1,119.999996337891,8|8,0:0|0:0,0:0:0:0:
403,115,71239,1,4,3:2:0:0:
204,48,71641,2,0,L|154:59,3,39.9999987792969,0|2|8|8,0:0|3:2|0:0|0:0,0:0:0:0:
123,101,72101,2,0,L|83:92,3,39.9999987792969,8|8|8|8,0:0|0:0|0:0|0:0,0:0:0:0:
74,237,72791,6,0,P|151:254|232:190,1,179.999994506836,6|0,3:2|3:0,0:0:0:0:
286,285,73480,2,0,P|272:356|271:361,1,59.9999981689454,12|0,0:0|0:0,0:0:0:0:
358,240,73825,1,8,0:0:0:0:
347,158,73998,2,0,P|340:95|329:28,1,119.999996337891,2|8,3:2|0:0,0:0:0:0:
243,62,74515,2,0,L|167:47,1,59.9999981689454,0|0,0:0|3:0,0:0:0:0:
98,78,74860,1,8,0:0:0:0:
88,257,75204,1,0,0:0:0:0:
88,257,75377,1,0,3:0:0:0:
37,182,75549,6,0,P|96:169|159:197,4,119.999996337891,6|8|8|2|4,0:0|0:0|0:0|3:2|0:0,0:0:0:0:
123,325,77216,6,8,L|175:309,2,39.9999987792969
45,369,77618,2,0,L|-11:358,3,39.9999987792969,0|8|8|8,0:0|0:0|0:3|0:3,0:0:0:0:
157,228,78308,6,0,B|257:235|205:289|333:279,1,179.999994506836,6|0,0:2|3:0,0:0:0:0:
408,347,78998,2,0,P|426:281|418:225,1,119.999996337891,8|0,0:0|0:0,0:0:0:0:
337,193,79515,2,0,P|331:133|348:76,1,119.999996337891,2|8,3:2|0:0,0:0:0:0:
417,19,80032,2,0,P|437:58|439:94,1,59.9999981689454,0|0,0:0|3:0,0:0:0:0:
347,76,80377,2,0,L|209:52,1,119.999996337891,8|0,0:0|0:0,0:0:0:0:
145,19,80894,1,0,3:0:0:0:
75,77,81067,6,0,P|39:145|49:195,2,119.999996337891,6|0|8,3:2|0:0|0:0,0:0:0:0:
228,170,82101,1,0,3:0:0:0:
228,170,82273,2,0,L|202:299,1,119.999996337891,2|8,3:2|0:0,0:0:0:0:
113,282,82791,2,0,L|43:308,1,59.9999981689454,0|0,0:0|3:0,0:0:0:0:
199,332,83135,2,0,L|322:303,1,119.999996337891,8|0,0:0|0:0,0:0:0:0:
392,352,83653,1,8,0:0:0:0:
473,315,83825,6,0,P|491:258|480:191,1,119.999996337891,6|0,3:2|0:0,0:0:0:0:
409,146,84342,1,0,3:0:0:0:
329,102,84515,2,0,P|342:38|349:22,2,59.9999981689454,12|0|0,0:0|0:0|0:0,0:0:0:0:
310,190,85032,2,0,P|249:235|186:233,1,119.999996337891,2|8,3:2|0:0,0:0:0:0:
132,186,85549,2,0,P|114:249|115:260,1,59.9999981689454,0|0,0:0|3:0,0:0:0:0:
160,312,85894,1,8,0:0:0:0:
226,144,86239,1,0,0:0:0:0:
226,144,86411,1,0,3:0:0:0:
153,89,86584,6,0,L|19:70,2,119.999996337891,2|2|8,3:2|0:0|0:0,0:0:0:0:
237,58,87446,1,0,0:0:0:0:
322,29,87618,1,8,0:0:0:0:
153,89,87791,5,4,1:2:0:0:
