osu file format v14

[General]
AudioFilename: innocence.mp3
AudioLeadIn: 0
PreviewTime: 1054
Countdown: 0
SampleSet: Soft
StackLeniency: 1
Mode: 0
LetterboxInBreaks: 0
WidescreenStoryboard: 1

[Editor]
DistanceSpacing: 1.2
BeatDivisor: 4
GridSize: 4
TimelineZoom: 1

[Metadata]
Title:Innocence (TV Size)
TitleUnicode:Innocence (TV Size)
Artist:NoisyCell
ArtistUnicode:NoisyCell
Creator:pishifat
Version:Hard
Source:ばらかもん
Tags:ryo ryosuke barakamon ending your hands
BeatmapID:2019687
BeatmapSetID:638354

[Difficulty]
HPDrainRate:5
CircleSize:4
OverallDifficulty:6
ApproachRate:7
SliderMultiplier:1
SliderTickRate:1

[Events]
//Background and Video events
Video,-2105,"innocence.avi"
0,0,"W.png",0,0
//Break Periods
2,23346,27764
//Storyboard Layer 0 (Background)
//Storyboard Layer 1 (Fail)
//Storyboard Layer 2 (Pass)
//Storyboard Layer 3 (Foreground)
//Storyboard Layer 4 (Overlay)
//Storyboard Sound Samples

[TimingPoints]
1078,344.827586206897,4,2,0,65,1,0
1595,-100,4,2,0,65,0,0
2284,-100,4,2,0,65,0,0
3319,-100,4,2,0,65,0,0
3836,-100,4,2,0,65,0,0
4353,-100,4,2,0,65,0,0
5388,-100,4,2,0,65,0,0
5905,-100,4,2,0,65,0,0
6250,-100,4,2,0,65,0,0
6509,-100,4,2,0,5,0,0
6595,-100,4,2,0,65,0,0
7112,-100,4,2,0,65,0,0
7802,-100,4,2,0,65,0,0
8664,-100,4,2,0,65,0,0
9353,-100,4,2,0,65,0,0
9871,-100,4,2,0,65,0,0
10560,-100,4,2,0,65,0,0
11422,-100,4,2,0,65,0,0
12112,-100,4,2,0,65,0,0
12629,-100,4,2,0,65,0,0
13319,-100,4,2,0,65,0,0
14353,-100,4,2,0,65,0,0
14871,-100,4,2,0,65,0,0
15388,-100,4,2,0,65,0,0
16422,-100,4,2,0,65,0,0
16940,-100,4,2,0,65,0,0
17284,-100,4,2,0,65,0,0
17543,-100,4,2,0,5,0,0
17629,-100,4,2,0,65,0,0
18146,-100,4,2,0,65,0,0
18836,-100,4,2,0,65,0,0
19698,-100,4,2,0,65,0,0
20388,-100,4,2,0,65,0,0
21078,-83.3333333333333,4,2,0,65,0,0
21940,-100,4,2,0,65,0,0
23146,-100,4,2,0,45,0,0
28664,-100,4,2,0,65,0,0
29353,-100,4,2,0,65,0,0
30043,-100,4,2,0,65,0,0
30733,-100,4,2,0,65,0,0
32112,-100,4,2,0,65,0,0
34181,-76.9230769230769,4,2,0,85,0,0
34871,-76.9230769230769,4,2,0,85,0,0
35388,-76.9230769230769,4,2,0,85,0,0
36250,-76.9230769230769,4,2,0,85,0,0
36940,-76.9230769230769,4,2,0,85,0,0
37629,-76.9230769230769,4,2,0,85,0,0
38146,-76.9230769230769,4,2,0,85,0,0
39009,-76.9230769230769,4,2,0,85,0,0
39698,-76.9230769230769,4,2,0,85,0,0
40388,-76.9230769230769,4,2,0,85,0,0
40905,-76.9230769230769,4,2,0,85,0,0
41767,-76.9230769230769,4,2,0,85,0,0
42457,-76.9230769230769,4,2,0,85,0,0
43146,-76.9230769230769,4,2,0,85,0,0
43664,-76.9230769230769,4,2,0,85,0,0
44698,-76.9230769230769,4,2,0,85,0,0
45215,-76.9230769230769,4,2,0,85,0,0
45905,-76.9230769230769,4,2,0,85,0,0
46422,-76.9230769230769,4,2,0,85,0,0
47284,-76.9230769230769,4,2,0,85,0,0
47974,-76.9230769230769,4,2,0,85,0,0
48664,-76.9230769230769,4,2,0,85,0,0
49181,-76.9230769230769,4,2,0,85,0,0
50215,-76.9230769230769,4,2,0,85,0,0
50733,-76.9230769230769,4,2,0,85,0,0
51422,-76.9230769230769,4,2,0,85,0,0
51940,-76.9230769230769,4,2,0,85,0,0
52802,-76.9230769230769,4,2,0,85,0,0
53491,-76.9230769230769,4,2,0,85,0,0
54181,-76.9230769230769,4,2,0,85,0,0
54698,-76.9230769230769,4,2,0,85,0,0
55043,-76.9230769230769,4,2,0,85,0,0
56940,-76.9230769230769,4,2,0,85,0,0
57457,-76.9230769230769,4,2,0,85,0,0
58319,-76.9230769230769,4,2,0,85,0,0
59009,-76.9230769230769,4,2,0,85,0,0
59698,-76.9230769230769,4,2,0,85,0,0
60215,-76.9230769230769,4,2,0,85,0,0
62457,-76.9230769230769,4,2,0,85,0,0
62974,-76.9230769230769,4,2,0,85,0,0
63836,-76.9230769230769,4,2,0,85,0,0
64526,-76.9230769230769,4,2,0,85,0,0
65215,-76.9230769230769,4,2,0,85,0,0
65733,-76.9230769230769,4,2,0,85,0,0
67974,-76.9230769230769,4,2,0,85,0,0
68491,-76.9230769230769,4,2,0,85,0,0
70733,-76.9230769230769,4,2,0,85,0,0
71250,-76.9230769230769,4,2,0,85,0,0
73491,-76.9230769230769,4,2,0,85,0,0
74009,-76.9230769230769,4,2,0,85,0,0
74871,-76.9230769230769,4,2,0,85,0,0
75560,-76.9230769230769,4,2,0,85,0,0
77629,-76.9230769230769,4,2,0,85,0,0
78319,-76.9230769230769,4,2,0,85,0,0
79009,-76.9230769230769,4,2,0,85,0,0
79526,-76.9230769230769,4,2,0,85,0,0
80388,-76.9230769230769,4,2,0,85,0,0
81078,-76.9230769230769,4,2,0,85,0,0
81767,-76.9230769230769,4,2,0,85,0,0
82284,-76.9230769230769,4,2,0,85,0,0
82629,-76.9230769230769,4,2,0,85,0,0
83319,-76.9230769230769,4,2,0,85,0,0
83836,-76.9230769230769,4,2,0,85,0,0
84526,-76.9230769230769,4,2,0,85,0,0
85043,-76.9230769230769,4,2,0,85,0,0
85905,-76.9230769230769,4,2,0,85,0,0
86595,-76.9230769230769,4,2,0,85,0,0
87284,-76.9230769230769,4,2,0,85,0,0
87802,-76.9230769230769,4,2,0,100,0,0

[Colours]
Combo1 : 248,173,193
Combo2 : 172,253,134
Combo3 : 226,250,90
Combo4 : 238,152,115

[HitObjects]
97,27,1078,6,0,L|78:134,1,100,4|0,0:1|0:0,0:0:0:0:
111,194,1595,1,4,0:3:0:0:
22,176,1767,1,0,1:0:0:0:
252,73,2284,6,0,P|307:97|332:133,2,100,4|0|4,0:3|1:0|0:3,0:0:0:0:
155,113,3146,1,0,1:0:0:0:
224,142,3319,2,0,P|234:173|233:204,2,50,4|2|4,0:3|0:0|0:3,0:0:0:0:
111,194,3836,6,0,L|96:301,1,100,4|0,0:3|0:0,0:0:0:0:
163,330,4353,1,4,0:3:0:0:
77,367,4526,1,0,1:0:0:0:
281,281,5043,5,4,0:3:0:0:
281,281,5388,2,0,P|317:331|370:348,1,100,0|4,1:0|0:3,0:0:0:0:
449,288,5905,1,0,1:0:0:0:
424,359,6078,1,4,0:3:0:0:
449,288,6250,2,0,B|459:233|459:233|484:216,1,75,2|0,0:3|0:0,0:0:0:0:
487,214,6595,6,0,L|369:198,1,100,4|0,0:3|0:0,0:0:0:0:
323,240,7112,1,4,0:3:0:0:
334,148,7284,1,0,1:0:0:0:
114,345,7802,6,0,P|72:332|32:282,2,100,4|0|4,0:3|1:0|0:3,0:0:0:0:
205,263,8664,1,0,1:0:0:0:
193,338,8836,2,0,L|185:391,2,50,4|2|2,0:3|0:0|0:0,0:0:0:0:
290,280,9353,6,0,L|395:264,1,100,4|0,0:3|0:0,0:0:0:0:
456,300,9871,1,4,0:3:0:0:
442,208,10043,1,0,1:0:0:0:
198,121,10560,5,4,0:3:0:0:
198,121,10905,2,0,P|237:91|297:92,1,100,0|4,1:0|0:3,0:0:0:0:
386,62,11422,1,0,1:0:0:0:
353,129,11595,2,0,L|340:243,1,100,4|0,0:3|3:0,0:0:0:0:
328,329,12112,6,0,P|307:298|234:271,1,100,4|0,0:3|0:0,0:0:0:0:
183,239,12629,1,4,0:3:0:0:
200,327,12802,2,0,L|147:335,1,50,0|0,1:0|0:0,0:0:0:0:
30,147,13319,6,0,P|34:95|78:45,2,100,4|0|4,0:3|1:0|0:3,0:0:0:0:
127,159,14181,1,0,1:0:0:0:
72,211,14353,2,0,P|88:226|116:235,1,50,4|2,0:3|0:0,0:0:0:0:
114,234,14698,1,4,0:3:0:0:
95,336,14871,6,0,L|209:315,1,100,4|0,0:3|0:0,0:0:0:0:
261,352,15388,1,4,0:3:0:0:
241,258,15560,2,0,P|253:243|283:225,1,50,0|0,1:0|0:0,0:0:0:0:
467,358,16078,5,4,0:3:0:0:
467,358,16422,1,0,1:0:0:0:
510,293,16595,2,0,L|499:231,1,50,0|4,0:0|0:3,0:0:0:0:
401,284,16940,2,0,L|393:334,1,50,0|4,1:0|0:3,0:0:0:0:
429,216,17284,2,0,B|411:200|411:200|343:209,1,75,2|0,0:3|0:0,0:0:0:0:
345,208,17629,6,0,P|289:187|254:141,1,100,4|0,0:3|0:0,0:0:0:0:
278,83,18146,1,4,0:3:0:0:
192,130,18319,2,0,L|133:123,1,50,0|0,1:0|0:0,0:0:0:0:
14,273,18836,6,0,P|79:228|120:228,2,100,4|0|4,0:3|1:0|0:3,0:0:0:0:
27,368,19698,1,0,1:0:0:0:
79,313,19871,2,0,P|121:322|140:337,1,50,4|2,0:3|0:0,0:0:0:0:
126,325,20215,1,2,0:0:0:0:
225,368,20388,6,0,L|212:257,1,100,4|0,0:3|0:0,0:0:0:0:
432,60,21078,2,0,P|420:80|381:109,1,59.9999981689454,4|0,1:2|0:0,0:0:0:0:
392,103,21422,1,4,0:3:0:0:
361,214,21595,2,0,P|349:194|310:165,1,59.9999981689454,4|0,1:2|0:0,0:0:0:0:
241,130,21940,1,0,1:0:0:0:
241,130,22112,2,0,L|174:138,1,50,4|0,0:3|1:0,0:0:0:0:
106,199,22457,5,0,1:0:0:0:
31,158,22629,1,8,0:3:0:0:
7,92,22802,1,8,0:3:0:0:
20,33,22974,1,4,0:3:0:0:
47,2,23146,1,4,0:1:0:0:
21,24,28664,5,0,3:0:0:0:
21,24,29009,1,0,3:0:0:0:
50,108,29354,5,0,3:0:0:0:
50,108,29698,1,0,3:0:0:0:
164,81,30043,5,0,3:0:0:0:
164,81,30388,1,0,3:0:0:0:
149,223,30733,5,0,3:0:0:0:
149,223,31077,1,0,3:0:0:0:
317,110,31422,5,0,1:0:0:0:
337,184,31595,2,0,P|329:212|315:231,1,50,4|6,0:3|0:3,0:0:0:0:
253,270,31940,5,4,0:3:0:0:
340,305,32112,2,0,P|368:291|382:275,1,50,0|4,1:0|0:3,0:0:0:0:
487,313,32457,5,0,1:0:0:0:
512,383,32629,1,0,1:0:0:0:
256,192,33146,12,4,34181,0:1:0:0:
39,48,34526,6,0,P|68:68|109:84,1,64.9999970245363,2|4,0:0|0:3,0:0:0:0:
94,182,34871,2,0,P|169:124|221:101,1,129.999994049073,4|0,1:2|1:0,0:0:0:0:
242,218,35388,2,0,P|248:186|260:156,1,64.9999970245363,4|0,0:3|0:0,0:0:0:0:
260,156,35733,1,0,1:0:0:0:
357,367,36078,1,4,0:3:0:0:
357,367,36250,2,0,P|327:304|311:236,1,129.999994049073,0|0,1:0|0:0,0:0:0:0:
496,20,36940,5,4,0:0:0:0:
402,274,37284,6,0,P|443:265|486:242,1,64.9999970245363,2|4,0:0|0:3,0:0:0:0:
376,201,37629,2,0,P|309:189|239:158,1,129.999994049073,0|0,1:0|1:0,0:0:0:0:
177,191,38146,2,0,P|134:133|108:50,1,129.999994049073,4|0,0:3|1:0,0:0:0:0:
56,0,38664,2,0,P|45:32|41:72,1,64.9999970245363,4|4,0:3|0:3,0:0:0:0:
23,140,39009,1,0,1:0:0:0:
23,140,39181,2,0,P|43:200|60:223,1,64.9999970245363,4|0,0:3|0:0,0:0:0:0:
345,333,39698,5,4,0:1:0:0:
76,273,40043,6,0,P|132:256|160:257,1,64.9999970245363,2|4,0:0|0:3,0:0:0:0:
270,315,40388,2,0,P|216:241|194:181,1,129.999994049073,4|0,1:2|1:0,0:0:0:0:
215,130,40905,1,4,0:3:0:0:
215,130,41250,2,0,P|228:86|228:45,1,64.9999970245363,0|0,1:0|0:0,0:0:0:0:
187,5,41595,1,4,0:3:0:0:
113,4,41767,2,0,P|55:30|-4:89,1,129.999994049073,0|0,1:0|0:0,0:0:0:0:
14,376,42457,5,4,0:1:0:0:
74,117,42802,6,0,P|115:151|146:169,1,64.9999970245363,2|4,0:0|0:3,0:0:0:0:
197,138,43146,2,0,P|257:113|338:102,1,129.999994049073,0|0,1:0|1:0,0:0:0:0:
360,170,43664,2,0,P|414:178|445:192,1,64.9999970245363,4|0,0:3|0:0,0:0:0:0:
482,231,44009,1,0,1:0:0:0:
459,302,44181,2,0,P|436:340|425:376,2,64.9999970245363,4|4|0,0:3|0:3|1:0,0:0:0:0:
400,254,44698,2,0,P|356:274|324:299,1,64.9999970245363,4|0,0:3|0:0,0:0:0:0:
162,15,45215,5,4,0:1:0:0:
268,260,45560,6,0,P|239:223|227:192,1,64.9999970245363,2|4,0:0|0:3,0:0:0:0:
231,41,45905,2,0,P|205:115|161:168,1,129.999994049073,4|0,1:2|1:0,0:0:0:0:
102,180,46422,1,4,0:3:0:0:
344,175,46767,1,0,1:0:0:0:
344,175,46940,2,0,P|288:155|264:140,1,64.9999970245363,4|4,0:3|0:3,0:0:0:0:
412,136,47284,1,0,1:0:0:0:
345,94,47457,2,0,P|312:58|295:19,1,64.9999970245363,4|0,0:3|0:0,0:0:0:0:
490,272,47974,5,4,0:1:0:0:
283,152,48319,6,0,P|263:206|262:234,1,64.9999970245363,2|4,0:0|0:3,0:0:0:0:
229,334,48664,2,0,P|211:281|166:216,1,129.999994049073,0|0,1:0|1:0,0:0:0:0:
94,198,49181,2,0,P|36:222|12:224,1,64.9999970245363,4|0,0:3|0:0,0:0:0:0:
34,222,49526,1,0,1:0:0:0:
222,115,49871,1,4,0:3:0:0:
205,38,50043,1,0,1:0:0:0:
148,90,50215,2,0,P|101:68|74:45,1,64.9999970245363,4|0,0:3|0:0,0:0:0:0:
462,28,50733,5,4,0:1:0:0:
222,115,51078,6,0,P|269:137|296:160,1,64.9999970245363,2|4,0:0|0:3,0:0:0:0:
382,256,51422,2,0,P|365:150|343:111,1,129.999994049073,4|0,1:2|1:0,0:0:0:0:
421,90,51940,2,0,P|489:142|520:196,1,129.999994049073,4|0,0:3|1:0,0:0:0:0:
512,178,52457,1,4,0:3:0:0:
482,250,52629,1,4,0:3:0:0:
437,314,52802,2,0,P|367:316|297:294,1,129.999994049073,0|0,1:0|0:0,0:0:0:0:
48,127,53491,5,4,0:1:0:0:
248,252,53836,6,0,P|204:264|173:285,1,64.9999970245363,2|4,0:0|3:3,0:0:0:0:
108,349,54181,1,4,1:2:0:0:
48,127,54526,5,4,1:2:0:0:
26,199,54698,1,4,0:3:0:0:
212,73,55043,5,0,1:0:0:0:
212,73,55215,2,0,P|262:87|297:88,1,64.9999970245363,4|0,0:3|0:0,0:0:0:0:
347,69,55560,1,0,1:0:0:0:
248,252,55906,5,0,1:0:0:0:
344,240,56078,1,0,1:0:0:0:
417,177,56250,1,4,0:1:0:0:
184,291,56595,6,0,P|166:345|165:369,1,64.9999970245363,0|4,0:0|0:3,0:0:0:0:
248,252,56940,2,0,P|229:191|185:118,1,129.999994049073,4|0,1:2|1:0,0:0:0:0:
193,45,57457,2,0,P|221:61|252:70,1,64.9999970245363,4|0,0:3|0:0,0:0:0:0:
252,70,57802,1,0,1:0:0:0:
92,173,58146,1,4,0:3:0:0:
92,173,58319,2,0,P|49:180|13:200,1,64.9999970245363,0|4,1:0|0:3,0:0:0:0:
46,263,58664,2,0,P|12:290|-8:325,1,64.9999970245363,0|0,0:0|3:0,0:0:0:0:
74,337,59009,5,4,0:1:0:0:
289,273,59353,2,0,P|338:286|365:302,1,64.9999970245363,0|4,0:0|0:3,0:0:0:0:
414,334,59698,2,0,P|368:236|357:188,1,129.999994049073,0|0,1:0|1:0,0:0:0:0:
373,140,60215,1,4,0:3:0:0:
240,327,60560,1,0,1:0:0:0:
240,327,60733,2,0,P|194:307|160:277,2,64.9999970245363,4|4|0,0:3|0:3|1:0,0:0:0:0:
300,262,61250,1,8,3:0:0:0:
274,180,61423,1,8,3:0:0:0:
203,165,61595,1,8,3:0:0:0:
162,191,61767,5,4,0:1:0:0:
17,24,62112,6,0,P|47:34|74:52,1,64.9999970245363,0|4,0:0|0:3,0:0:0:0:
80,129,62457,2,0,P|104:68|140:15,1,129.999994049073,4|0,1:2|1:0,0:0:0:0:
219,10,62974,2,0,P|252:51|269:88,1,64.9999970245363,4|0,0:3|0:0,0:0:0:0:
276,134,63319,1,0,1:0:0:0:
476,71,63664,1,4,0:3:0:0:
476,71,63836,2,0,P|459:111|436:136,1,64.9999970245363,0|4,1:0|0:3,0:0:0:0:
480,199,64181,2,0,P|445:225|412:235,1,64.9999970245363,0|0,0:0|3:0,0:0:0:0:
350,213,64526,5,4,0:1:0:0:
471,381,64871,6,0,P|440:350|402:334,1,64.9999970245363,0|4,0:0|0:3,0:0:0:0:
326,311,65215,2,0,P|276:332|183:344,1,129.999994049073,4|0,1:2|1:0,0:0:0:0:
134,308,65733,2,0,P|98:291|43:284,1,64.9999970245363,4|0,0:3|0:0,0:0:0:0:
73,285,66078,1,0,1:0:0:0:
9,338,66250,6,0,L|-3:260,1,64.9999970245363,4|0,0:3|0:0,0:0:0:0:
48,189,66595,2,0,P|68:178|102:171,2,43.3333313496908,8|8|8,0:3|0:3|0:3,0:0:0:0:
39,165,66940,2,0,P|18:158|0:148,2,43.3333313496908,4|4|4,0:3|0:3|0:3,0:0:0:0:
54,149,67284,5,4,0:1:0:0:
201,344,67629,6,0,P|227:302|234:275,1,64.9999970245363,0|4,0:0|0:3,0:0:0:0:
236,189,67974,2,0,P|215:107|214:40,1,129.999994049073,4|0,1:2|1:0,0:0:0:0:
276,18,68491,1,4,0:3:0:0:
300,244,68836,1,0,1:0:0:0:
300,244,69009,2,0,P|326:190|346:168,1,64.9999970245363,4|4,0:3|0:3,0:0:0:0:
432,121,69353,6,0,P|464:171|448:235,1,97.4999955368044,4|0,1:2|1:0,0:0:0:0:
447,219,69698,2,0,P|420:210|394:210,2,43.3333313496908,0|0|0,1:0|1:0|1:0,0:0:0:0:
442,238,70043,5,4,0:1:0:0:
198,368,70388,6,0,P|236:344|268:333,1,64.9999970245363,0|4,0:0|0:3,0:0:0:0:
328,327,70733,2,0,P|241:293|201:265,1,129.999994049073,4|0,1:2|1:3,0:0:0:0:
277,194,71250,2,0,P|231:223|124:243,1,151.666659723918,4|0,1:2|1:0,0:0:0:0:
94,180,71767,6,0,P|70:135|52:122,2,43.3333313496908,0|0|0,1:0|1:0|1:0,0:0:0:0:
78,188,72112,2,0,P|40:153|18:147,2,43.3333313496908,8|8|8,0:3|0:3|0:3,0:0:0:0:
69,201,72457,2,0,P|21:181|-1:183,2,43.3333313496908,4|4|4,0:3|0:3|0:3,0:0:0:0:
65,216,72802,5,4,0:1:0:0:
17,368,73146,6,0,P|46:343|86:328,1,64.9999970245363,0|4,0:0|0:3,0:0:0:0:
188,366,73491,2,0,P|265:382|328:380,1,129.999994049073,4|0,1:2|1:0,0:0:0:0:
321,285,74009,2,0,P|261:304|239:318,1,64.9999970245363,4|0,0:3|0:0,0:0:0:0:
259,304,74353,1,0,1:0:0:0:
209,248,74526,2,0,P|247:198|311:160,1,129.999994049073,0|0,0:0|1:0,0:0:0:0:
375,137,75043,1,4,0:3:0:0:
385,210,75215,2,0,P|398:239|418:264,1,64.9999970245363,0|0,0:0|3:0,0:0:0:0:
484,189,75560,5,0,3:0:0:0:
484,189,75905,1,0,3:0:0:0:
372,353,76250,5,0,3:0:0:0:
372,353,76595,1,0,3:0:0:0:
281,171,76940,5,2,3:0:0:0:
379,245,77284,6,0,P|397:275|412:281,3,32.4999985122681,0|0|0|0,1:0|1:0|1:0|1:0,1:0:0:0:
370,230,77629,2,0,P|334:231|314:239,2,43.3333313496908,8|8|8,0:3|0:3|0:3,0:0:0:0:
390,231,77974,2,0,P|407:199|410:178,2,43.3333313496908,4|4|4,0:3|0:3|0:3,0:0:0:0:
359,302,78319,5,4,0:1:0:0:
404,74,78664,6,0,P|369:80|328:97,1,64.9999970245363,0|4,0:0|0:3,0:0:0:0:
271,124,79009,2,0,P|225:113|77:40,1,194.999991073609,0|4,1:0|0:3,0:0:0:0:
12,73,79698,2,0,P|34:126|37:162,1,64.9999970245363,0|0,0:0|1:0,0:0:0:0:
91,187,80043,2,0,P|83:243|68:276,1,64.9999970245363,0|4,0:0|0:3,0:0:0:0:
119,319,80388,2,0,P|84:364|54:385,1,64.9999970245363,0|4,1:0|0:3,0:0:0:0:
271,248,80905,1,4,0:3:0:0:
327,305,81078,5,4,0:3:0:0:
325,13,81422,6,0,P|281:25|252:45,1,64.9999970245363,0|4,0:0|0:3,0:0:0:0:
249,109,81767,2,0,P|327:147|440:160,1,194.999991073609,0|4,1:0|0:3,0:0:0:0:
507,132,82457,1,0,0:0:0:0:
507,132,82629,1,0,1:0:0:0:
489,311,82974,1,0,0:0:0:0:
419,285,83146,2,0,P|372:298|339:321,1,64.9999970245363,0|4,1:0|0:3,0:0:0:0:
295,350,83491,1,0,0:0:0:0:
233,303,83664,1,0,0:0:0:0:
160,319,83836,5,4,0:3:0:0:
24,108,84181,6,0,P|39:155|55:181,1,64.9999970245363,0|4,0:0|0:3,0:0:0:0:
119,197,84526,2,0,P|137:130|225:40,1,194.999991073609,0|4,1:3|0:3,0:0:0:0:
299,38,85215,2,0,P|367:59|387:60,1,64.9999970245363,0|0,0:0|1:3,0:0:0:0:
465,104,85560,2,0,P|397:125|377:126,1,64.9999970245363,0|4,0:0|0:3,0:0:0:0:
355,181,85905,2,0,P|377:204|403:224,1,64.9999970245363,0|4,1:0|0:3,0:0:0:0:
217,354,86422,1,4,0:3:0:0:
234,281,86595,5,0,1:0:0:0:
0,163,86940,6,0,P|6:117|19:84,1,64.9999970245363,2|4,0:0|0:3,0:0:0:0:
131,81,87284,1,0,1:0:0:0:
203,113,87457,1,0,0:3:0:0:
163,179,87629,1,4,0:3:0:0:
92,148,87802,1,2,0:0:0:0:
