osu file format v14

[General]
AudioFilename: audio.mp3
AudioLeadIn: 0
PreviewTime: 190780
Countdown: 0
SampleSet: Soft
StackLeniency: 0.7
Mode: 0
LetterboxInBreaks: 0
WidescreenStoryboard: 1

[Editor]
Bookmarks: 5410,71600,82613,158130,173992,239337,241233,290716
DistanceSpacing: 0.1
BeatDivisor: 4
GridSize: 32
TimelineZoom: 2.000007

[Metadata]
Title:Innocence
TitleUnicode:Innocence
Artist:NoisyCell
ArtistUnicode:NoisyCell
Creator:Spy_RO
Version:Your Hand
Source:ばらかもん
Tags:anime english pop rock barakamon ending ed ryo ryosuke HowRengar
BeatmapID:2758329
BeatmapSetID:1331339

[Difficulty]
HPDrainRate:5
CircleSize:5
OverallDifficulty:8.8
ApproachRate:9
SliderMultiplier:1.3
SliderTickRate:0.5

[Events]
//Background and Video events
0,0,"all-alone-kw.jpg",0,0
//Break Periods
//Storyboard Layer 0 (Background)
//Storyboard Layer 1 (Fail)
//Storyboard Layer 2 (Pass)
//Storyboard Layer 3 (Foreground)
//Storyboard Layer 4 (Overlay)
//Storyboard Sound Samples

[TimingPoints]
439,344.827586206897,4,2,1,30,1,0
439,-166.666666666667,4,2,1,30,0,0
1128,355.029585798817,4,2,1,30,1,0
1128,-166.666666666667,4,2,1,30,0,0
1660,341.394025604552,4,2,1,30,1,0
1660,-166.666666666667,4,2,1,30,0,0
2940,-166.666666666667,4,2,1,5,0,0
3025,-166.666666666667,4,2,1,30,0,0
3197,357.142857142857,4,2,1,30,1,0
3197,-166.666666666667,4,2,1,30,0,0
4447,338.983050847458,4,2,1,30,1,0
4447,-166.666666666667,4,2,1,30,0,0
5548,-166.666666666667,4,2,1,5,0,0
5633,-166.666666666667,4,2,1,30,0,0
5971,357.142857142857,4,2,1,30,1,0
5971,-166.666666666667,4,2,1,30,0,0
6685,339.654684404189,4,2,1,30,1,0
6685,-166.666666666667,4,2,1,30,0,0
8298,-166.666666666667,4,2,1,5,0,0
8383,-166.666666666667,4,2,1,30,0,0
8723,357.142857142858,4,2,1,30,1,0
8723,-166.666666666667,4,2,1,30,0,0
9437,337.078651685393,4,2,1,30,1,0
9437,-166.666666666667,4,2,1,30,0,0
10785,354.505169867061,4,2,1,30,1,0
10785,-166.666666666667,4,2,1,30,0,0
11050,-166.666666666667,4,2,1,5,0,0
11139,-166.666666666667,4,2,1,30,0,0
11494,342.857142857143,4,2,1,30,1,0
11494,-166.666666666667,4,2,1,30,0,0
12179,333.333333333334,4,2,1,30,1,0
12179,-166.666666666667,4,2,1,30,0,0
13512,357.142857142857,4,2,1,30,1,0
13512,-142.857142857143,4,2,1,30,0,0
14137,-142.857142857143,4,2,1,5,0,0
14226,355.029585798816,4,2,1,30,1,0
14226,-166.666666666667,4,2,1,30,0,0
14936,346.820809248555,4,2,1,30,1,0
14936,-166.666666666667,4,2,1,30,0,0
15629,346.820809248555,4,2,1,30,1,0
15629,-166.666666666667,4,2,1,30,0,0
16323,335.195530726257,4,2,1,30,1,0
16323,-166.666666666667,4,2,1,30,0,0
16993,345.821325648415,4,2,1,30,1,0
16993,-166.666666666667,4,2,1,30,0,0
19673,-166.666666666667,4,2,1,5,0,0
19759,-166.666666666667,4,2,1,30,0,0
21832,320.855614973262,4,2,1,30,1,0
22473,361.44578313253,4,2,1,30,1,0
22473,-111.111111111111,4,2,1,30,0,0
23195,344.827586206897,4,2,1,30,1,0
23195,-111.111111111111,4,2,1,30,0,0
23884,340.909090909091,4,2,1,30,1,0
23884,-111.111111111111,4,2,1,30,0,0
25247,355.029585798817,4,2,1,30,1,0
25247,-111.111111111111,4,2,1,30,0,0
26489,317.460317460318,4,2,1,30,1,0
26489,-111.111111111111,4,2,1,30,0,0
26806,347.322720694646,4,2,1,30,1,0
26806,-111.111111111111,4,2,1,30,0,0
27674,-166.666666666667,4,2,1,30,0,0
27934,-166.666666666667,4,2,1,5,0,0
28022,348.837209302326,4,2,1,30,1,0
28022,-111.111111111111,4,2,1,30,0,0
29068,324.324324324324,4,2,1,30,1,0
29068,-111.111111111111,4,2,1,30,0,0
29554,351.906158357771,4,2,1,30,1,0
29554,-111.111111111111,4,2,1,30,0,0
30434,340.909090909091,4,2,1,30,1,0
30434,-250,4,2,1,30,0,0
30774,352.941176470589,4,2,1,30,1,0
30774,-111.111111111111,4,2,1,30,0,0
31479,342.172797262618,4,2,1,30,1,0
31479,-111.111111111111,4,2,1,30,0,0
33532,352.941176470589,4,2,1,30,1,0
33532,-100,4,2,1,30,0,0
34237,342.368045649073,4,2,1,30,1,0
34921,342.368045649073,4,2,1,30,1,0
36290,350.877192982457,4,2,1,30,1,0
36991,342.857142857143,4,2,1,30,1,0
37676,342.857142857143,4,2,1,30,1,0
38705,-166.666666666667,4,2,1,30,0,0
38963,-166.666666666667,4,2,1,5,0,0
39048,361.445783132531,4,2,1,30,1,0
39048,-111.111111111111,4,2,1,30,0,0
39770,344.827586206897,4,2,1,30,1,0
39770,-111.111111111111,4,2,1,30,0,0
40287,337.078651685394,4,2,1,30,1,0
40287,-111.111111111111,4,2,1,30,0,0
41466,350.877192982456,4,2,1,30,1,0
41466,-333.333333333333,4,2,1,30,0,0
41816,344.827586206897,4,2,1,30,1,0
41816,-111.111111111111,4,2,1,30,0,0
44574,359.281437125749,4,2,1,30,1,0
44574,-100,4,2,1,30,0,0
45292,333.518621456365,4,2,1,30,1,0
46126,348.837209302326,4,2,1,30,1,0
46650,352.941176470588,4,2,1,30,1,0
47355,344.827586206897,4,2,1,30,1,0
47527,-100,4,2,1,5,0,0
47613,-100,4,2,1,30,0,0
47786,-100,4,2,1,5,0,0
47872,-100,4,2,1,30,0,0
49768,-166.666666666667,4,2,1,30,0,0
50027,-166.666666666667,4,2,1,5,0,0
50113,-100,4,2,1,30,0,0
51320,345.323741007194,4,2,1,30,1,0
52012,344.827586206897,4,2,1,30,1,0
52529,-333.333333333333,4,2,1,30,0,0
52874,344.827586206897,4,2,1,30,1,0
55891,-100,4,2,1,5,0,0
55977,-100,4,2,1,30,0,0
57098,-100,4,2,1,5,0,0
57184,-100,4,2,1,30,0,0
60805,-166.666666666667,4,2,1,30,0,0
61063,-166.666666666667,4,2,1,5,0,0
61149,342.368045649073,4,2,1,30,1,0
61149,-100,4,2,1,30,0,0
63545,-333.333333333333,4,2,1,30,0,0
63887,355.555555555556,4,2,1,30,1,0
63887,-100,4,2,1,30,0,0
64598,342.857142857143,4,2,1,30,1,0
64598,-80,4,2,1,30,0,0
64855,-80,4,2,1,5,0,0
64940,-80,4,2,1,30,0,0
65112,350.877192982456,4,2,1,30,1,0
65112,-80,4,2,1,30,0,0
65375,-80,4,2,1,5,0,0
65462,-80,4,2,1,30,0,0
65639,307.692307692308,4,2,1,30,1,0
65792,351.906158357772,4,2,1,30,1,0
65968,337.078651685393,4,2,1,30,1,0
66642,-166.666666666667,4,2,1,30,0,0
67063,-166.666666666667,4,2,1,5,0,0
67181,344.827586206897,4,2,1,30,1,0
67181,-166.666666666667,4,2,1,30,0,0
67612,-166.666666666667,4,2,1,5,0,0
67698,-200,4,2,1,30,0,0
68043,344.827586206897,4,2,1,30,1,0
68043,-200,4,2,1,30,0,0
68560,-166.666666666667,4,2,1,30,0,0
69854,-166.666666666667,4,2,1,5,0,0
69940,-166.666666666667,4,2,1,30,0,0
70199,-166.666666666667,4,2,1,5,0,0
70285,-166.666666666667,4,2,1,30,0,0
71061,-166.666666666667,4,2,1,5,0,0
71147,-166.666666666667,4,2,1,30,0,0
71406,-166.666666666667,4,2,1,5,0,0
71492,-166.666666666667,4,2,1,30,0,0
71750,-166.666666666667,4,2,1,5,0,0
71837,-166.666666666667,4,2,1,30,0,0
72440,-166.666666666667,4,2,1,5,0,0
72526,-166.666666666667,4,2,1,30,0,0
72785,-166.666666666667,4,2,1,5,0,0
72871,-166.666666666667,4,2,1,30,0,0
73130,-166.666666666667,4,2,1,5,0,0
73215,-100,4,2,1,30,0,0
73474,-100,4,2,1,5,0,0
73560,-83.3333333333333,4,2,1,30,0,0
73819,-83.3333333333333,4,2,1,5,0,0
73905,-71.4285714285714,4,2,1,30,0,0
74164,-71.4285714285714,4,2,1,5,0,0
74249,-62.5,4,2,1,30,0,0
74509,-62.5,4,2,1,5,0,0
74594,-55.5555555555556,4,2,1,30,0,0
74853,-55.5555555555556,4,2,1,5,0,0
74939,-83.3333333333333,4,2,1,30,0,0
76060,-83.3333333333333,4,2,1,5,0,0
76146,-83.3333333333333,4,2,1,30,0,0
76232,-83.3333333333333,4,2,1,5,0,0
76663,-250,4,2,1,30,0,0
77094,-250,4,2,1,5,0,0
77180,-500,4,2,1,30,0,0
77610,-500,4,2,1,45,0,0
77698,-71.4285714285714,4,2,1,60,0,1
79163,-71.4285714285714,4,2,1,5,0,1
79249,-71.4285714285714,4,2,1,60,0,1
81922,-71.4285714285714,4,2,1,5,0,1
82008,-71.4285714285714,4,2,1,60,0,1
82698,-142.857142857143,4,2,1,60,0,1
83215,-71.4285714285714,4,2,1,60,0,1
84680,-71.4285714285714,4,2,1,5,0,1
84767,-71.4285714285714,4,2,1,60,0,1
87439,-71.4285714285714,4,2,1,5,0,1
87525,-71.4285714285714,4,2,1,60,0,1
88215,-142.857142857143,4,2,1,60,0,1
88732,-71.4285714285714,4,2,1,60,0,1
89680,-71.4285714285714,4,2,1,5,0,1
89767,-71.4285714285714,4,2,1,60,0,1
91405,-71.4285714285714,4,2,1,5,0,1
91491,-71.4285714285714,4,2,1,60,0,1
92439,-71.4285714285714,4,2,1,5,0,1
92525,-71.4285714285714,4,2,1,60,0,1
93732,-200,4,2,1,60,0,1
94249,-71.4285714285714,4,2,1,60,0,1
94680,-71.4285714285714,4,2,1,5,0,1
94767,-71.4285714285714,4,2,1,60,0,1
95715,-71.4285714285714,4,2,1,5,0,1
95801,-71.4285714285714,4,2,1,60,0,1
99767,-83.3333333333333,4,2,1,50,0,0
100715,-83.3333333333333,4,2,1,5,0,0
100801,-83.3333333333333,4,2,1,50,0,0
103473,-83.3333333333333,4,2,1,5,0,0
103559,-83.3333333333333,4,2,1,50,0,0
103991,-83.3333333333333,4,2,1,5,0,0
104077,-83.3333333333333,4,2,1,50,0,0
106232,-83.3333333333333,4,2,1,5,0,0
106318,-83.3333333333333,4,2,1,50,0,0
106749,-83.3333333333333,4,2,1,5,0,0
106835,-83.3333333333333,4,2,1,50,0,0
108301,-83.3333333333333,4,2,1,5,0,0
108387,-83.3333333333333,4,2,1,50,0,0
108646,-83.3333333333333,4,2,1,5,0,0
108732,-83.3333333333333,4,2,1,50,0,0
109249,-50,4,2,1,50,0,0
109292,-50,4,2,1,5,0,0
109422,-100,4,2,1,30,0,0
115025,-100,4,2,1,5,0,0
115111,-100,4,2,1,30,0,0
115973,-303.030303030303,4,2,1,30,0,0
116232,-303.030303030303,4,2,1,5,0,0
116318,-100,4,2,1,30,0,0
121189,-100,4,2,1,5,0,0
121318,-100,4,2,1,30,0,0
121361,-100,4,2,1,5,0,0
121490,-100,4,2,1,30,0,0
121534,-100,4,2,1,5,0,0
121663,-100,4,2,1,30,0,0
121706,-100,4,2,1,5,0,0
121835,-100,4,2,1,30,0,0
123301,-100,4,2,1,5,0,0
123387,-100,4,2,1,30,0,0
126060,-100,4,2,1,5,0,0
126146,-100,4,2,1,30,0,0
127008,-303.030303030303,4,2,1,30,0,0
127267,-303.030303030303,4,2,1,5,0,0
127353,-100,4,2,1,30,0,0
128560,-83.3333333333333,4,2,1,30,0,0
128818,-83.3333333333333,4,2,1,5,0,0
128905,-100,4,2,1,30,0,0
129465,-100,4,2,1,5,0,0
129594,-100,4,2,1,30,0,0
129637,-100,4,2,1,5,0,0
129766,-100,4,2,1,30,0,0
129810,-100,4,2,1,5,0,0
129939,-100,4,2,1,30,0,0
131318,-80,4,2,1,30,0,0
131577,-80,4,2,1,5,0,0
131663,-100,4,2,1,30,0,0
132224,-100,4,2,1,5,0,0
132353,-100,4,2,1,30,0,0
132397,-100,4,2,1,5,0,0
132526,-100,4,2,1,30,0,0
132569,-100,4,2,1,5,0,0
132698,-100,4,2,1,30,0,0
132742,-100,4,2,1,5,0,0
132870,315.789473684211,4,2,1,30,1,0
132870,-66.6666666666667,4,2,1,50,0,0
133106,-66.6666666666667,4,2,1,5,0,0
133185,-66.6666666666667,4,2,1,50,0,0
133264,-66.6666666666667,4,2,1,5,0,0
133343,-66.6666666666667,4,2,1,50,0,0
133560,344.827586206897,4,2,1,30,1,0
134249,344.827586206897,4,2,1,30,1,0
134249,-66.6666666666667,4,2,1,50,0,0
136406,-66.6666666666667,4,2,1,5,0,0
136492,-66.6666666666667,4,2,1,50,0,0
138386,-83.3333333333333,4,2,1,50,0,0
141880,-83.3333333333333,4,2,1,5,0,0
142009,-83.3333333333333,4,2,1,50,0,0
142052,-83.3333333333333,4,2,1,5,0,0
142181,-83.3333333333333,4,2,1,50,0,0
142268,-83.3333333333333,4,2,1,5,0,0
142354,-83.3333333333333,4,2,1,50,0,0
142440,-83.3333333333333,4,2,1,5,0,0
142697,-142.857142857143,4,2,1,50,0,0
142869,-142.857142857143,4,2,1,5,0,0
142955,-100,4,2,1,50,0,0
143128,-100,4,2,1,5,0,0
143214,-76.9230769230769,4,2,1,50,0,0
143386,-76.9230769230769,4,2,1,5,0,0
143472,-62.5,4,2,1,50,0,0
143645,-62.5,4,2,1,5,0,0
143731,-52.6315789473684,4,2,1,50,0,0
143817,-52.6315789473684,4,2,1,5,0,0
143904,-52.6315789473684,4,2,1,60,0,1
144335,-50,4,2,1,5,0,1
144421,-66.6666666666667,4,2,1,60,0,1
145024,-66.6666666666667,4,2,1,5,0,1
145110,-66.6666666666667,4,2,1,60,0,1
145369,-66.6666666666667,4,2,1,5,0,1
145455,-66.6666666666667,4,2,1,60,0,1
146404,-66.6666666666667,4,2,1,5,0,1
146490,-66.6666666666667,4,2,1,60,0,1
146576,-66.6666666666667,4,2,1,5,0,1
146662,-66.6666666666667,4,2,1,60,0,1
147783,-66.6666666666667,4,2,1,5,0,1
147869,-66.6666666666667,4,2,1,60,0,1
148472,-66.6666666666667,4,2,1,5,0,1
148559,-100,4,2,1,60,0,1
148645,-100,4,2,1,5,0,1
148731,-80,4,2,1,60,0,1
148817,-80,4,2,1,5,0,1
148904,-100,4,2,1,60,0,1
148990,-100,4,2,1,5,0,1
149076,-80,4,2,1,60,0,1
149162,-80,4,2,1,5,0,1
149248,-66.6666666666667,4,2,1,60,0,1
149335,-66.6666666666667,4,2,1,5,0,1
149421,-66.6666666666667,4,2,1,60,0,1
150541,-66.6666666666667,4,2,1,5,0,1
150628,-66.6666666666667,4,2,1,60,0,1
150886,-66.6666666666667,4,2,1,5,0,1
150972,-66.6666666666667,4,2,1,60,0,1
151921,-66.6666666666667,4,2,1,5,0,1
152007,-66.6666666666667,4,2,1,60,0,1
152093,-66.6666666666667,4,2,1,5,0,1
152179,-66.6666666666667,4,2,1,60,0,1
152266,-66.6666666666667,4,2,1,5,0,1
152352,-66.6666666666667,4,2,1,60,0,1
152610,-66.6666666666667,4,2,1,5,0,1
152697,-66.6666666666667,4,2,1,60,0,1
153300,-66.6666666666667,4,2,1,5,0,1
153386,-66.6666666666667,4,2,1,60,0,1
153645,-66.6666666666667,4,2,1,5,0,1
153731,-66.6666666666667,4,2,1,60,0,1
154593,-166.666666666667,4,2,1,60,0,1
154852,-166.666666666667,4,2,1,5,0,1
154938,-66.6666666666667,4,2,1,60,0,1
155197,-66.6666666666667,4,2,1,5,0,1
155283,-100,4,2,1,60,0,1
155369,-100,4,2,1,5,0,1
155455,-80,4,2,1,60,0,1
155541,-80,4,2,1,5,0,1
155628,-66.6666666666667,4,2,1,60,0,1
155714,-66.6666666666667,4,2,1,5,0,1
155800,-80,4,2,1,60,0,1
155886,-80,4,2,1,5,0,1
155972,-80,4,2,1,60,0,1
156317,-80,4,2,1,5,0,1
156404,-80,4,2,1,60,0,1
156576,-80,4,2,1,5,0,1
156662,-80,4,2,1,60,0,1
156748,-80,4,2,1,5,0,1
156835,-80,4,2,1,60,0,1
156921,-80,4,2,1,5,0,1
157007,-95.2380952380952,4,2,1,60,0,1
157696,-80,4,2,1,60,0,1
158472,-80,4,2,1,5,0,1
158559,-80,4,2,1,60,0,1
158645,-80,4,2,1,5,0,1
158731,-80,4,2,1,60,0,1
159679,-80,4,2,1,5,0,1
159766,-80,4,2,1,60,0,1
159852,-80,4,2,1,5,0,1
159938,-80,4,2,1,60,0,1
160024,-80,4,2,1,5,0,1
160110,-242.130750605327,4,2,1,60,0,1
160369,-242.130750605327,4,2,1,5,0,1
160455,-66.6666666666667,4,2,1,60,0,1
161921,-66.6666666666667,4,2,1,5,0,1
162007,-66.6666666666667,4,2,1,60,0,1
162050,-66.6666666666667,4,2,1,5,0,1
162179,-58.8235294117647,4,2,1,60,0,1
162222,-58.8235294117647,4,2,1,5,0,1
162352,-52.6315789473684,4,2,1,60,0,1
162395,-52.6315789473684,4,2,1,5,0,1
162524,-52.6315789473684,4,2,1,60,0,1
164248,-62.5,4,2,1,60,0,1
165972,-142.857142857143,4,2,1,60,0,1
167007,-142.857142857143,4,2,1,60,0,0
170109,-142.857142857143,4,2,1,40,0,0
175367,-142.857142857143,4,2,1,5,0,0
175454,-142.857142857143,4,2,1,40,0,0
180885,-142.857142857143,4,2,1,5,0,0
180972,-142.857142857143,4,2,1,40,0,0
183127,-142.857142857143,4,2,1,5,0,0
183213,-142.857142857143,4,2,1,40,0,0
183472,-142.857142857143,4,2,1,5,0,0
183558,-142.857142857143,4,2,1,40,0,0
185885,-142.857142857143,4,2,1,5,0,0
185972,-142.857142857143,4,2,1,40,0,0
186230,-142.857142857143,4,2,1,5,0,0
186316,-142.857142857143,4,2,1,40,0,0
186661,-125,4,2,1,40,0,0
187092,-125,4,2,1,5,0,0
187178,-125,4,2,1,40,0,0
187868,-100,4,2,1,40,0,0
188299,-100,4,2,1,5,0,0
188385,-100,4,2,1,40,0,0
188730,-125,4,2,1,40,0,0
189420,-83.3333333333333,4,2,1,60,0,0
190541,-83.3333333333333,4,2,1,5,0,0
190627,-83.3333333333333,4,2,1,60,0,0
190713,-83.3333333333333,4,2,1,5,0,0
191144,-250,4,2,1,60,0,0
191575,-250,4,2,1,5,0,0
191661,-500,4,2,1,60,0,0
192092,-500,4,2,1,5,0,0
192180,-71.4285714285714,4,2,1,60,0,1
193644,-71.4285714285714,4,2,1,5,0,1
193730,-71.4285714285714,4,2,1,60,0,1
196403,-71.4285714285714,4,2,1,5,0,1
196489,-71.4285714285714,4,2,1,60,0,1
197178,-142.857142857143,4,2,1,60,0,1
197696,-71.4285714285715,4,2,1,60,0,1
199161,-71.4285714285715,4,2,1,5,0,1
199247,-71.4285714285715,4,2,1,60,0,1
201920,-71.4285714285715,4,2,1,5,0,1
202006,-71.4285714285715,4,2,1,60,0,1
202696,-142.857142857143,4,2,1,60,0,1
203213,-71.4285714285714,4,2,1,60,0,1
204161,-71.4285714285714,4,2,1,5,0,1
204247,-71.4285714285714,4,2,1,60,0,1
205454,-142.857142857143,4,2,1,60,0,1
205972,-71.4285714285714,4,2,1,60,0,1
207437,-71.4285714285714,4,2,1,5,0,1
207523,-71.4285714285714,4,2,1,60,0,1
209765,-62.5,4,2,1,60,0,1
210627,-62.5,4,2,1,5,0,1
210713,-71.4285714285714,4,2,1,60,0,1
212954,-71.4285714285714,4,2,1,5,0,1
213041,-71.4285714285714,4,2,1,60,0,1
213472,-71.4285714285714,4,2,1,5,0,1
213558,-71.4285714285714,4,2,1,60,0,1
213731,-142.857142857143,4,2,1,60,0,0
214249,-71.4285714285715,4,2,1,60,0,1
215713,-71.4285714285715,4,2,1,5,0,1
215799,-71.4285714285715,4,2,1,60,0,1
218472,-71.4285714285715,4,2,1,5,0,1
218558,-71.4285714285715,4,2,1,60,0,1
219247,-142.857142857143,4,2,1,60,0,1
219765,-71.4285714285715,4,2,1,60,0,1
221230,-71.4285714285715,4,2,1,5,0,1
221316,-71.4285714285715,4,2,1,60,0,1
223989,-71.4285714285715,4,2,1,5,0,1
224075,-71.4285714285715,4,2,1,60,0,1
224765,-142.857142857143,4,2,1,60,0,1
225282,-71.4285714285715,4,2,1,60,0,1
226230,-71.4285714285715,4,2,1,5,0,1
226316,-71.4285714285715,4,2,1,60,0,1
227523,-142.857142857143,4,2,1,60,0,1
228041,-71.4285714285715,4,2,1,60,0,1
229506,-71.4285714285715,4,2,1,5,0,1
229592,-71.4285714285715,4,2,1,60,0,1
231834,-62.5,4,2,1,60,0,1
232523,-71.4285714285714,4,2,1,60,0,1
234247,-71.4285714285714,4,2,1,60,0,1
235628,-71.4285714285714,4,2,1,60,0,0
236317,-71.4285714285714,4,2,1,60,0,1
237782,-71.4285714285714,4,2,1,5,0,1
237868,-71.4285714285714,4,2,1,60,0,1
240541,-71.4285714285714,4,2,1,5,0,1
240627,-71.4285714285714,4,2,1,60,0,1
241230,-71.4285714285714,4,2,1,5,0,1
241316,-357.142857142857,4,2,1,60,0,1
241747,-357.142857142857,4,2,1,5,0,1
241834,-71.4285714285714,4,2,1,60,0,1
243299,-71.4285714285714,4,2,1,5,0,1
243385,-71.4285714285714,4,2,1,60,0,1
244851,-71.4285714285714,4,2,1,5,0,1
244937,-71.4285714285714,4,2,1,60,0,1
245023,-71.4285714285714,4,2,1,5,0,1
245109,-71.4285714285714,4,2,1,60,0,1
245196,-71.4285714285714,4,2,1,5,0,1
245282,-71.4285714285714,4,2,1,60,0,1
245541,-71.4285714285714,4,2,1,5,0,1
245627,-71.4285714285714,4,2,1,60,0,1
246058,-71.4285714285714,4,2,1,5,0,1
246144,-71.4285714285714,4,2,1,60,0,1
246834,-142.857142857143,4,2,1,60,0,1
247351,-71.4285714285714,4,2,1,60,0,1
248299,-71.4285714285714,4,2,1,5,0,1
248385,-71.4285714285714,4,2,1,60,0,1
249592,-142.857142857143,4,2,1,60,0,1
250109,-71.4285714285714,4,2,1,60,0,1
251058,-71.4285714285714,4,2,1,5,0,1
251144,-71.4285714285714,4,2,1,60,0,1
251575,-71.4285714285714,4,2,1,5,0,1
251661,-71.4285714285714,4,2,1,60,0,1
252782,-71.4285714285714,4,2,1,5,0,1
252868,-71.4285714285714,4,2,1,60,0,1
254334,-71.4285714285714,4,2,1,5,0,1
254420,-71.4285714285714,4,2,1,60,0,1
256575,-71.4285714285714,4,2,1,5,0,1
256661,-71.4285714285714,4,2,1,60,0,1
257092,-71.4285714285714,4,2,1,5,0,1
257178,-71.4285714285714,4,2,1,60,0,1
257954,-71.4285714285714,4,2,1,5,0,1
258041,-71.4285714285714,4,2,1,60,0,1
259334,-71.4285714285714,4,2,1,5,0,1
259420,-71.4285714285714,4,2,1,60,0,1
262092,-71.4285714285714,4,2,1,5,0,1
262178,-71.4285714285714,4,2,1,60,0,1
264851,-71.4285714285714,4,2,1,5,0,1
264937,-71.4285714285714,4,2,1,60,0,1
265368,-71.4285714285714,4,2,1,5,0,1
265454,-71.4285714285714,4,2,1,60,0,1
270885,-71.4285714285714,4,2,1,5,0,1
270972,-71.4285714285714,4,2,1,60,0,1
273127,-71.4285714285714,4,2,1,5,0,1
273213,-71.4285714285714,4,2,1,60,0,1
273299,-71.4285714285714,4,2,1,5,0,1
273385,-62.5,4,2,1,60,0,1
273788,-71.4285714285714,4,2,1,60,0,1
274937,-62.5,4,2,1,60,0,1
276403,-62.5,4,2,1,5,0,1
276489,-62.5,4,2,1,60,0,1
277696,-83.3333333333333,4,2,1,60,0,1
277954,-83.3333333333333,4,2,1,5,0,1
278041,-71.4285714285714,4,2,1,60,0,1
278299,-71.4285714285714,4,2,1,5,0,1
278385,-62.5,4,2,1,60,0,1
278644,-62.5,4,2,1,5,0,1
278730,-55.5555555555556,4,2,1,60,0,1
278989,-55.5555555555556,4,2,1,5,0,1
279075,-200,4,2,1,60,0,1
279334,-200,4,2,1,5,0,1
279420,-71.4285714285714,4,2,1,60,0,1
280455,-133.333333333333,4,2,1,30,0,0
283471,-133.333333333333,4,2,1,5,0,0
283558,-133.333333333333,4,2,1,30,0,0
286230,-133.333333333333,4,2,1,5,0,0
286316,-133.333333333333,4,2,1,30,0,0
294161,-133.333333333333,4,2,1,5,0,0
294247,-133.333333333333,4,2,1,30,0,0
299678,-133.333333333333,4,2,1,5,0,0
299765,-133.333333333333,4,2,1,30,0,0
305280,303.030303030303,4,2,1,30,1,0
305280,-166.666666666667,4,2,1,30,0,0
305683,441.176470588235,4,2,1,30,1,0
305683,-181.818181818182,4,2,1,30,0,0
306565,-181.818181818182,4,2,1,22,0,0
307447,-181.818181818182,4,2,1,18,0,0
308330,-181.818181818182,4,2,1,14,0,0
309212,-181.818181818182,4,2,1,10,0,0
310094,-181.818181818182,4,2,1,8,0,0
310977,-181.818181818182,4,2,1,5,0,0

[Colours]
Combo1 : 255,232,21
Combo2 : 243,124,160
Combo3 : 238,128,131
Combo4 : 237,98,73
Combo5 : 228,85,82

[HitObjects]
63,63,439,6,0,P|64:104|60:155,1,77.999997619629,2|0,0:0|0:0,0:0:0:0:
125,384,1128,2,0,L|120:330,1,38.9999988098145,2|0,0:0|0:0,0:0:0:0:
167,262,1483,1,0,0:0:0:0:
247,310,1660,2,0,P|289:298|325:303,1,77.999997619629,2|0,0:0|0:0,0:0:0:0:
408,350,2172,1,0,0:0:0:0:
408,350,2513,2,0,P|417:301|435:244,1,97.4999970245362,2|0,0:0|0:0,0:0:0:0:
438,248,3025,1,0,0:0:0:0:
378,165,3197,6,0,B|346:147|346:147|297:167,1,77.999997619629,2|0,0:0|0:0,0:0:0:0:
111,111,3911,2,0,B|131:121|131:121|163:109,1,38.9999988098145,2|0,0:0|0:0,0:0:0:0:
250,90,4268,1,0,0:0:0:0:
212,165,4447,2,0,P|203:198|196:253,1,77.999997619629,2|0,0:0|0:0,0:0:0:0:
213,329,4955,1,0,0:0:0:0:
213,329,5294,2,0,P|242:337|280:320,1,58.4999982147217,2|0,0:0|0:0,0:0:0:0:
275,322,5633,1,2,0:0:0:0:
363,365,5802,1,0,0:0:0:0:
452,232,5972,6,0,B|423:245|423:245|413:267|413:267|388:275,1,77.999997619629,2|0,0:0|0:0,0:0:0:0:
247,97,6685,2,0,B|261:103|261:103|267:114|267:114|279:119,1,38.9999988098145,2|0,0:0|0:0,0:0:0:0:
367,166,7024,1,0,0:0:0:0:
299,242,7194,2,0,P|250:238|220:255,1,77.999997619629,2|0,0:0|0:0,0:0:0:0:
156,341,7703,1,0,0:0:0:0:
156,341,8043,2,0,P|114:332|97:309,1,58.4999982147217,2|0,0:0|0:0,0:0:0:0:
97,315,8383,1,2,0:0:0:0:
63,243,8553,1,0,0:0:0:0:
153,163,8723,6,0,L|142:255,1,77.999997619629,2|0,0:0|0:0,0:0:0:0:
318,131,9437,2,0,P|299:118|271:121,1,38.9999988098145,2|0,0:0|0:0,0:0:0:0:
207,101,9774,1,0,0:0:0:0:
256,217,9942,2,0,L|348:228,1,77.999997619629,2|0,0:0|0:0,0:0:0:0:
443,192,10448,1,0,0:0:0:0:
443,192,10785,2,0,P|435:221|441:257,1,58.4999982147217,2|0,0:0|0:0,0:0:0:0:
446,256,11139,1,2,0:0:0:0:
484,336,11316,1,0,0:0:0:0:
360,339,11494,22,0,P|324:337|271:349,1,77.999997619629,2|0,1:0|0:0,0:0:0:0:
191,376,12008,1,0,0:0:0:0:
158,253,12179,2,0,L|161:291,1,38.9999988098145,10|0,0:1|0:0,0:0:0:0:
197,383,12512,1,0,0:0:0:0:
247,256,12679,2,0,L|238:160,1,77.999997619629,10|0,0:1|0:0,0:0:0:0:
204,72,13179,1,0,0:0:0:0:
204,72,13512,6,0,B|154:42|121:64|136:84|91:111|50:74,1,159.249995140076,2|0,0:0|0:0,0:0:0:0:
50,73,14226,6,0,P|62:104|73:161,1,77.999997619629,2|2,1:0|0:0,0:0:0:0:
158,193,14758,1,0,0:0:0:0:
204,72,14936,2,0,P|196:90|190:123,1,38.9999988098145,10|0,0:1|0:0,0:0:0:0:
165,200,15282,1,0,0:0:0:0:
270,153,15456,2,0,P|306:167|344:176,1,77.999997619629,10|0,0:1|0:0,0:0:0:0:
435,120,15975,1,0,0:0:0:0:
435,120,16323,2,0,L|438:82,1,38.9999988098145,2|0,0:0|0:0,0:0:0:0:
337,27,16658,2,0,L|334:65,1,38.9999988098145,2|0,0:0|0:0,0:0:0:0:
343,175,16993,6,0,P|351:214|350:253,1,77.999997619629,2|0,1:0|0:0,0:0:0:0:
329,341,17511,1,0,0:0:0:0:
464,285,17684,2,0,P|444:287|426:293,1,38.9999988098145,10|0,0:1|0:0,0:0:0:0:
322,348,18030,1,0,0:0:0:0:
255,251,18203,2,0,B|228:238|210:238|210:238|194:246|184:266,1,77.999997619629,10|0,0:1|0:0,0:0:0:0:
163,367,18722,1,0,0:0:0:0:
163,367,19067,22,0,P|114:353|19:350,1,136.499995834351,2|0,0:0|0:0,0:0:0:0:
16,356,19759,6,0,P|33:335|47:272,1,77.999997619629,2|0,1:0|0:0,0:0:0:0:
66,148,20278,1,0,0:0:0:0:
155,229,20451,2,0,L|117:226,1,38.9999988098145,10|0,0:1|0:0,0:0:0:0:
59,141,20797,1,0,0:0:0:0:
174,124,20969,2,0,L|251:131,1,77.999997619629,10|0,0:1|0:0,0:0:0:0:
346,169,21488,2,0,P|349:139|340:118,1,38.9999988098145
299,60,21832,1,10,0:1:0:0:
256,208,21992,5,0,1:0:0:0:
415,245,22152,1,0,1:0:0:0:
335,267,22313,1,0,1:0:0:0:
227,352,22473,6,0,P|281:346|348:362,1,116.999996429443,6|0,0:1|0:0,0:0:0:0:
449,334,23015,1,2,1:0:0:0:
420,186,23195,2,0,L|413:254,1,58.4999982147217,8|0,0:1|0:0,0:0:0:0:
427,179,23539,1,2,0:0:0:0:
512,136,23712,2,0,L|506:77,1,58.4999982147217,2|0,1:0|0:0,0:0:0:0:
304,63,24054,2,0,B|380:86|358:92|408:35,1,116.999996429443,10|0,0:1|1:0,0:0:0:0:
226,20,24565,21,8,1:1:0:0:
267,172,24736,1,0,1:0:0:0:
167,192,24906,1,0,1:0:0:0:
187,116,25077,1,0,1:0:0:0:
267,172,25247,6,0,B|325:186|325:186|375:157,1,116.999996429443,2|2,1:0|0:0,0:0:0:0:
454,98,25778,1,2,1:0:0:0:
450,257,25956,2,0,B|419:249|419:249|396:263,1,58.4999982147217,8|0,1:0|0:0,0:0:0:0:
309,297,26311,1,2,0:0:0:0:
262,230,26489,2,0,P|265:180|272:146,1,58.4999982147217,2|0,1:0|0:0,0:0:0:0:
370,98,26806,2,0,P|373:127|374:156,1,58.4999982147217,10|0,0:1|0:0,0:0:0:0:
262,68,27153,1,0,1:0:0:0:
415,23,27326,1,8,0:1:0:0:
325,5,27500,1,0,1:0:0:0:
262,68,27674,6,0,L|203:61,1,58.4999982147217,2|0,0:1|0:0,0:0:0:0:
134,36,28022,6,0,P|176:65|147:138,1,116.999996429443,0|0,1:0|0:0,0:0:0:0:
109,229,28545,1,0,1:0:0:0:
0,226,28719,2,0,L|124:221,1,116.999996429443,10|0,0:1|0:0,0:0:0:0:
211,196,29230,2,0,P|211:227|200:260,1,58.4999982147217,2|0,1:0|0:0,0:0:0:0:
73,367,29554,2,0,P|65:338|65:309,1,58.4999982147217,10|0,0:1|0:0,0:0:0:0:
109,226,29905,1,0,1:0:0:0:
189,354,30081,2,0,L|267:348,1,58.4999982147217,8|0,0:1|0:0,0:0:0:0:
325,303,30434,22,2,L|325:285,3,13
332,311,30774,6,0,P|371:342|445:302,1,116.999996429443,2|0,1:0|0:0,0:0:0:0:
388,191,31303,1,0,1:0:0:0:
512,190,31479,2,0,L|383:184,1,116.999996429443,10|0,0:1|0:0,0:0:0:0:
275,83,31992,2,0,P|309:98|332:130,1,58.4999982147217,2|0,1:0|0:0,0:0:0:0:
252,249,32334,2,0,P|215:253|179:236,1,58.4999982147217,8|0,0:1|0:0,0:0:0:0:
122,39,32676,5,0,1:0:0:0:
229,162,32847,1,8,0:1:0:0:
140,168,33018,1,0,1:0:0:0:
85,219,33189,1,0,0:0:0:0:
171,341,33360,5,0,3:0:0:0:
179,336,33446,1,0,3:0:0:0:
188,331,33532,2,0,B|229:311|232:277|232:277|213:243|180:243,1,130,2|0,1:0|0:0,0:0:0:0:
85,219,34061,21,2,1:0:0:0:
25,310,34237,2,0,L|30:374,1,65,8|0,0:1|0:0,0:0:0:0:
32,303,34579,1,2,0:0:0:0:
0,199,34750,2,0,L|9:103,1,65,2|0,1:0|0:0,0:0:0:0:
136,31,35092,2,0,P|94:33|71:51,1,65,10|2,0:1|0:0,0:0:0:0:
140,168,35434,5,0,1:0:0:0:
290,40,35605,1,8,0:1:0:0:
258,196,35776,5,0,1:0:0:0:
229,116,35948,1,0,0:0:0:0:
346,172,36119,1,0,1:0:0:0:
286,309,36290,6,0,B|245:269|243:216|243:216|267:182,1,130,2|0,1:0|0:0,0:0:0:0:
346,172,36816,1,2,1:0:0:0:
413,279,36991,2,0,P|432:240|441:197,1,65,8|2,0:1|0:0,0:0:0:0:
405,101,37333,1,0,0:0:0:0:
512,150,37505,2,0,P|493:111|484:68,1,65,2|0,1:0|0:0,0:0:0:0:
330,44,37847,2,0,P|369:25|412:16,1,65,10|0,0:1|0:0,0:0:0:0:
501,4,38190,1,0,1:0:0:0:
405,101,38361,1,8,0:1:0:0:
446,199,38533,1,0,1:0:0:0:
413,279,38705,22,0,L|354:272,1,58.4999982147217,2|0,0:0|0:0,0:0:0:0:
312,217,39048,6,0,L|327:340,1,116.999996429443,2|2,1:0|0:0,0:0:0:0:
269,384,39590,1,0,1:0:0:0:
168,326,39770,2,0,P|107:324|44:360,1,116.999996429443,10|0,0:1|0:0,0:0:0:0:
0,268,40287,2,0,P|45:248|61:218,1,58.4999982147217,2|0,1:0|0:0,0:0:0:0:
129,109,40624,2,0,P|100:148|101:182,1,58.4999982147217,8|0,0:1|0:0,0:0:0:0:
147,242,40961,1,0,1:0:0:0:
264,175,41129,2,0,L|184:163,1,58.4999982147217,8|0,0:1|0:0,0:0:0:0:
367,130,41466,6,2,L|366:147,3,9.74999970245361
374,123,41816,6,0,L|356:240,1,116.999996429443,2|2,1:0|0:0,0:0:0:0:
319,335,42333,1,0,1:0:0:0:
468,334,42505,2,0,L|450:218,1,116.999996429443,10|0,0:1|0:0,0:0:0:0:
426,116,43022,2,0,B|393:108|393:108|362:131,1,58.4999982147217,2|0,1:0|0:0,0:0:0:0:
349,230,43367,1,8,0:1:0:0:
264,175,43540,2,0,P|221:181|197:200,1,58.4999982147217,2|8,1:0|0:1,0:0:0:0:
201,194,43798,1,8,0:1:0:0:
196,201,43884,1,8,0:1:0:0:
88,299,44057,21,0,1:0:0:0:
191,367,44229,1,0,1:0:0:0:
275,330,44402,1,0,1:0:0:0:
191,208,44574,6,0,P|140:193|94:188,1,97.5,6|0,1:0|0:0,0:0:0:0:
89,195,44933,1,2,0:0:0:0:
160,122,45112,1,2,1:0:0:0:
21,54,45292,1,8,0:1:0:0:
105,7,45458,2,0,L|96:82,1,65,2|0,0:0|0:0,0:0:0:0:
253,142,45792,2,0,P|301:144|328:119,1,65,2|0,1:0|0:0,0:0:0:0:
481,34,46126,2,0,B|468:72|438:86|438:86|397:78|368:37,1,130,10|0,0:1|1:0,0:0:0:0:
313,135,46650,2,0,P|342:147|360:173,1,65,8|0,0:1|1:0,0:0:0:0:
428,261,47002,1,0,0:0:0:0:
466,165,47179,1,0,1:0:0:0:
323,253,47355,6,0,L|332:328,1,65,2|0,1:0|0:0,0:0:0:0:
264,344,47613,2,0,P|304:339|332:311,1,65,2|0,0:0|0:0,0:0:0:0:
237,263,47872,1,2,1:0:0:0:
125,381,48044,1,8,0:1:0:0:
86,301,48217,2,0,P|82:257|70:216,1,65,2|0,0:0|0:0,0:0:0:0:
256,134,48561,2,0,P|240:207|236:282,1,130,2|8,1:0|0:1,0:0:0:0:
40,180,49079,2,0,B|70:161|70:161|103:174,1,65,2|0,0:0|1:0,0:0:0:0:
158,49,49423,2,0,B|127:67|127:67|100:56,1,65,10|0,0:1|1:0,0:0:0:0:
271,69,49768,6,0,P|265:102|258:139,1,58.4999982147217,2|0,0:0|0:0,0:0:0:0:
256,134,50113,22,0,P|303:127|394:146,1,130,2|2,1:0|0:0,0:0:0:0:
486,174,50630,1,2,1:0:0:0:
448,53,50803,2,0,P|414:53|383:45,1,65,10|0,0:1|0:0,0:0:0:0:
318,155,51148,1,0,0:0:0:0:
249,56,51320,2,0,P|207:65|194:164,1,130,2|8,1:0|0:1,0:0:0:0:
246,228,51837,1,2,0:0:0:0:
185,147,52012,1,0,1:0:0:0:
147,282,52184,2,0,L|159:371,1,65,8|0,0:1|1:0,0:0:0:0:
69,185,52529,6,2,L|68:175,3,9.74999970245361
62,178,52874,6,0,L|43:312,1,130,2|2,1:0|0:0,0:0:0:0:
147,282,53391,1,0,1:0:0:0:
242,337,53563,2,0,P|288:354|325:352,1,65,10|0,0:1|0:0,0:0:0:0:
391,294,53908,1,0,0:0:0:0:
304,201,54080,2,0,L|295:276,1,65,2|0,0:0|0:0,0:0:0:0:
391,294,54425,2,0,P|448:269|448:202,1,130,8|0,0:1|1:0,0:0:0:0:
246,126,54942,5,8,0:1:0:0:
304,201,55115,1,0,1:0:0:0:
413,116,55287,1,0,0:0:0:0:
323,28,55460,1,0,3:0:0:0:
317,35,55546,1,0,3:0:0:0:
312,46,55632,22,0,P|271:50|208:34,1,97.5,2|0,1:0|0:0,0:0:0:0:
209,30,55977,1,2,0:0:0:0:
117,61,56149,1,2,1:0:0:0:
226,198,56322,1,8,0:1:0:0:
134,153,56494,2,0,P|108:173|91:200,1,65,2|0,0:0|0:0,0:0:0:0:
40,319,56839,2,0,P|69:293|121:310,1,97.5,2|0,1:0|0:0,0:0:0:0:
165,358,57184,2,0,P|226:370|315:355,1,130,10|0,0:1|1:0,0:0:0:0:
450,211,57701,5,8,0:1:0:0:
404,279,57874,1,0,1:0:0:0:
317,140,58046,1,0,0:0:0:0:
355,196,58218,1,0,1:0:0:0:
296,297,58391,6,0,P|291:338|294:376,1,65,2|0,1:0|0:0,0:0:0:0:
404,279,58736,1,2,0:0:0:0:
395,359,58908,1,2,1:0:0:0:
273,206,59080,1,10,0:1:0:0:
238,325,59253,2,0,P|276:308|307:287,1,65,2|0,0:0|0:0,0:0:0:0:
147,180,59598,2,0,B|104:154|64:178|64:178|57:210|75:227,1,130,2|8,1:0|0:1,0:0:0:0:
143,338,60115,2,0,P|150:306|145:274,1,65,2|0,0:0|1:0,0:0:0:0:
31,307,60460,2,0,P|23:338|28:370,1,65,10|0,0:1|1:0,0:0:0:0:
143,338,60805,6,0,P|185:333|204:351,1,58.4999982147217,2|0,0:0|0:0,0:0:0:0:
203,348,61149,22,0,B|233:365|272:342|255:328|298:303|348:334,1,130,2|2,1:0|0:0,0:0:0:0:
344,243,61662,1,2,1:0:0:0:
214,203,61833,2,0,L|208:272,1,65,10|0,0:1|0:0,0:0:0:0:
297,176,62176,1,0,0:0:0:0:
114,113,62347,2,0,L|125:245,1,130,2|8,1:0|0:1,0:0:0:0:
31,307,62860,2,0,L|36:242,1,65,0|0,0:0|1:0,0:0:0:0:
214,203,63202,1,10,0:1:0:0:
114,113,63374,1,0,1:0:0:0:
257,100,63546,6,2,L|270:99,3,9.74999970245361
250,92,63888,6,0,B|318:77|318:77|378:122,1,130,2|2,1:0|0:0,0:0:0:0:
449,58,64421,1,0,1:0:0:0:
351,269,64599,2,0,P|304:236|312:148,1,121.875,14|0,0:1|0:0,0:0:0:0:
303,168,64941,1,0,1:0:0:0:
220,331,65113,2,0,P|163:339|107:271,1,121.875,14|0,0:1|0:0,0:0:0:0:
122,294,65463,5,8,0:1:0:0:
190,183,65640,1,0,1:0:0:0:
25,159,65793,1,8,0:1:0:0:
233,49,65968,21,8,0:1:0:0:
110,55,66136,1,0,1:0:0:0:
25,159,66305,5,2,1:0:0:0:
114,147,66473,1,0,1:0:0:0:
190,183,66642,6,0,L|287:176,1,97.4999970245362,6|0,1:0|0:0,0:0:0:0:
320,114,67181,2,0,L|425:120,1,97.4999970245362,2|0,0:0|0:0,0:0:0:0:
487,97,67698,2,0,L|481:202,1,97.4999970245362,2|0,0:0|0:0,0:0:0:0:
481,194,68387,1,2,0:0:0:0:
407,221,68560,2,0,L|411:302,1,77.999997619629,2|0,0:0|0:0,0:0:0:0:
259,257,69422,5,0,0:0:0:0:
264,363,69594,2,0,B|307:351|330:330,1,58.4999982147217,2|0,0:0|0:0,0:0:0:0:
357,276,69939,2,0,B|367:287|410:298,1,58.4999982147217,2|0,0:0|0:0,0:0:0:0:
481,315,70284,1,2,0:0:0:0:
422,215,70456,2,0,P|359:181|294:207,1,136.499995834351,2|0,0:0|0:0,0:0:0:0:
259,257,71146,2,0,P|229:261|196:262,1,58.4999982147217,2|0,0:0|0:0,0:0:0:0:
178,326,71491,2,0,P|147:322|115:314,1,58.4999982147217,2|0,0:0|0:0,0:0:0:0:
64,257,71836,1,2,0:0:0:0:
333,88,72180,22,0,P|301:96|271:89,1,58.4999982147217,10|0,0:1|0:0,0:0:0:0:
269,84,72525,2,0,P|240:79|212:87,1,58.4999982147217,10|0,0:1|0:0,0:0:0:0:
204,94,72870,2,0,P|176:101|147:97,1,58.4999982147217,10|0,0:1|0:0,0:0:0:0:
85,76,73215,6,0,P|120:113|122:167,1,97.5,10|0,0:1|0:0,0:0:0:0:
117,183,73560,6,0,P|134:246|184:252,1,116.999996429443,10|0,0:1|0:0,0:0:0:0:
197,240,73905,6,0,B|267:190|259:276|342:218,1,136.499995834351,10|0,0:1|0:0,0:0:0:0:
387,168,74249,22,0,P|349:217|445:232,1,156,10|0,0:1|0:0,0:0:0:0:
493,310,74594,6,0,L|513:119,1,175.499994644165,10|0,0:1|0:0,0:0:0:0:
384,21,74939,5,8,0:1:0:0:
187,43,75111,1,0,1:0:0:0:
290,169,75284,2,0,P|295:113|279:65,1,77.999997619629,2|0,0:0|1:0,0:0:0:0:
284,88,75542,5,2,0:0:0:0:
279,80,75629,1,10,0:1:0:0:
174,150,75801,1,2,0:0:0:0:
357,268,75973,2,0,L|286:253,1,38.9999988098145,10|0,0:1|0:0,0:0:0:0:
167,143,76146,2,0,L|238:128,1,38.9999988098145,2|0,0:0|0:0,0:0:0:0:
205,134,76663,22,0,P|197:170|198:206,1,65,2|0,0:0|0:0,0:0:0:0:
114,260,77180,6,0,P|117:246|117:231,1,26,2|0,0:0|0:0,0:0:0:0:
24,160,77611,1,0,1:0:0:0:
24,160,77698,6,0,P|80:153|117:260,1,181.999994445801,6|0,1:1|0:0,0:0:0:0:
86,364,78215,1,2,1:0:0:0:
289,283,78387,2,0,B|266:277|244:275|244:275|227:287|212:308,1,90.9999972229005,8|0,0:1|0:0,0:0:0:0:
373,384,78732,1,2,1:0:0:0:
426,276,78905,6,0,P|431:207|435:139,1,136.499995834351,0|0,1:0|0:0,0:0:0:0:
428,132,79249,1,8,0:1:0:0:
319,36,79422,2,0,P|324:81|328:126,1,90.9999972229005,2|0,0:0|1:0,0:0:0:0:
458,0,79767,1,8,0:1:0:0:
399,55,79939,1,0,0:0:0:0:
242,11,80111,2,0,B|265:5|287:3|287:3|304:15|319:36,1,90.9999972229005,2|0,0:0|0:0,0:0:0:0:
244,184,80456,22,0,B|203:209|149:188|172:153|123:133|73:153,1,181.999994445801,6|0,1:1|0:0,0:0:0:0:
0,205,80973,1,0,1:0:0:0:
105,324,81146,2,0,B|118:279|118:279|103:230,1,90.9999972229005,8|0,0:1|0:0,0:0:0:0:
0,384,81491,1,8,0:1:0:0:
105,324,81663,2,0,P|171:333|241:337,1,136.499995834351,0|0,1:0|0:0,0:0:0:0:
247,329,82008,1,0,1:0:0:0:
330,192,82180,2,0,B|329:219|322:238|322:238|338:253|352:276,1,90.9999972229005,2|0,0:0|1:0,0:0:0:0:
444,77,82525,1,8,0:1:0:0:
463,247,82698,6,0,B|464:220|471:201|471:201|455:186|441:163,1,90.9999972229005,2|0,1:0|0:0,0:0:0:0:
468,341,83215,6,0,B|520:332|501:235|411:252|370:302,1,181.999994445801,6|0,1:1|0:0,0:0:0:0:
305,363,83732,1,2,1:0:0:0:
210,230,83905,2,0,P|206:185|208:140,1,90.9999972229005,8|0,0:1|0:0,0:0:0:0:
355,24,84249,1,10,0:1:0:0:
303,108,84422,6,0,B|298:53|237:38|237:38|208:53,1,136.499995834351,0|0,1:0|0:0,0:0:0:0:
201,60,84767,1,0,1:0:0:0:
310,115,84939,2,0,P|355:111|401:105,1,90.9999972229005,2|0,0:0|1:0,0:0:0:0:
210,230,85284,1,8,0:1:0:0:
299,277,85456,1,0,1:0:0:0:
444,215,85629,2,0,P|398:209|353:205,1,90.9999972229005,2|0,0:0|0:0,0:0:0:0:
127,297,85973,22,0,B|147:332|185:332|185:332|225:294|209:229,1,181.999994445801,6|0,1:1|0:0,0:0:0:0:
170,105,86491,1,0,1:0:0:0:
40,219,86663,2,0,P|78:192|126:186,1,90.9999972229005,8|0,0:1|0:0,0:0:0:0:
122,51,87008,1,8,0:1:0:0:
241,64,87180,2,0,P|174:75|108:36,1,136.499995834351,0|0,1:0|0:0,0:0:0:0:
108,37,87525,1,8,0:1:0:0:
319,12,87698,6,0,B|338:34|342:52|342:52|339:73|326:98,1,90.9999972229005,2|0,0:0|1:0,0:0:0:0:
479,7,88042,1,8,0:1:0:0:
482,82,88215,6,0,B|463:60|459:42|459:42|462:21|474:-4,1,90.9999972229005,2|0,1:0|0:0,0:0:0:0:
454,239,88732,6,0,B|471:181|406:151|406:151|383:178|344:181,1,181.999994445801,6|0,1:1|0:0,0:0:0:0:
243,102,89249,1,2,1:0:0:0:
155,257,89422,2,0,P|174:197|236:205,1,136.499995834351,8|0,0:1|0:0,0:0:0:0:
243,212,89767,1,8,0:1:0:0:
190,349,89939,2,0,P|144:345|99:338,1,90.9999972229005,0|0,1:0|0:0,0:0:0:0:
1,181,90284,1,8,0:1:0:0:
85,136,90456,22,0,B|101:177|101:177|87:222,1,90.9999972229005,2|0,0:0|1:0,0:0:0:0:
222,53,90801,1,8,0:1:0:0:
243,212,90973,2,0,B|227:171|227:171|240:125,1,90.9999972229005,2|0,1:0|0:0,0:0:0:0:
379,114,91318,2,0,P|357:120|326:113,1,45.4999986114502,2|0,0:0|0:0,0:0:0:0:
222,53,91491,6,0,B|272:32|317:66|296:102|347:126|388:100,1,181.999994445801,6|0,1:1|0:0,0:0:0:0:
470,19,92008,1,2,1:0:0:0:
512,222,92180,2,0,B|485:202|450:192|450:192|415:203|394:228,1,136.499995834351,8|0,0:1|0:0,0:0:0:0:
387,234,92525,1,8,0:1:0:0:
461,380,92698,2,0,P|461:334|457:289,1,90.9999972229005,0|0,1:0|0:0,0:0:0:0:
306,178,93042,1,8,0:1:0:0:
243,294,93215,6,0,P|284:313|329:309,1,90.9999972229005,2|0,0:0|1:0,0:0:0:0:
458,114,93560,1,8,0:1:0:0:
356,40,93732,6,0,P|352:55|350:72,1,32.5,2|0,0:0|0:0,0:0:0:0:
351,72,94249,22,0,B|256:97|270:20|174:57|174:57|211:57|234:81,1,227.499993057251,6|0,1:1|0:0,0:0:0:0:
221,73,94767,1,2,1:0:0:0:
181,239,94939,2,0,P|161:198|173:156,1,90.9999972229005,8|0,0:1|0:0,0:0:0:0:
351,72,95284,1,10,0:1:0:0:
390,169,95456,6,0,B|341:189|285:158|285:158|298:184|300:204,1,136.499995834351,2|0,0:0|0:0,0:0:0:0:
298,192,95801,1,8,0:1:0:0:
272,295,95973,2,0,P|315:282|359:290,1,90.9999972229005,2|0,0:0|1:0,0:0:0:0:
177,349,96318,1,8,0:1:0:0:
85,232,96491,1,0,1:0:0:0:
173,156,96663,2,0,P|180:200|184:246,1,90.9999972229005,2|0,0:0|0:0,0:0:0:0:
10,366,97008,6,0,B|44:327|25:275|-10:292|-20:234|2:196,1,181.999994445801,6|0,1:1|0:0,0:0:0:0:
71,94,97525,1,0,1:0:0:0:
257,162,97698,2,0,B|213:175|213:175|173:156,1,90.9999972229005,8|0,0:1|0:0,0:0:0:0:
209,0,98042,1,10,0:1:0:0:
288,66,98215,1,0,1:0:0:0:
388,5,98387,6,0,P|395:49|397:95,1,90.9999972229005,2|8,0:0|0:1,0:0:0:0:
365,210,98732,1,0,0:0:0:0:
460,241,98905,1,2,1:0:0:0:
299,302,99077,2,0,B|342:288|342:288|392:314,1,90.9999972229005,8|0,0:1|0:0,0:0:0:0:
469,378,99422,1,2,0:0:0:0:
479,383,99767,22,0,P|488:305|493:227,1,155.999995239258,6|2,1:1|0:0,0:0:0:0:
473,112,100284,1,0,1:0:0:0:
341,198,100456,2,0,P|282:194|224:188,1,116.999996429443,10|0,0:1|0:0,0:0:0:0:
217,181,100801,1,2,0:0:0:0:
133,245,100973,6,0,P|128:206|125:167,1,77.999997619629,2|0,1:0|0:0,0:0:0:0:
229,286,101318,1,8,0:1:0:0:
145,350,101491,1,0,0:0:0:0:
145,350,101663,1,0,1:0:0:0:
35,230,101836,1,8,0:1:0:0:
125,167,102008,1,0,1:0:0:0:
31,124,102180,1,0,0:0:0:0:
31,124,102353,1,0,1:0:0:0:
109,15,102525,6,0,P|186:25|264:31,1,155.999995239258,2|2,1:0|0:0,0:0:0:0:
388,6,103042,1,0,1:0:0:0:
458,139,103215,2,0,P|413:103|355:107,1,116.999996429443,10|0,0:1|0:0,0:0:0:0:
348,114,103560,1,0,0:0:0:0:
249,186,103732,6,0,B|236:247|289:237|260:315,1,116.999996429443,2|0,1:0|0:0,0:0:0:0:
258,305,104077,1,8,0:1:0:0:
363,353,104249,2,0,P|373:315|375:276,1,77.999997619629,0|0,0:0|1:0,0:0:0:0:
191,384,104594,1,8,0:1:0:0:
82,308,104767,2,0,P|119:297|158:293,1,77.999997619629,0|0,1:0|0:0,0:0:0:0:
0,382,105111,1,0,0:0:0:0:
14,239,105284,22,0,P|22:161|30:83,1,155.999995239258,2|2,1:0|0:0,0:0:0:0:
122,1,105801,1,0,1:0:0:0:
240,116,105973,2,0,B|212:94|188:88|188:88|164:92|134:107,1,116.999996429443,10|0,0:1|0:0,0:0:0:0:
127,114,106318,1,0,0:0:0:0:
183,199,106491,6,0,B|232:229|196:227|312:197,1,116.999996429443,2|0,1:0|0:0,0:0:0:0:
301,199,106836,1,8,0:1:0:0:
347,110,107008,1,0,0:0:0:0:
347,110,107180,1,0,1:0:0:0:
471,221,107353,5,8,0:1:0:0:
396,188,107525,1,0,1:0:0:0:
385,198,107870,5,0,3:0:0:0:
380,203,107956,1,0,3:0:0:0:
375,208,108042,2,0,B|391:248|389:302|389:302|396:286|407:274,1,116.999996429443,2|0,1:0|0:0,0:0:0:0:
430,320,108387,2,0,P|385:338|392:290,1,116.999996429443,2|0,0:0|0:0,0:0:0:0:
406,276,108732,21,10,0:1:0:0:
299,354,108905,1,0,1:0:0:0:
209,167,109077,1,8,0:1:0:0:
351,78,109249,6,0,L|346:119,1,32.5,14|0,0:1|0:0,0:0:0:0:
351,113,110801,5,2,0:0:0:0:
351,113,110973,1,0,1:0:0:0:
434,154,111146,1,2,0:0:0:0:
369,201,111318,2,0,P|367:233|365:265,1,65,2|8,1:0|0:1,0:0:0:0:
287,302,111663,2,0,P|288:334|290:366,1,65,2|0,0:0|0:0,0:0:0:0:
449,332,112008,6,0,P|440:289|352:273,1,130,2|0,1:0|1:0,0:0:0:0:
287,302,112525,1,0,0:0:0:0:
205,259,112698,1,0,1:0:0:0:
153,384,112870,1,8,0:1:0:0:
75,315,113042,1,2,1:0:0:0:
124,223,113215,2,0,P|123:190|121:158,1,65,2|0,0:0|1:0,0:0:0:0:
71,30,113560,21,2,0:0:0:0:
71,30,113732,1,2,1:0:0:0:
139,75,113905,1,0,0:0:0:0:
239,4,114077,2,0,P|206:3|174:0,1,65,2|8,1:0|0:1,0:0:0:0:
301,85,114422,2,0,P|268:85|236:89,1,65,2|0,0:0|0:0,0:0:0:0:
380,130,114767,6,0,P|392:83|379:36,1,97.5,2|0,1:0|0:0,0:0:0:0:
372,29,115111,1,0,1:0:0:0:
301,85,115284,2,0,L|291:154,1,65,2|0,0:0|1:0,0:0:0:0:
464,229,115629,2,0,L|454:164,1,65,10|0,0:1|1:0,0:0:0:0:
353,263,115973,6,0,L|356:301,1,32.1749999018097,2|0,0:0|0:0,0:0:0:0:
360,245,116318,5,2,1:0:0:0:
360,245,116491,1,0,1:0:0:0:
429,305,116663,1,0,0:0:0:0:
394,384,116836,1,2,1:0:0:0:
281,293,117008,2,0,P|217:285|152:280,1,130,10|0,0:1|0:0,0:0:0:0:
56,277,117525,2,0,P|48:245|52:213,1,65,2|0,1:0|0:0,0:0:0:0:
138,129,117870,21,2,1:0:0:0:
141,199,118042,2,0,P|148:167|144:135,1,65,2|0,0:0|1:0,0:0:0:0:
0,127,118387,2,0,B|28:142|28:142|68:131,1,65,10|0,0:1|0:0,0:0:0:0:
119,54,118732,2,0,B|151:45|151:45|179:60,1,65,2|0,0:0|1:0,0:0:0:0:
184,65,118991,1,0,1:0:0:0:
189,70,119077,5,2,1:0:0:0:
253,17,119249,1,0,1:0:0:0:
306,81,119422,1,2,0:0:0:0:
242,134,119594,1,2,1:0:0:0:
260,10,119767,2,0,P|324:6|389:1,1,130,10|0,0:1|0:0,0:0:0:0:
485,90,120284,2,0,B|457:73|457:73|412:77,1,65,2|0,1:0|0:0,0:0:0:0:
406,172,120629,2,0,B|434:189|434:189|479:185,1,65,2|0,1:0|0:0,0:0:0:0:
332,110,120973,1,2,1:0:0:0:
255,231,121146,6,0,L|261:251,1,16.25,10|0,0:1|0:0,0:0:0:0:
248,238,121318,2,0,L|254:258,1,16.25,2|0,1:0|0:0,0:0:0:0:
346,281,121491,6,0,L|340:301,1,16.25,2|0,0:0|0:0,0:0:0:0:
353,288,121663,2,0,L|347:308,1,16.25,2|0,0:0|0:0,0:0:0:0:
257,354,121836,22,0,P|192:356|127:356,1,130,2|2,1:0|0:0,0:0:0:0:
45,301,122353,2,0,P|46:268|47:236,1,65,2|8,1:0|0:1,0:0:0:0:
141,207,122698,2,0,P|139:174|138:142,1,65,2|0,0:0|0:0,0:0:0:0:
0,82,123042,2,0,P|41:104|82:80,1,97.5,2|0,1:0|0:0,0:0:0:0:
88,75,123387,2,0,P|118:62|156:62,1,65,2|0,1:0|0:0,0:0:0:0:
212,115,123732,1,0,1:0:0:0:
344,29,123905,1,8,0:1:0:0:
247,24,124077,1,0,1:0:0:0:
288,177,124249,2,0,P|291:209|294:246,1,65,2|0,0:0|1:0,0:0:0:0:
374,127,124594,5,2,1:0:0:0:
374,127,124766,1,2,1:0:0:0:
455,182,124939,1,0,0:0:0:0:
425,281,125111,2,0,P|422:313|419:350,1,65,2|8,1:0|0:1,0:0:0:0:
307,384,125456,2,0,P|304:351|301:319,1,65,2|0,0:0|0:0,0:0:0:0:
287,176,125801,6,0,P|250:147|202:149,1,97.5,2|0,1:0|0:0,0:0:0:0:
195,156,126146,1,0,1:0:0:0:
180,279,126318,2,0,P|204:258|222:231,1,65,2|0,0:0|1:0,0:0:0:0:
66,278,126663,2,0,P|71:309|86:338,1,65,10|0,0:1|1:0,0:0:0:0:
121,179,127008,6,0,P|107:174|91:172,1,32.1749999018097,2|0,0:0|0:0,0:0:0:0:
144,173,127353,21,2,1:0:0:0:
144,173,127525,1,0,1:0:0:0:
192,96,127698,1,2,0:0:0:0:
115,48,127870,1,0,1:0:0:0:
15,174,128042,1,10,0:1:0:0:
60,243,128215,2,0,B|69:273|69:273|67:286|67:286|67:306,1,65,2|0,0:0|0:0,0:0:0:0:
156,371,128561,6,0,B|163:348|173:337|173:337|163:324|160:306|160:306|166:289|169:261,1,116.999996429443,2|0,1:0|0:0,0:0:0:0:
170,253,128906,2,0,B|200:241|200:241|227:262,1,65,2|0,1:0|0:0,0:0:0:0:
302,324,129250,1,2,1:0:0:0:
355,219,129423,6,0,L|340:202,1,16.25,10|0,0:1|0:0,0:0:0:0:
338,100,129595,2,0,L|330:121,1,16.25,2|0,1:0|0:0,0:0:0:0:
244,174,129768,2,0,L|266:169,1,16.25,2|0,0:0|0:0,0:0:0:0:
417,144,129940,5,2,3:0:0:0:
422,144,130026,1,0,3:0:0:0:
426,143,130112,1,2,1:0:0:0:
487,76,130285,1,2,1:0:0:0:
316,17,130457,21,2,0:0:0:0:
338,100,130630,1,0,1:0:0:0:
191,137,130802,1,10,0:1:0:0:
173,57,130974,2,0,B|205:50|205:50|237:67,1,65,2|0,0:0|0:0,0:0:0:0:
210,216,131319,6,0,B|178:223|178:223|150:207|150:207|120:214|81:205,1,121.875,2|0,1:0|0:0,0:0:0:0:
85,198,131664,2,0,B|65:224|65:224|79:257,1,65,10|0,0:1|0:0,0:0:0:0:
119,340,132009,1,2,1:0:0:0:
236,298,132181,6,0,L|259:305,1,16.25,10|0,0:1|0:0,0:0:0:0:
243,291,132354,2,0,L|266:298,1,16.25,2|0,0:0|0:0,0:0:0:0:
316,369,132526,6,0,L|339:362,1,16.25,2|0,0:0|0:0,0:0:0:0:
323,376,132699,2,0,L|346:369,1,16.25,2|0,0:0|0:0,0:0:0:0:
413,275,132870,22,0,B|418:257|419:233|419:233|399:217|386:194|386:194|384:167|395:139,1,146.250005578995,6|0,1:1|0:0,0:0:0:0:
386,135,133185,2,0,P|377:162|378:195,1,48.750001859665,4|0,1:0|0:0,0:0:0:0:
476,43,133561,5,14,0:1:0:0:
483,32,134078,1,2,1:0:0:0:
476,43,134421,5,8,0:1:0:0:
378,15,134593,1,2,1:0:0:0:
378,15,134766,1,0,1:0:0:0:
261,133,134938,1,8,0:1:0:0:
169,62,135110,1,0,1:0:0:0:
88,107,135283,1,2,1:0:0:0:
88,107,135455,1,0,1:0:0:0:
80,218,135628,6,0,B|123:183|180:206|180:206|185:239|215:250|215:250|236:244|261:244,1,195.00000743866,6|0,1:1|0:0,0:0:0:0:
342,324,136145,1,2,1:0:0:0:
337,329,136231,1,0,1:0:0:0:
332,334,136317,2,0,L|272:324,1,48.750001859665,8|0,0:1|0:0,0:0:0:0:
27,368,136835,21,2,1:0:0:0:
260,133,137179,1,10,0:1:0:0:
266,115,137524,1,2,1:0:0:0:
81,26,137697,5,10,0:1:0:0:
190,77,137869,1,0,1:0:0:0:
266,28,138041,1,2,1:0:0:0:
333,71,138214,1,0,1:0:0:0:
273,166,138386,6,0,P|320:108|392:125,1,155.999995239258,6|0,1:1|0:0,0:0:0:0:
461,188,138904,1,0,1:0:0:0:
383,306,139076,2,0,P|305:303|227:298,1,155.999995239258,8|0,0:1|0:0,0:0:0:0:
127,264,139593,6,0,P|131:303|133:342,1,77.999997619629,0|0,1:0|0:0,0:0:0:0:
211,202,139938,1,8,0:1:0:0:
82,173,140110,1,0,0:0:0:0:
82,173,140283,1,0,1:0:0:0:
211,58,140455,1,10,0:1:0:0:
124,9,140628,1,0,1:0:0:0:
20,79,140800,2,0,P|58:81|97:82,1,77.999997619629,2|0,0:0|0:0,0:0:0:0:
319,50,141145,22,0,B|286:-4|215:21|215:21|211:58,1,155.999995239258,6|0,1:1|0:0,0:0:0:0:
196,188,141662,1,0,1:0:0:0:
322,152,141835,6,0,L|300:150,1,19.4999994049072,10|0,0:1|0:0,0:0:0:0:
329,145,142007,2,0,L|307:143,1,19.4999994049072,0|0,1:0|0:0,0:0:0:0:
286,283,142179,6,0,L|324:275,1,38.9999988098145,10|0,0:1|0:0,0:0:0:0:
468,223,142352,6,0,L|429:215,1,38.9999988098145,2|0,0:0|0:0,0:0:0:0:
424,220,142697,22,0,P|418:241|420:264,1,45.4999986114502,10|0,0:1|0:0,0:0:0:0:
425,271,142955,6,0,P|440:299|436:331,1,65,10|0,0:1|0:0,0:0:0:0:
435,339,143214,6,0,P|391:329|354:353,1,84.4999961318971,10|0,0:1|0:0,0:0:0:0:
352,354,143472,6,0,P|304:370|258:349,1,104,2|0,1:0|0:0,0:0:0:0:
251,341,143731,22,0,P|249:308|216:288,1,61.7499983510972,2|0,1:0|0:0,0:0:0:0:
140,330,143904,6,0,B|199:310|202:252|202:252|184:213|141:201|141:201|140:176|155:151|155:151|124:116|130:63,1,308.749991755486,6|0,1:1|0:0,0:0:0:0:
135,82,144421,1,0,1:0:0:0:
0,18,144593,2,0,B|40:-9|40:-9|100:1,1,97.50000371933,12|0,0:1|0:0,0:0:0:0:
298,128,144938,2,0,P|319:116|332:96,1,48.750001859665,14|0,0:1|0:0,0:0:0:0:
226,71,145110,2,0,P|269:124|328:86,1,146.250005578995,2|0,1:0|0:0,0:0:0:0:
321,85,145455,2,0,P|355:53|402:59,1,97.50000371933,8|0,0:1|0:0,0:0:0:0:
481,136,145800,1,0,1:0:0:0:
402,266,145972,2,0,P|394:221|390:169,1,97.50000371933,8|0,0:1|0:0,0:0:0:0:
490,337,146317,6,0,P|474:354|452:366,1,48.750001859665,2|0,0:0|0:0,0:0:0:0:
444,370,146490,2,0,P|425:355|402:348,1,48.750001859665,2|0,0:0|0:0,0:0:0:0:
273,384,146662,6,0,B|252:344|260:309|260:309|285:291|293:269|293:269|285:237|287:201,1,195.00000743866,6|0,1:1|0:0,0:0:0:0:
312,90,147179,1,0,1:0:0:0:
137,161,147352,2,0,P|183:162|209:124,1,97.50000371933,8|0,0:1|0:0,0:0:0:0:
61,117,147697,2,0,P|48:140|45:167,1,48.750001859665,2|0,0:0|0:0,0:0:0:0:
77,296,147869,2,0,B|106:262|96:200|55:217|36:158|71:117,1,195.00000743866,2|8,1:0|0:1,0:0:0:0:
181,337,148386,22,0,P|210:332|232:321,1,48.750001859665,2|0,0:0|0:0,0:0:0:0:
297,232,148559,2,0,P|292:248|289:266,1,32.5,2|0,1:0|0:0,0:0:0:0:
288,384,148731,6,0,P|303:365|316:343,1,40.625,10|0,0:1|0:0,0:0:0:0:
287,225,148904,2,0,P|283:240|282:259,1,32.5,2|0,1:0|0:0,0:0:0:0:
402,334,149076,6,0,P|389:313|373:292,1,40.625,2|0,0:0|0:0,0:0:0:0:
281,215,149248,2,0,P|273:238|274:262,1,48.750001859665,2|0,0:0|0:0,0:0:0:0:
436,180,149421,6,0,B|385:216|335:186|357:152|297:128|256:146,1,195.00000743866,6|0,1:1|0:0,0:0:0:0:
274,262,149938,1,0,1:0:0:0:
90,129,150110,2,0,P|137:119|185:107,1,97.50000371933,12|0,0:1|0:0,0:0:0:0:
286,12,150455,2,0,P|276:32|269:60,1,48.750001859665,10|0,0:1|0:0,0:0:0:0:
372,66,150628,2,0,B|374:11|331:-14|331:-14|304:-4|285:27,1,146.250005578995,2|0,1:0|0:0,0:0:0:0:
296,22,150972,2,0,P|282:67|321:136,1,97.50000371933,8|0,0:1|0:0,0:0:0:0:
369,206,151317,1,2,1:0:0:0:
462,77,151490,2,0,P|418:56|371:65,1,97.50000371933,8|0,0:1|1:0,0:0:0:0:
228,205,151835,22,0,P|206:188|191:163,1,48.750001859665,2|0,0:0|0:0,0:0:0:0:
189,164,152007,2,0,P|180:142|176:118,1,48.750001859665,2|0,0:0|0:0,0:0:0:0:
130,11,152179,2,0,P|126:35|116:57,1,48.750001859665,6|0,1:1|0:0,0:0:0:0:
7,161,152352,6,0,P|66:128|101:184,1,146.250005578995,2|0,0:0|0:0,0:0:0:0:
96,189,152697,1,2,1:0:0:0:
25,41,152869,1,8,0:1:0:0:
116,57,153041,2,0,B|151:76|180:63|180:63|178:71|178:71|203:33|252:39,1,146.250005578995,2|0,0:0|0:0,0:0:0:0:
286,89,153386,6,0,P|229:50|181:101,1,146.250005578995,2|0,1:0|0:0,0:0:0:0:
176,103,153731,2,0,P|185:150|190:199,1,97.50000371933,8|0,0:1|0:0,0:0:0:0:
131,287,154076,1,0,1:0:0:0:
298,335,154248,1,8,0:1:0:0:
197,371,154421,1,0,1:0:0:0:
295,228,154593,6,0,P|325:229|355:243,1,58.4999982147217,2|0,0:0|0:0,0:0:0:0:
388,313,154938,22,0,B|350:289|351:240|351:240|384:227|396:188,1,146.250005578995,6|0,1:1|0:0,0:0:0:0:
397,188,155283,6,0,P|402:172|402:156,1,32.5,2|0,0:0|0:0,0:0:0:0:
399,146,155455,2,0,P|393:126|380:110,1,40.625,2|0,1:0|0:0,0:0:0:0:
260,25,155628,6,0,P|288:23|315:32,1,48.750001859665,10|0,0:1|0:0,0:0:0:0:
316,33,155800,2,0,P|302:47|292:65,1,40.625,0|2,0:0|0:0,0:0:0:0:
301,165,155972,1,12,0:1:0:0:
215,110,156145,6,0,P|201:147|203:188,1,81.25,2|0,1:0|0:0,0:0:0:0:
208,198,156404,2,0,P|178:170|136:162,1,81.25,2|0,0:0|0:0,0:0:0:0:
129,163,156662,2,0,P|108:167|91:176,1,40.625,2|0,0:0|0:0,0:0:0:0:
84,183,156835,2,0,P|70:200|62:219,1,40.625,2|0,1:0|0:0,0:0:0:0:
88,305,157007,22,0,B|140:346|196:302|196:302|171:296|155:277|155:277|153:254|141:243,1,204.749993751526,10|0,0:1|0:0,0:0:0:0:
0,84,157697,6,0,B|44:102|79:91|79:91|89:78|106:67|106:67|124:73|151:66,1,162.5,6|0,1:1|0:0,0:0:0:0:
307,158,158214,1,2,1:0:0:0:
302,163,158300,1,2,0:0:0:0:
297,168,158386,2,0,B|291:147|291:147|293:118,1,40.625,10|0,0:1|0:0,0:0:0:0:
424,67,158559,2,0,B|430:88|430:88|428:117,1,40.625,2|0,0:0|0:0,0:0:0:0:
361,254,158731,6,0,B|438:225|438:225|511:275,1,162.5,6|0,1:1|0:0,0:0:0:0:
423,341,159248,1,10,0:1:0:0:
297,168,159421,1,2,0:0:0:0:
214,245,159593,2,0,P|237:247|261:239,1,40.625,2|0,1:0|0:0,0:0:0:0:
137,162,159766,2,0,P|135:185|143:209,1,40.625,10|0,0:1|0:0,0:0:0:0:
220,85,159938,2,0,P|197:83|173:91,1,40.625,2|0,1:0|0:0,0:0:0:0:
297,168,160110,6,0,P|299:145|291:121,1,40.2674996743504,2|0,0:0|0:0,0:0:0:0:
220,85,160455,22,0,B|258:45|303:35|303:35|347:49|375:95,1,195.00000743866,6|0,1:1|0:0,0:0:0:0:
407,208,160972,1,2,1:0:0:0:
214,245,161145,2,0,B|188:232|168:228|168:228|149:234|126:252,1,97.50000371933,8|0,0:1|0:0,0:0:0:0:
32,367,161490,6,0,B|73:313|33:264|33:264|34:272|34:272|28:247|38:215|38:215|16:187|21:145,1,243.750009298325,14|0,0:1|0:0,0:0:0:0:
23,144,162007,6,0,P|34:130|41:115,1,24.3750009298325,10|0,0:1|0:0,0:0:0:0:
109,44,162179,2,0,P|115:57|121:75,1,27.6250005269051,2|0,0:0|0:0,0:0:0:0:
160,189,162352,2,0,P|172:172|183:155,1,30.8749991755486,2|0,1:0|0:0,0:0:0:0:
274,34,162524,5,10,0:1:0:0:
292,127,162697,1,2,1:0:0:0:
269,29,162869,1,2,0:0:0:0:
160,189,163041,1,2,0:0:0:0:
426,269,163214,21,6,0:1:0:0:
411,179,163386,1,2,0:0:0:0:
341,237,163559,1,2,0:0:0:0:
450,277,163731,5,2,1:0:0:0:
406,153,163904,1,10,0:1:0:0:
321,253,164076,1,2,0:0:0:0:
456,384,164248,6,0,B|462:304|462:304|497:275|497:275|504:192,1,208,6|0,1:1|0:0,0:0:0:0:
377,57,164766,1,10,0:1:0:0:
275,142,164938,5,0,0:0:0:0:
254,129,165110,1,2,1:0:0:0:
224,48,165283,21,10,0:1:0:0:
297,0,165455,1,2,0:0:0:0:
367,153,165628,1,2,1:0:0:0:
196,207,165800,1,10,0:1:0:0:
377,57,165972,6,0,P|422:59|467:63,1,90.9999972229005,6|0,1:1|0:0,0:0:0:0:
317,334,166490,2,0,P|271:337|226:340,1,90.9999972229005,6|0,1:0|0:0,0:0:0:0:
63,63,167007,37,6,1:0:0:0:
256,192,167093,12,0,169076,0:0:0:0:
485,316,170110,6,0,B|433:299|390:299,1,90.9999972229005,2|0,0:0|0:0,0:0:0:0:
202,383,170800,6,0,B|202:345|218:293,1,90.9999972229005,2|0,0:0|0:0,0:0:0:0:
197,199,171317,1,2,0:0:0:0:
197,199,171662,5,0,0:0:0:0:
306,289,171835,1,2,0:0:0:0:
306,289,172179,6,0,B|305:251|289:199,1,90.9999972229005,2|0,0:0|0:0,0:0:0:0:
243,106,172697,1,0,0:0:0:0:
338,97,172869,22,0,B|286:113|248:113,1,90.9999972229005,2|0,0:0|0:0,0:0:0:0:
21,37,173559,2,0,P|46:70|36:118,1,90.9999972229005,2|0,0:0|0:0,0:0:0:0:
120,232,174076,2,0,P|115:203|127:175,1,45.4999986114502,2|0,0:0|0:0,0:0:0:0:
45,124,174421,1,0,0:0:0:0:
6,220,174593,1,2,0:0:0:0:
6,220,174938,6,0,B|36:271|36:271|17:325,1,113.749996528626,2|0,0:0|0:0,0:0:0:0:
4,327,175455,1,2,0:0:0:0:
119,375,175628,22,0,B|161:350|161:350|206:365,1,90.9999972229005,2|0,0:0|0:0,0:0:0:0:
402,291,176317,2,0,B|359:315|359:315|320:302,1,90.9999972229005,2|2,0:0|0:0,0:0:0:0:
207,356,176835,1,2,0:0:0:0:
207,356,177179,21,0,0:0:0:0:
193,233,177352,1,0,0:0:0:0:
193,233,177697,6,0,B|221:208|245:210|245:210|271:223|297:222,1,90.9999972229005,2|0,0:0|0:0,0:0:0:0:
312,139,178214,1,0,0:0:0:0:
401,144,178386,6,0,B|373:119|349:121|349:121|323:134|297:133,1,90.9999972229005,2|0,0:0|0:0,0:0:0:0:
486,291,179076,2,0,B|495:239|490:195,1,90.9999972229005,2|0,0:0|0:0,0:0:0:0:
401,144,179593,2,0,B|395:112|398:86,1,45.4999986114502,2|0,0:0|0:0,0:0:0:0:
379,14,179938,1,0,0:0:0:0:
287,52,180110,1,2,0:0:0:0:
287,52,180455,38,0,P|226:78|202:135,1,113.749996528626,2|0,0:0|0:0,0:0:0:0:
212,126,180972,1,0,0:0:0:0:
43,139,181145,6,0,P|92:160|111:206,1,90.9999972229005,2|0,0:0|0:0,0:0:0:0:
24,367,181835,2,0,B|64:327|44:333|102:335,1,90.9999972229005,2|0,0:0|0:0,0:0:0:0:
182,263,182352,1,2,0:0:0:0:
182,263,182697,5,0,0:0:0:0:
259,351,182869,2,0,P|301:348|333:320,1,68.2499979171754,2|0,0:0|0:0,0:0:0:0:
330,326,183214,2,0,P|368:325|409:328,1,68.2499979171754,2|0,0:0|0:0,0:0:0:0:
405,334,183559,1,2,0:0:0:0:
477,251,183731,1,0,0:0:0:0:
358,181,183904,6,0,P|306:180|255:185,1,90.9999972229005,2|0,0:0|0:0,0:0:0:0:
143,23,184593,2,0,P|168:60|190:100,1,90.9999972229005,2|0,0:0|0:0,0:0:0:0:
156,208,185110,1,2,0:0:0:0:
156,208,185455,21,0,0:0:0:0:
42,320,185628,2,0,P|83:305|125:295,1,68.2499979171754,2|0,0:0|0:0,0:0:0:0:
174,324,185972,2,0,P|141:327|110:295,1,68.2499979171754,2|0,0:0|0:0,0:0:0:0:
121,299,186317,1,2,0:0:0:0:
241,354,186490,1,0,0:0:0:0:
277,211,186662,6,0,B|297:183|327:170|327:170|361:174|391:199,1,130,2|0,0:0|0:0,0:0:0:0:
393,202,187179,1,2,0:0:0:0:
491,114,187352,6,0,B|470:131|442:134|442:134|418:123|401:100,1,104,2|0,0:0|0:0,0:0:0:0:
240,64,187869,6,0,B|198:50|160:86|183:102|142:140|104:126,1,162.5,2|0,0:0|0:0,0:0:0:0:
98,120,188386,1,2,0:0:0:0:
98,120,188731,22,0,L|105:195,1,52,2|0,0:0|0:0,0:0:0:0:
235,151,189076,1,2,0:0:0:0:
235,151,189248,1,0,0:0:0:0:
113,299,189420,22,0,B|174:321|208:292|208:292|227:294|227:294|251:279|282:274|282:274|308:279|340:301,1,233.999992858887,6|0,1:0|1:0,0:0:0:0:
340,304,190024,1,0,1:0:0:0:
347,312,190110,1,10,1:1:0:0:
276,374,190283,1,0,1:0:0:0:
150,192,190455,2,0,L|157:240,1,38.9999988098145,10|0,0:1|0:0,0:0:0:0:
354,319,190628,2,0,L|359:280,1,38.9999988098145,6|0,1:1|0:0,0:0:0:0:
494,57,191145,6,0,P|460:49|425:66,1,65,2|0,0:0|0:0,0:0:0:0:
322,127,191662,22,0,P|338:133|357:134,1,32.5,2|0,0:0|0:0,0:0:0:0:
487,64,192180,6,0,B|441:41|397:86|422:98|379:146|324:116,1,181.999994445801,6|0,1:1|0:0,0:0:0:0:
236,45,192697,1,2,1:0:0:0:
170,187,192869,2,0,B|224:162|207:162|267:192,1,90.9999972229005,12|0,0:1|0:0,0:0:0:0:
84,307,193214,1,10,0:1:0:0:
34,235,193386,22,0,P|33:172|40:77,1,136.499995834351,0|0,1:0|0:0,0:0:0:0:
45,91,193731,1,8,0:1:0:0:
236,45,193903,2,0,B|182:20|199:20|139:50,1,90.9999972229005,0|0,0:1|1:0,0:0:0:0:
174,194,194248,1,10,0:1:0:0:
279,137,194421,1,0,0:0:0:0:
291,305,194593,2,0,P|267:266|255:194,1,90.9999972229005,2|0,0:0|0:0,0:0:0:0:
436,66,194938,22,0,B|457:102|447:160|412:143|393:195|424:237,1,181.999994445801,6|0,1:1|0:0,0:0:0:0:
492,195,195455,1,0,1:0:0:0:
369,105,195628,2,0,P|315:108|276:140,1,90.9999972229005,10|0,0:1|0:0,0:0:0:0:
416,243,195972,1,8,0:1:0:0:
291,305,196145,2,0,P|222:300|154:301,1,136.499995834351,2|0,1:0|0:0,0:0:0:0:
147,308,196490,1,8,0:1:0:0:
46,192,196662,2,0,B|91:168|91:168|148:184,1,90.9999972229005,2|0,0:0|0:0,0:0:0:0:
5,267,197007,1,8,0:1:0:0:
147,308,197179,6,0,B|102:332|102:332|45:316,1,90.9999972229005,2|0,1:0|0:0,0:0:0:0:
291,217,197697,6,0,B|253:199|222:202|222:202|228:153|208:117|171:96,1,181.999994445801,6|0,1:1|0:0,0:0:0:0:
129,178,198214,1,2,1:0:0:0:
291,305,198386,2,0,B|262:290|240:291|240:291|222:304|209:325,1,90.9999972229005,8|0,0:1|0:0,0:0:0:0:
397,382,198731,1,10,0:1:0:0:
446,299,198903,38,0,B|448:249|448:249|436:222|436:222|437:126,1,136.499995834351,0|0,1:0|0:0,0:0:0:0:
443,157,199248,1,8,0:1:0:0:
337,56,199421,2,0,P|343:103|347:175,1,90.9999972229005,2|0,0:0|1:0,0:0:0:0:
234,230,199766,1,8,0:1:0:0:
339,154,199938,1,0,1:0:0:0:
231,6,200110,2,0,P|224:51|221:96,1,90.9999972229005,2|0,0:0|0:0,0:0:0:0:
301,312,200455,6,0,B|336:292|336:254|336:254|298:214|233:230,1,181.999994445801,6|0,1:1|0:0,0:0:0:0:
165,314,200972,1,0,1:0:0:0:
39,217,201145,2,0,B|68:232|90:231|90:231|108:218|121:197,1,90.9999972229005,10|0,0:1|0:0,0:0:0:0:
0,109,201490,1,8,0:1:0:0:
39,217,201662,6,0,P|43:285|42:353,1,136.499995834351,2|0,1:0|0:0,0:0:0:0:
34,360,202007,1,8,0:1:0:0:
165,314,202179,2,0,P|215:292|269:311,1,90.9999972229005,2|0,0:0|1:0,0:0:0:0:
322,384,202524,1,8,0:1:0:0:
420,270,202697,6,0,P|375:275|335:254,1,90.9999972229005,2|0,1:0|0:0,0:0:0:0:
512,380,203214,22,0,B|489:350|470:334|470:334|488:315|494:294|494:294|499:276|495:252|495:252|490:228|469:191,1,181.999994445801,6|0,1:1|0:0,0:0:0:0:
326,69,203731,1,2,1:0:0:0:
194,177,203903,2,0,B|230:159|255:135|255:135|281:152|337:163,1,136.499995834351,14|0,0:1|0:0,0:0:0:0:
319,164,204248,1,8,0:1:0:0:
170,84,204421,2,0,P|124:72|49:84,1,90.9999972229005,2|0,1:0|0:0,0:0:0:0:
22,233,204766,1,0,1:0:0:0:
106,314,204938,6,0,P|118:268|106:193,1,90.9999972229005,2|0,0:0|1:0,0:0:0:0:
245,261,205283,1,8,0:1:0:0:
247,356,205455,6,0,P|235:310|247:235,1,90.9999972229005,2|0,1:0|0:0,0:0:0:0:
320,222,205886,1,0,1:0:0:0:
315,228,205972,6,0,P|328:282|455:255,1,181.999994445801,6|0,1:1|0:0,0:0:0:0:
502,132,206490,1,2,1:0:0:0:
395,218,206662,2,0,P|407:172|395:97,1,90.9999972229005,10|0,0:1|0:0,0:0:0:0:
509,139,207007,1,8,0:1:0:0:
424,33,207179,22,0,B|385:17|366:31|366:31|363:27|363:27|334:70|270:46,1,136.499995834351,2|0,1:0|0:0,0:0:0:0:
294,47,207524,1,8,0:1:0:0:
187,164,207697,2,0,P|253:159|287:196,1,90.9999972229005,2|0,0:0|1:0,0:0:0:0:
395,218,208041,1,8,0:1:0:0:
366,306,208214,1,2,1:0:0:0:
242,358,208386,1,0,0:0:0:0:
173,150,208559,1,0,1:0:0:0:
180,157,208645,1,0,1:0:0:0:
190,166,208731,6,0,P|242:142|179:52,1,181.999994445801,6|0,1:0|0:0,0:0:0:0:
14,131,209248,1,2,1:0:0:0:
86,315,209421,2,0,P|90:257|89:200,1,90.9999972229005,8|0,0:1|0:0,0:0:0:0:
404,132,209766,6,0,B|349:125|300:175|332:195|280:249|228:233,1,208,10|0,0:1|0:0,0:0:0:0:
242,358,210283,1,8,0:1:0:0:
399,308,210455,2,0,P|394:250|395:193,1,104,2|0,0:0|0:0,0:0:0:0:
467,174,210714,5,0,1:0:0:0:
474,167,210800,2,0,P|473:219|469:271,1,90.9999972229005,8|0,0:1|1:0,0:0:0:0:
404,132,211145,1,2,0:0:0:0:
304,204,211317,1,0,0:0:0:0:
479,54,211490,22,0,B|429:33|388:28|388:28|339:45|305:85,1,181.999994445801,6|0,1:1|0:0,0:0:0:0:
297,211,212007,1,0,1:0:0:0:
141,102,212179,2,0,B|170:117|192:116|192:116|210:103|223:82,1,90.9999972229005,10|0,0:1|0:0,0:0:0:0:
57,45,212524,1,8,0:1:0:0:
25,191,212697,6,0,P|95:190|166:197,1,136.499995834351,2|0,1:0|0:0,0:0:0:0:
168,203,213041,1,8,0:1:0:0:
21,349,213214,2,0,B|91:320|91:320|164:351,1,136.499995834351,2|0,0:0|0:0,0:0:0:0:
153,350,213559,1,8,0:1:0:0:
235,282,213731,6,0,P|281:277|324:299,1,90.9999972229005,2|0,1:0|0:0,0:0:0:0:
382,354,214162,1,0,1:0:0:0:
388,361,214249,6,0,B|392:302|425:267|425:267|426:269|426:269|439:227|420:185,1,181.999994445801,6|0,1:1|0:0,0:0:0:0:
478,57,214766,1,2,1:0:0:0:
269,67,214938,2,0,B|327:55|312:50|354:86,1,90.9999972229005,14|0,0:1|0:0,0:0:0:0:
239,176,215283,1,10,0:1:0:0:
157,112,215455,22,0,P|82:119|69:202,1,136.499995834351,0|0,1:0|0:0,0:0:0:0:
66,178,215800,1,8,0:1:0:0:
165,280,215972,2,0,P|162:231|127:164,1,90.9999972229005,2|0,0:0|1:0,0:0:0:0:
32,365,216317,1,8,0:1:0:0:
82,261,216490,1,0,1:0:0:0:
247,314,216662,2,0,P|208:290|164:279,1,90.9999972229005,2|0,0:0|0:0,0:0:0:0:
369,384,217007,6,0,B|410:352|422:310|422:310|410:263|370:225,1,181.999994445801,6|0,1:1|0:0,0:0:0:0:
481,100,217524,1,0,1:0:0:0:
293,184,217697,2,0,P|324:145|389:143,1,90.9999972229005,10|0,0:1|0:0,0:0:0:0:
280,273,218041,1,8,0:1:0:0:
186,166,218214,6,0,P|185:96|192:25,1,136.499995834351,2|0,1:0|0:0,0:0:0:0:
191,29,218559,1,8,0:1:0:0:
369,142,218731,2,0,P|365:96|356:52,1,90.9999972229005,2|0,0:0|0:0,0:0:0:0:
186,166,219076,1,8,0:1:0:0:
280,273,219248,6,0,P|283:227|292:183,1,90.9999972229005,2|0,1:0|0:0,0:0:0:0:
194,369,219766,22,0,B|184:306|156:265|156:265|111:257|87:275,1,181.999994445801,4|0,1:1|0:0,0:0:0:0:
109,350,220283,1,2,1:0:0:0:
26,200,220455,2,0,P|28:154|37:109,1,90.9999972229005,8|0,0:1|0:0,0:0:0:0:
209,143,220800,1,10,0:1:0:0:
110,27,220972,6,0,B|129:43|163:56|163:56|202:51|232:28,1,136.499995834351,0|0,1:0|0:0,0:0:0:0:
239,21,221317,1,8,0:1:0:0:
394,106,221490,2,0,B|343:120|343:120|301:87,1,90.9999972229005,2|0,0:0|1:0,0:0:0:0:
481,29,221835,1,8,0:1:0:0:
449,195,222007,1,0,1:0:0:0:
306,89,222179,2,0,B|312:189|312:188,1,90.9999972229005,2|0,0:0|1:0,0:0:0:0:
243,378,222524,6,0,B|306:368|290:290|290:290|256:277|239:237,1,181.999994445801,6|0,1:1|0:0,0:0:0:0:
140,279,223041,1,0,1:0:0:0:
304,186,223214,2,0,P|260:165|196:176,1,90.9999972229005,10|0,0:1|0:0,0:0:0:0:
133,285,223559,1,8,0:1:0:0:
49,184,223731,6,0,P|42:116|43:47,1,136.499995834351,2|0,1:0|0:0,0:0:0:0:
50,40,224076,1,8,0:1:0:0:
169,145,224248,2,0,L|180:55,1,90.9999972229005,2|0,0:0|0:1,0:0:0:0:
220,249,224593,1,8,0:1:0:0:
304,186,224766,22,0,L|292:87,1,90.9999972229005,2|0,0:0|0:0,0:0:0:0:
351,317,225283,6,0,B|332:282|354:252|354:252|398:212|475:250,1,181.999994445801,6|0,1:1|0:0,0:0:0:0:
286,366,225800,1,2,1:0:0:0:
220,249,225972,2,0,P|151:252|85:264,1,136.499995834351,10|0,0:1|0:0,0:0:0:0:
78,271,226317,1,8,0:1:0:0:
195,372,226490,2,0,P|258:369|319:358,1,90.9999972229005,2|0,0:1|0:0,0:0:0:0:
368,242,226835,1,8,0:1:0:0:
148,141,227007,6,0,B|167:152|182:168|182:168|201:161|228:160,1,90.9999972229005,2|0,0:0|1:0,0:0:0:0:
295,38,227352,1,8,0:1:0:0:
413,159,227524,6,0,B|393:147|378:131|378:131|359:138|332:139,1,90.9999972229005,2|2,1:0|1:0,0:0:0:0:
362,236,227955,1,2,1:0:0:0:
368,242,228041,2,0,P|426:261|503:170,1,181.999994445801,6|0,1:1|0:0,0:0:0:0:
487,52,228559,1,2,1:0:0:0:
295,38,228731,2,0,P|342:32|383:68,1,90.9999972229005,10|0,0:1|0:0,0:0:0:0:
332,138,229076,1,8,0:1:0:0:
226,120,229248,2,0,P|157:123|91:135,1,136.499995834351,2|0,1:0|0:0,0:0:0:0:
84,143,229593,1,8,0:1:0:0:
179,292,229766,2,0,P|176:242|168:195,1,90.9999972229005,2|0,0:0|1:0,0:0:0:0:
101,334,230110,21,8,0:1:0:0:
220,367,230283,1,2,1:0:0:0:
334,312,230455,1,0,0:0:0:0:
226,120,230628,1,0,1:0:0:0:
219,127,230714,1,0,1:0:0:0:
211,136,230800,6,0,B|259:171|307:153|307:153|357:146|392:193,1,181.999994445801,6|0,1:1|0:0,0:0:0:0:
334,312,231317,1,2,1:0:0:0:
512,294,231490,2,0,P|464:294|409:253,1,90.9999972229005,8|0,0:1|0:0,0:0:0:0:
42,129,231835,6,0,B|97:122|146:172|114:192|166:246|218:233,1,208,10|0,0:1|0:0,0:0:0:0:
308,153,232352,1,8,0:1:0:0:
201,45,232524,2,0,P|208:89|210:135,1,90.9999972229005,2|0,0:0|1:0,0:0:0:0:
159,322,232869,1,8,0:1:0:0:
51,210,233041,1,0,1:0:0:0:
54,322,233214,1,2,0:0:0:0:
247,361,233386,1,0,1:0:0:0:
254,354,233472,1,0,1:0:0:0:
260,347,233559,6,0,B|289:309|331:326|333:328|335:330|382:354|405:326|405:326|368:312,1,181.999994445801,6|2,1:1|0:0,0:0:0:0:
478,222,234076,2,0,L|428:207,1,45.4999986114502,0|0,1:0|1:0,0:0:0:0:
244,137,234248,1,6,1:1:0:0:
365,99,234421,1,0,0:0:0:0:
142,15,234593,1,6,1:1:0:0:
51,210,234766,22,0,B|108:192|148:196|148:196|183:212|215:252,1,181.999994445801,2|8,1:0|0:1,0:0:0:0:
112,379,235283,2,0,P|113:333|120:288,1,90.9999972229005,2|0,1:0|0:0,0:0:0:0:
353,254,235628,5,12,0:1:0:0:
339,369,235800,1,2,0:0:0:0:
218,255,235972,5,8,1:1:0:0:
331,139,236145,1,8,0:1:0:0:
449,324,236317,6,0,P|459:260|472:133,1,181.999994445801,6|0,1:1|0:0,0:0:0:0:
418,47,236835,1,2,1:0:0:0:
206,164,237007,2,0,P|211:210|218:255,1,90.9999972229005,6|0,1:1|0:0,0:0:0:0:
268,48,237352,1,6,1:1:0:0:
157,74,237524,22,0,B|125:94|83:67|104:59|70:34|33:41,1,136.499995834351,0|0,1:0|0:0,0:0:0:0:
25,48,237869,1,8,0:1:0:0:
34,147,238041,1,2,0:0:0:0:
34,147,238214,1,0,1:0:0:0:
218,255,238386,1,10,0:1:0:0:
137,333,238559,1,0,1:0:0:0:
28,248,238731,2,0,P|73:243|118:241,1,90.9999972229005,2|0,0:0|0:0,0:0:0:0:
401,373,239076,6,0,P|318:364|318:281,1,181.999994445801,6|0,1:1|0:0,0:0:0:0:
443,256,239593,1,0,1:0:0:0:
359,101,239766,2,0,P|361:146|365:191,1,90.9999972229005,14|0,1:1|0:0,0:0:0:0:
258,60,240110,1,8,0:1:0:0:
260,189,240283,2,0,P|256:120|250:52,1,136.499995834351,2|0,1:0|0:0,0:0:0:0:
243,45,240628,1,8,0:1:0:0:
348,0,240800,1,2,0:0:0:0:
455,49,240972,1,0,1:0:0:0:
260,189,241145,2,0,L|209:177,1,45.4999986114502,8|0,1:1|0:0,0:0:0:0:
73,114,241317,6,0,L|117:103,1,45.5000005554199,6|0,1:0|0:0,0:0:0:0:
60,199,241835,38,0,B|17:170|17:104|60:77|60:77|73:114,1,181.999994445801,6|0,1:1|0:0,0:0:0:0:
145,238,242352,1,2,1:0:0:0:
87,366,242524,2,0,P|43:357|-1:351,1,90.9999972229005,12|0,0:1|0:0,0:0:0:0:
152,248,242869,1,10,0:1:0:0:
216,337,243041,6,0,P|283:326|350:315,1,136.499995834351,2|0,1:0|0:0,0:0:0:0:
357,322,243386,1,8,0:1:0:0:
470,364,243559,2,0,B|493:324|493:324|479:281,1,90.9999972229005,2|0,0:0|1:0,0:0:0:0:
345,132,243903,1,8,0:1:0:0:
365,230,244076,1,0,1:0:0:0:
460,176,244248,2,0,P|467:135|471:85,1,90.9999972229005,2|0,0:0|0:0,0:0:0:0:
241,0,244593,6,0,B|272:27|263:65|263:65|240:91|242:123,1,136.499995834351,6|0,1:1|0:0,0:0:0:0:
283,157,244938,2,0,P|266:138|230:127,1,45.4999986114502,2|0,0:0|0:0,0:0:0:0:
175,231,245110,2,0,P|195:220|209:203,1,45.4999986114502,2|0,1:0|0:0,0:0:0:0:
154,63,245283,2,0,B|89:57|100:131|26:107,1,136.499995834351,10|0,0:1|0:0,0:0:0:0:
26,102,245628,1,8,0:1:0:0:
66,251,245800,2,0,P|114:199|174:228,1,136.499995834351,2|0,1:0|0:0,0:0:0:0:
175,231,246145,1,8,0:1:0:0:
289,339,246317,2,0,P|295:297|266:251,1,90.9999972229005,2|0,0:0|1:0,0:0:0:0:
380,384,246662,1,8,0:1:0:0:
424,223,246835,6,0,P|418:265|447:311,1,90.9999972229005,2|0,1:0|0:0,0:0:0:0:
510,149,247352,38,0,B|451:79|375:131|375:131|404:131,1,181.999994445801,6|0,1:1|0:0,0:0:0:0:
512,37,247869,1,2,1:0:0:0:
360,1,248041,2,0,P|292:7|223:11,1,136.499995834351,14|0,1:1|0:0,0:0:0:0:
216,4,248386,1,8,0:1:0:0:
146,153,248559,2,0,P|182:126|226:128,1,90.9999972229005,0|0,1:0|0:0,0:0:0:0:
374,236,248903,1,8,0:1:0:0:
227,305,249076,2,0,L|207:212,1,90.9999972229005,2|0,0:0|0:0,0:0:0:0:
157,384,249421,1,8,0:1:0:0:
42,254,249594,22,0,L|61:342,1,90.9999972229005,2|0,1:0|0:0,0:0:0:0:
107,170,250110,22,0,B|87:99|43:58|43:58|68:77|97:78,1,181.999994445801,6|0,1:1|0:0,0:0:0:0:
202,111,250628,1,0,1:0:0:0:
322,10,250800,2,0,B|279:45|300:28|183:17,1,136.499995834351,10|0,0:1|0:0,0:0:0:0:
182,15,251145,1,8,0:1:0:0:
311,140,251317,2,0,B|354:105|333:122|450:133,1,136.499995834351,2|0,1:0|0:0,0:0:0:0:
451,135,251662,1,8,0:1:0:0:
382,300,251835,2,0,P|374:256|369:210,1,90.9999972229005,2|0,0:0|1:0,0:0:0:0:
403,31,252179,1,8,0:1:0:0:
244,78,252352,2,0,P|236:122|231:168,1,90.9999972229005,2|0,1:0|0:0,0:0:0:0:
271,358,252697,22,0,P|278:336|276:314,1,45.4999986114502,2|0,0:0|0:0,0:0:0:0:
163,336,252869,2,0,P|230:380|266:308,1,181.999994445801,6|0,1:1|0:0,0:0:0:0:
172,242,253386,1,2,1:0:0:0:
22,294,253559,2,0,P|24:339|27:387,1,90.9999972229005,14|0,1:1|0:0,0:0:0:0:
76,176,253903,1,10,0:1:0:0:
172,242,254077,6,0,P|176:164|180:87,1,136.499995834351,0|0,1:0|0:0,0:0:0:0:
172,98,254422,1,8,0:1:0:0:
276,180,254593,2,0,P|321:175|366:168,1,90.9999972229005,2|0,0:0|1:0,0:0:0:0:
476,285,254938,2,0,P|431:277|385:273,1,90.9999972229005,8|0,0:1|0:0,0:0:0:0:
292,340,255283,1,2,0:0:0:0:
202,173,255455,1,8,0:1:0:0:
344,79,255628,1,2,1:0:0:0:
241,0,255800,2,0,P|246:45|251:90,1,90.9999972229005,8|0,0:1|0:0,0:0:0:0:
443,146,256145,21,0,1:0:0:0:
447,124,256231,1,0,1:0:0:0:
450,101,256317,2,0,P|404:55|343:78,1,136.499995834351,6|0,1:1|0:0,0:0:0:0:
339,89,256662,1,8,0:1:0:0:
61,134,256835,2,0,P|98:81|161:93,1,136.499995834351,2|0,1:0|0:0,0:0:0:0:
168,102,257179,1,8,0:1:0:0:
263,219,257352,21,2,0:0:0:0:
263,219,257524,1,0,1:0:0:0:
146,366,257697,2,0,P|78:357|11:344,1,136.499995834351,8|0,0:1|0:0,0:0:0:0:
6,336,258041,1,8,0:1:0:0:
139,195,258214,1,8,1:1:0:0:
320,324,258386,6,0,B|361:272|275:205|202:301,1,181.999994445801,6|0,1:1|0:0,0:0:0:0:
243,384,258904,1,2,1:0:0:0:
417,253,259076,2,0,P|414:184|408:116,1,136.499995834351,14|0,1:1|0:0,0:0:0:0:
401,111,259421,1,8,0:1:0:0:
337,17,259593,22,0,P|382:22|427:26,1,90.9999972229005,2|0,1:0|0:0,0:0:0:0:
205,127,259938,2,0,P|250:121|295:117,1,90.9999972229005,8|0,0:1|0:0,0:0:0:0:
356,196,260283,1,0,1:0:0:0:
219,323,260455,1,8,0:1:0:0:
307,363,260628,2,0,P|315:318|301:275,1,90.9999972229005,0|0,1:0|0:0,0:0:0:0:
214,234,260972,1,0,0:0:0:0:
42,323,261145,38,0,B|106:314|106:314|152:333|152:333|218:322,1,181.999994445801,6|0,1:1|0:0,0:0:0:0:
302,276,261662,1,0,1:0:0:0:
426,384,261835,2,0,P|432:316|435:247,1,136.499995834351,10|0,0:1|0:0,0:0:0:0:
429,238,262179,1,8,0:1:0:0:
295,185,262352,2,0,P|298:230|302:276,1,90.9999972229005,2|0,1:0|0:0,0:0:0:0:
413,110,262697,1,8,0:1:0:0:
306,86,262869,21,2,0:0:0:0:
306,86,263041,1,0,1:0:0:0:
180,253,263214,1,8,0:1:0:0:
105,197,263386,1,2,1:0:0:0:
213,70,263559,1,0,1:0:0:0:
199,159,263731,1,0,1:0:0:0:
38,18,263904,6,0,B|99:3|99:3|124:6|124:6|179:-8|179:-8|155:0|143:23,1,181.999994445801,6|0,1:1|0:0,0:0:0:0:
124,101,264421,1,2,1:0:0:0:
295,144,264593,2,0,P|288:82|218:65,1,136.499995834351,14|0,1:1|0:0,0:0:0:0:
213,70,264938,1,8,0:1:0:0:
199,159,265110,6,0,P|204:227|207:295,1,136.499995834351,2|0,1:0|0:0,0:0:0:0:
204,302,265455,1,8,0:1:0:0:
376,245,265628,1,0,0:0:0:0:
389,338,265800,1,0,1:0:0:0:
295,200,265972,1,8,0:1:0:0:
410,162,266145,2,0,P|413:116|414:71,1,90.9999972229005
220,28,266490,37,0,1:0:0:0:
215,33,266576,1,0,1:0:0:0:
210,38,266662,2,0,P|287:12|311:90,1,181.999994445801,6|0,1:1|0:0,0:0:0:0:
209,146,267179,1,0,1:0:0:0:
292,292,267352,2,0,P|336:284|381:277,1,90.9999972229005,14|0,1:1|0:0,0:0:0:0:
100,82,267697,2,0,P|55:89|10:96,1,90.9999972229005,14|2,1:1|0:0,0:0:0:0:
0,197,268041,5,0,0:0:0:0:
168,295,268214,1,8,0:1:0:0:
69,322,268386,2,0,P|76:277|81:231,1,90.9999972229005,2|0,1:0|0:0,0:0:0:0:
100,82,268731,5,0,1:0:0:0:
120,112,268846,5,0,1:0:0:0:
156,115,268961,21,2,1:0:0:0:
195,88,269076,5,0,1:0:0:0:
212,82,269191,5,0,1:0:0:0:
228,88,269306,5,2,1:0:0:0:
268,148,269421,22,0,B|227:85|282:24|282:24|323:66,1,181.999994445801,6|0,1:1|0:0,0:0:0:0:
371,140,269938,1,0,1:0:0:0:
293,305,270110,2,0,P|249:303|202:298,1,90.9999972229005,14|0,1:1|0:0,0:0:0:0:
381,384,270455,1,8,0:1:0:0:
481,327,270628,2,0,P|488:259|494:191,1,136.499995834351,2|0,1:0|0:0,0:0:0:0:
486,180,270972,1,8,0:1:0:0:
371,140,271145,2,0,P|376:190|377:230,1,90.9999972229005,2|0,0:0|1:0,0:0:0:0:
458,69,271490,6,0,P|408:29|315:42,1,136.499995834351,14|0,1:1|1:0,0:0:0:0:
332,37,271835,6,0,P|302:49|270:48,1,60.666664815267,0|0,1:0|1:0,0:0:0:0:
148,52,272064,5,2,1:0:0:0:
132,48,272179,2,0,B|108:-19|259:-10|146:138,1,181.999994445801,6|0,1:1|0:0,0:0:0:0:
105,198,272697,1,0,1:0:0:0:
221,349,272869,2,0,P|221:286|214:205,1,136.499995834351,14|0,1:1|0:0,0:0:0:0:
203,198,273214,2,0,P|227:207|259:206,1,45.4999986114502,14|0,1:1|0:0,0:0:0:0:
405,153,273386,2,0,P|356:137|308:155,1,104,6|0,1:1|0:0,0:0:0:0:
195,183,273674,21,8,0:1:0:0:
193,168,273789,21,8,0:1:0:0:
247,134,273903,5,8,0:1:0:0:
309,156,274018,21,10,0:1:0:0:
328,223,274133,5,8,0:1:0:0:
302,257,274248,22,0,P|304:291|311:322,1,60.666664815267,0|0,1:0|1:0,0:0:0:0:
452,311,274478,21,10,0:1:0:0:
462,274,274593,5,8,0:1:0:0:
434,258,274708,5,0,1:0:0:0:
412,269,274823,5,0,1:0:0:0:
411,289,274938,22,0,B|412:322|473:339|516:252|403:243|455:159,1,208,14|0,1:1|0:0,0:0:0:0:
512,80,275455,1,2,1:0:0:0:
365,7,275628,2,0,P|316:11|252:15,1,104,14|0,1:1|0:0,0:0:0:0:
39,105,275972,1,14,1:1:0:0:
160,0,276145,6,0,B|128:37|141:80|141:80|176:102|177:150,1,156,0|0,1:0|0:0,0:0:0:0:
172,150,276490,1,8,0:1:0:0:
91,287,276662,2,0,P|87:237|84:176,1,104,2|0,0:0|1:0,0:0:0:0:
268,115,277007,1,8,0:1:0:0:
339,211,277179,1,0,1:0:0:0:
486,132,277352,2,0,B|465:144|436:148|436:148|411:136|398:114,1,104,2|0,0:0|1:0,0:0:0:0:
508,60,277610,5,0,1:0:0:0:
508,60,277697,2,0,B|529:87|516:119|492:111|485:144|503:172,1,116.999996429443,6|0,1:1|0:0,0:0:0:0:
507,178,278041,2,0,P|455:163|454:234,1,136.499995834351,2|0,1:0|0:0,0:0:0:0:
456,236,278386,2,0,P|455:309|377:309,1,156,10|0,1:1|0:0,0:0:0:0:
375,318,278731,2,0,P|364:232|347:141,1,175.499994644165,10|0,1:1|0:0,0:0:0:0:
337,147,279076,6,0,P|332:171|328:189,1,32.5,6|0,1:1|0:0,0:0:0:0:
256,292,279421,21,8,0:1:0:0:
197,317,279536,5,8,0:1:0:0:
140,287,279651,5,10,0:1:0:0:
79,235,279766,37,8,0:1:0:0:
20,261,279881,5,8,0:1:0:0:
8,307,279995,5,0,1:0:0:0:
54,363,280110,5,2,1:0:0:0:
66,350,280225,21,0,1:0:0:0:
73,335,280340,5,0,1:0:0:0:
73,308,280455,6,0,B|52:279|61:233|99:242|115:209|97:172,1,146.250005578995,14|0,1:1|0:0,0:0:0:0:
47,72,281145,2,0,P|95:80|143:83,1,97.50000371933,2|0,0:0|0:0,0:0:0:0:
226,147,281662,2,0,P|256:109|303:102,1,97.50000371933,2|0,0:0|0:0,0:0:0:0:
376,167,282179,1,2,0:0:0:0:
387,179,282524,2,0,P|395:131|399:83,1,97.50000371933,2|0,0:0|0:0,0:0:0:0:
512,278,283214,6,0,P|475:276|439:272,1,73.1250027894975,2|0,0:0|0:0,0:0:0:0:
433,267,283559,2,0,P|408:270|384:272,1,48.750001859665,2|0,0:0|0:0,0:0:0:0:
245,238,283904,2,0,P|289:253|301:298,1,97.50000371933,2|0,0:0|0:0,0:0:0:0:
226,380,284421,2,0,P|175:375|128:366,1,97.50000371933,2|0,0:0|0:0,0:0:0:0:
51,318,284938,1,2,0:0:0:0:
40,324,285283,2,0,P|46:275|49:227,1,97.50000371933,2|0,0:0|0:0,0:0:0:0:
207,24,285972,22,0,P|205:61|201:97,1,73.1250027894975,2|0,0:0|0:0,0:0:0:0:
196,103,286317,2,0,P|199:128|201:152,1,48.750001859665,2|0,0:0|0:0,0:0:0:0:
333,242,286662,2,0,B|298:222|298:222|230:243,1,97.50000371933,2|0,0:0|0:0,0:0:0:0:
176,331,287179,2,0,P|227:333|278:339,1,97.50000371933,2|0,0:0|0:0,0:0:0:0:
393,370,287697,1,2,0:0:0:0:
400,377,288041,2,0,P|402:325|408:274,1,97.50000371933,2|0,0:0|0:0,0:0:0:0:
479,205,288559,1,0,0:0:0:0:
376,129,288731,6,0,P|324:134|295:220,1,146.250005578995,2|0,0:0|0:0,0:0:0:0:
479,205,289421,2,0,P|476:150|470:97,1,97.50000371933,2|0,0:0|0:0,0:0:0:0:
385,216,289938,2,0,P|387:270|393:323,1,97.50000371933,2|0,0:0|0:0,0:0:0:0:
298,359,290455,1,2,0:0:0:0:
291,366,290800,2,0,B|236:349|236:349|201:369,1,97.50000371933,2|0,0:0|0:0,0:0:0:0:
139,308,291317,1,0,0:0:0:0:
22,373,291490,6,0,P|24:318|30:265,1,97.50000371933,2|2,1:0|0:0,0:0:0:0:
116,205,292007,1,0,0:0:0:0:
187,303,292179,2,0,P|162:306|138:308,1,48.750001859665,8|0,0:1|0:0,0:0:0:0:
123,198,292524,1,0,0:0:0:0:
240,214,292697,2,0,P|244:161|250:109,1,97.50000371933,10|0,0:1|0:0,0:0:0:0:
318,29,293214,1,2,0:0:0:0:
318,29,293559,2,0,B|380:24|380:24|428:53|428:53|487:45,1,170.625006508827,2|0,0:0|0:0,0:0:0:0:
486,38,294248,38,0,P|478:81|474:149,1,97.50000371933,2|2,1:0|0:0,0:0:0:0:
424,231,294766,1,0,0:0:0:0:
314,163,294938,2,0,B|339:153|339:153|366:161,1,48.750001859665,10|0,0:1|0:0,0:0:0:0:
431,238,295283,1,0,0:0:0:0:
305,288,295455,2,0,P|262:280|194:276,1,97.50000371933,10|0,0:1|0:0,0:0:0:0:
116,188,295972,1,2,0:0:0:0:
116,188,296317,2,0,P|118:163|120:139,1,48.750001859665,2|0,0:0|0:0,0:0:0:0:
20,237,296662,2,0,P|17:212|15:188,1,48.750001859665,2|0,0:0|0:0,0:0:0:0:
101,384,297007,6,0,P|105:331|111:279,1,97.50000371933,2|2,1:0|0:0,0:0:0:0:
197,365,297524,1,0,0:0:0:0:
208,275,297697,2,0,P|205:242|201:210,1,48.750001859665,10|0,0:1|0:0,0:0:0:0:
190,373,298041,1,0,0:0:0:0:
298,320,298214,2,0,P|360:309|401:333,1,97.50000371933,10|0,0:1|0:0,0:0:0:0:
491,364,298731,1,2,0:0:0:0:
491,364,299076,2,0,B|515:330|504:277|460:287|442:249|463:206,1,170.625006508827,2|0,0:0|0:0,0:0:0:0:
468,202,299766,6,0,B|421:220|421:220|370:205,1,97.50000371933,2|2,1:0|0:0,0:0:0:0:
312,131,300283,1,0,0:0:0:0:
421,74,300455,2,0,P|418:98|416:122,1,48.750001859665,10|0,0:1|0:0,0:0:0:0:
305,124,300800,1,0,0:0:0:0:
217,44,300972,2,0,B|242:57|266:57|266:57|289:44|301:17,1,97.50000371933,10|0,0:1|0:0,0:0:0:0:
143,69,301490,1,0,0:0:0:0:
175,179,301662,1,2,0:0:0:0:
188,175,301748,1,2,0:0:0:0:
203,172,301835,1,2,0:0:0:0:
71,157,302007,5,0,1:0:0:0:
108,237,302179,1,0,1:0:0:0:
72,298,302352,1,0,1:0:0:0:
78,150,302524,21,6,1:1:0:0:
49,77,305280,22,2,L|51:102,3,25.999999206543
63,63,305683,22,0,B|116:58|148:86|148:86|166:74|171:57|171:57|197:74|193:105|193:105|250:94|270:69|270:69|267:65|267:65|311:49|358:96|358:96|406:164|349:203|303:157|357:96|357:96|434:28|523:175|418:260|343:248,1,858.000026184083,2|0,0:0|0:0,0:0:0:0:
