osu file format v14

[General]
AudioFilename: audio.mp3
AudioLeadIn: 0
PreviewTime: 145031
Countdown: 0
SampleSet: Soft
StackLeniency: 0.7
Mode: 0
LetterboxInBreaks: 0
WidescreenStoryboard: 0

[Editor]
Bookmarks: 19537,323723
DistanceSpacing: 0.6
BeatDivisor: 4
GridSize: 4
TimelineZoom: 2.204

[Metadata]
Title:Stigma (Billain Remix)
TitleUnicode:Stigma (Billain Remix)
Artist:Noisia
ArtistUnicode:Noisia
Creator:PandaHero
Version:Extra
Source:
Tags:electronic instrumental neurofunk dnb drum and bass
BeatmapID:4513705
BeatmapSetID:2143850

[Difficulty]
HPDrainRate:6
CircleSize:5
OverallDifficulty:9
ApproachRate:9.6
SliderMultiplier:1.72
SliderTickRate:1

[Events]
//Background and Video events
0,0,"95590190_p0.jpg",0,0
//Break Periods
//Storyboard Layer 0 (Background)
//Storyboard Layer 1 (Fail)
//Storyboard Layer 2 (Pass)
//Storyboard Layer 3 (Foreground)
//Storyboard Layer 4 (Overlay)
//Storyboard Sound Samples

[TimingPoints]
19537,348.837209302326,4,2,1,30,1,0
22327,-133.333333333333,4,2,2,40,0,0
32792,-400,4,2,2,40,0,0
33490,-200,4,2,2,35,0,0
39071,-200,4,2,2,45,0,0
41862,-133.333333333333,4,2,2,60,0,0
44653,-133.333333333333,4,2,1,60,0,0
55816,-133.333333333333,4,2,1,65,0,0
66978,-111.111111111111,4,2,1,70,0,0
78141,-111.111111111111,4,2,2,50,0,0
83548,-111.111111111111,4,2,2,55,0,0
89304,-111.111111111111,4,2,2,60,0,0
91920,-111.111111111111,4,2,2,65,0,0
94711,-111.111111111111,4,2,2,70,0,0
97502,-111.111111111111,4,2,2,75,0,0
98897,-111.111111111111,4,2,2,60,0,0
100467,-222.222222222222,4,2,1,65,0,0
105699,-66.6666666666667,4,2,0,60,0,0
106048,-222.222222222222,4,2,1,50,0,0
106397,-50,4,2,1,75,0,0
106746,-100,4,2,1,75,0,0
107443,-222.222222222222,4,2,1,75,0,0
107967,-66.6666666666667,4,2,1,75,0,0
108839,-100,4,2,1,75,0,0
109188,-133.333333333333,4,2,1,75,0,0
109537,-100,4,2,1,75,0,0
110583,-222.222222222222,4,2,1,75,0,0
110845,-66.6666666666667,4,2,1,75,0,0
111630,-222.222222222222,4,2,1,65,0,0
116862,-66.6666666666667,4,2,0,50,0,0
117211,-66.6666666666667,4,2,1,75,0,0
120002,-133.333333333333,4,2,1,75,0,0
120350,-50,4,2,1,75,0,0
121397,-100,4,2,1,75,0,0
121746,-222.222222222222,4,2,1,75,0,0
122095,-50,4,2,0,75,0,0
122443,-33.3333333333333,4,2,1,75,0,0
122618,-33.3333333333333,4,2,0,75,0,0
122792,-222.222222222222,4,2,1,65,0,0
128025,-66.6666666666667,4,2,0,65,0,0
128374,-222.222222222222,4,2,1,50,0,0
128723,-50,4,2,1,75,0,0
129071,-100,4,2,1,75,0,0
129769,-66.6666666666667,4,2,1,75,0,0
131164,-50,4,2,1,75,0,0
131862,-100,4,2,1,75,0,0
132211,-66.6666666666667,4,2,1,75,0,0
132560,-133.333333333333,4,2,1,75,0,0
133170,-40,4,2,1,75,0,0
133606,-40,4,2,0,75,0,0
133868,-40,4,2,1,75,0,0
133955,-222.222222222222,4,2,1,65,0,0
139537,-133.333333333333,4,2,1,60,0,0
143723,-133.333333333333,4,2,1,60,0,0
145118,-100,4,2,1,65,0,0
145990,-100,4,2,1,60,0,0
146513,-100,4,2,1,65,0,0
147385,-100,4,2,1,60,0,0
147909,-100,4,2,1,65,0,0
148781,-100,4,2,1,60,0,0
149304,-100,4,2,1,65,0,0
150176,-100,4,2,1,60,0,0
150699,-100,4,2,1,65,0,0
151571,-100,4,2,1,60,0,0
152095,-100,4,2,1,65,0,0
152967,-100,4,2,1,60,0,0
153490,-100,4,2,1,65,0,0
154362,-100,4,2,1,60,0,0
154885,-100,4,2,1,60,0,0
156281,-100,4,2,1,70,0,0
162560,-100,4,2,1,65,0,0
163257,-100,4,2,1,60,0,0
163955,-100,4,2,1,55,0,0
164653,-100,4,2,1,60,0,0
165350,-100,4,2,1,55,0,0
166048,-100,4,2,1,50,0,0
167443,-222.222222222222,4,2,1,50,0,0
167792,-111.111111111111,4,2,1,60,0,0
172676,-41.6666666666667,4,2,0,50,0,0
173025,-200,4,2,1,60,0,0
173374,-50,4,2,1,75,0,0
174071,-66.6666666666667,4,2,1,75,0,0
174420,-200,4,2,1,75,0,0
175118,-100,4,2,1,75,0,0
175816,-66.6666666666667,4,2,1,75,0,0
176513,-100,4,2,1,75,0,0
177211,-50,4,2,1,75,0,0
177385,-200,4,2,1,75,0,0
177821,-100,4,2,1,75,0,0
178606,-200,4,2,1,65,0,0
178955,-111.111111111111,4,2,1,65,0,0
183839,-66.6666666666667,4,2,0,50,0,0
184188,-100,4,2,1,60,0,0
184537,-50,4,2,1,75,0,0
184885,-100,4,2,1,75,0,0
185757,-66.6666666666667,4,2,1,75,0,0
185932,-100,4,2,1,75,0,0
187327,-66.6666666666667,4,2,1,75,0,0
187676,-100,4,2,1,75,0,0
187850,-50,4,2,1,75,0,0
188374,-200,4,2,1,75,0,0
189071,-133.333333333333,4,2,1,75,0,0
189769,-200,4,2,1,60,0,0
190118,-111.111111111111,4,2,1,65,0,0
195002,-41.6666666666667,4,2,0,50,0,0
195350,-200,4,2,1,60,0,0
195699,-50,4,2,1,75,0,0
196048,-100,4,2,1,75,0,0
196746,-200,4,2,1,75,0,0
198141,-50,4,2,1,75,0,0
198490,-66.6666666666667,4,2,1,75,0,0
199885,-200,4,2,1,75,0,0
200205,-50,4,2,1,75,0,0
200525,-33.3333333333333,4,2,1,75,0,0
200932,-200,4,2,1,60,0,0
201281,-111.111111111111,4,2,1,65,0,0
201804,-83.3333333333333,4,2,1,65,0,0
202327,-66.6666666666667,4,2,1,65,0,0
202850,-55.5555555555556,4,2,1,65,0,0
203374,-66.6666666666667,4,2,1,65,0,0
203897,-83.3333333333333,4,2,1,65,0,0
204420,-111.111111111111,4,2,1,65,0,0
205816,-66.6666666666666,4,2,1,50,0,0
206513,-111.111111111111,4,2,1,65,0,0
211746,-200,4,2,1,50,0,0
212095,-333.333333333333,4,2,2,40,0,0
245583,-133.333333333333,4,2,0,45,0,0
251164,-100,4,2,1,50,0,0
253955,-200,4,2,2,50,0,0
253965,-200,4,2,1,50,0,0
256397,-50,4,2,1,60,0,0
256746,-200,4,2,1,50,0,0
257095,-111.111111111111,4,2,1,65,0,0
262327,-200,4,2,1,50,0,0
262676,-40,4,2,1,70,0,0
264071,-66.6666666666667,4,2,1,70,0,0
264420,-40,4,2,1,70,0,0
265467,-28.5714285714286,4,2,1,70,0,0
266077,-66.6666666666667,4,2,1,70,0,0
266513,-40,4,2,1,70,0,0
266862,-100,4,2,1,70,0,0
267211,-66.6666666666667,4,2,1,70,0,0
267909,-200,4,2,1,60,0,0
268257,-111.111111111111,4,2,1,60,0,0
273141,-40,4,2,1,70,0,0
273490,-200,4,2,1,50,0,0
273839,-40,4,2,1,70,0,0
274885,-66.6666666666667,4,2,1,70,0,0
275583,-40,4,2,1,70,0,0
276281,-100,4,2,1,70,0,0
276978,-40,4,2,1,70,0,0
278025,-200,4,2,1,70,0,0
278374,-66.6666666666667,4,2,1,70,0,0
279071,-200,4,2,1,50,0,0
279420,-133.333333333333,4,2,1,50,0,0
280118,-133.333333333333,4,2,1,55,0,0
280816,-111.111111111111,4,2,1,60,0,0
281513,-111.111111111111,4,2,1,65,0,0
282124,-90.9090909090908,4,2,1,70,0,0
282821,-76.9230769230769,4,2,1,75,0,0
283519,-66.6666666666667,4,2,1,75,0,0
284304,-40,4,2,1,75,0,0
284653,-200,4,2,1,50,0,0
285002,-40,4,2,1,70,0,0
285699,-66.6666666666667,4,2,1,70,0,0
286746,-40,4,2,1,70,0,0
287792,-66.6666666666667,4,2,1,70,0,0
288141,-40,4,2,1,70,0,0
289537,-100,4,2,1,70,0,0
289711,-100,4,2,1,60,0,0
290234,-200,4,2,1,50,0,0
290583,-200,4,2,1,70,0,0
290845,-133.333333333333,4,2,1,70,0,0
291106,-111.111111111111,4,2,1,70,0,0
291368,-95.2380952380952,4,2,1,70,0,0
291630,-83.3333333333333,4,2,1,70,0,0
291891,-74.0740740740741,4,2,1,70,0,0
292153,-66.6666666666667,4,2,1,70,0,0
292414,-60.6060606060606,4,2,1,70,0,0
292676,-55.5555555555556,4,2,1,70,0,0
292938,-51.2820512820513,4,2,1,70,0,0
293199,-47.6190476190476,4,2,1,70,0,0
293461,-44.4444444444445,4,2,1,70,0,0
293723,-41.6666666666667,4,2,1,70,0,0
293984,-39.2156862745098,4,2,1,70,0,0
294246,-37.037037037037,4,2,1,70,0,0
295467,-100,4,2,1,70,0,0
295816,-200,4,2,1,60,0,0
296164,-111.111111111111,4,2,1,50,0,0
297211,-200,4,2,1,50,0,0
297560,-111.111111111111,4,2,1,50,0,0
301397,-111.111111111111,4,2,2,40,0,0
304188,-333.333333333333,4,2,1,40,0,0
306978,-333.333333333333,4,2,2,40,0,0
318141,-666.666666666667,4,2,1,30,0,0
320932,-1000,4,2,1,30,0,0

[Colours]
Combo1 : 209,205,192
Combo2 : 163,173,146
Combo3 : 208,167,136
Combo4 : 99,145,169

[HitObjects]
256,192,19537,12,0,22153,0:0:0:0:
220,150,22327,6,0,L|228:236,1,64.5000024604798,4|0,1:0|0:0,0:0:0:0:
305,251,22676,2,0,L|297:165,1,64.5000024604798,2|0,0:0|0:0,0:0:0:0:
282,41,23025,1,0,1:0:0:0:
282,41,23374,1,0,1:0:0:0:
282,41,23723,6,0,L|271:119,1,64.5000024604798,0|0,1:0|0:0,0:0:0:0:
190,151,24071,1,2,0:0:0:0:
174,83,24246,1,0,1:0:0:0:
99,175,24420,1,0,1:0:0:0:
99,175,24769,1,0,1:0:0:0:
99,175,25118,6,0,B|84:197|84:197|8:192,1,96.7500036907198,0|0,1:0|0:0,0:0:0:0:
27,169,25467,1,2,0:0:0:0:
61,105,25816,1,0,0:0:0:0:
98,40,26164,1,0,1:0:0:0:
98,40,26513,6,0,B|122:52|122:52|138:113,1,64.5000024604798,0|0,1:0|0:0,0:0:0:0:
192,187,26862,2,0,B|216:175|216:175|232:114,1,64.5000024604798,0|0,1:0|0:0,0:0:0:0:
243,38,27211,1,0,1:0:0:0:
243,38,27560,1,2,0:0:0:0:
243,38,27909,2,0,P|307:31|386:18,2,129.00000492096,4|2|0,1:0|0:0|1:0,0:0:0:0:
243,38,28955,2,0,P|250:77|254:106,1,64.5000024604798,0|0,1:0|0:0,0:0:0:0:
273,227,29304,1,0,1:0:0:0:
200,212,29478,1,2,0:0:0:0:
273,227,29653,2,0,L|345:240,1,64.5000024604798,0|0,1:0|0:0,0:0:0:0:
362,304,30002,2,0,P|407:297|494:282,1,129.00000492096,0|0,1:0|0:0,0:0:0:0:
489,282,30525,1,0,1:0:0:0:
419,158,30699,6,0,L|402:234,1,64.5000024604798,8|0,0:0|0:0,0:0:0:0:
477,108,31048,1,0,1:0:0:0:
446,42,31397,1,0,1:0:0:0:
376,39,31746,1,0,1:0:0:0:
376,39,32095,2,0,L|363:119,1,64.5000024604798,2|0,0:0|0:0,0:0:0:0:
340,206,32443,1,0,1:0:0:0:
186,126,32618,1,0,1:0:0:0:
246,76,32792,2,2,L|254:158,1,75.25,0|0,1:0|0:0,0:0:0:0:
256,176,33490,6,2,B|248:222|159:343|88:157|9:364,1,322.5,4|0,1:0|0:0,0:0:0:0:
38,358,34885,2,0,P|29:277|13:222,1,129,2|0,0:0|0:0,0:0:0:0:
16,231,35583,1,0,3:0:0:0:
222,28,36281,5,0,1:0:0:0:
222,28,36455,2,2,B|233:89|317:163|394:108|374:59|424:50,1,258,0|0,1:0|0:0,0:0:0:0:
214,155,37676,1,2,0:0:0:0:
214,155,37850,2,0,P|257:184|292:195,1,86,0|0,3:0|0:0,0:0:0:0:
377,231,38374,2,0,P|408:228|442:224,1,64.5,0|0,1:0|0:0,0:0:0:0:
462,227,38723,2,0,L|448:283,1,43,0|0,1:0|0:0,0:0:0:0:
377,357,39071,6,2,P|382:283|393:90,1,258,4|0,1:0|0:0,0:0:0:0:
361,41,40292,1,2,0:0:0:0:
361,41,40467,2,0,L|312:67,1,43,0|0,1:0|0:0,0:0:0:0:
266,26,40816,2,0,L|227:70,1,43,2|0,0:0|0:0,0:0:0:0:
171,66,41164,2,0,L|169:125,2,43,2|0|0,0:0|0:0|0:0,0:0:0:0:
27,194,41688,5,0,3:0:0:0:
27,194,41775,1,0,3:0:0:0:
27,194,41862,2,0,P|62:199|100:184,1,64.5,4|0,1:0|0:0,0:0:0:0:
104,169,42211,2,0,P|130:171|161:191,1,64.5000024604798,2|0,0:0|0:0,0:0:0:0:
212,142,42560,2,0,P|243:183|251:232,1,96.7500036907198,0|0,1:0|0:0,0:0:0:0:
278,244,42909,2,0,P|266:272|237:297,1,64.5000024604798,2|0,0:0|0:0,0:0:0:0:
151,334,43257,5,0,3:0:0:0:
139,339,43345,1,0,3:0:0:0:
127,345,43432,1,0,3:0:0:0:
115,351,43519,1,0,3:0:0:0:
104,357,43606,2,0,L|62:360,3,32.2500012302399,2|0|0|0,0:0|0:0|0:0|0:0,0:0:0:0:
39,280,43955,2,0,L|73:277,3,32.2500012302399,2|0|0|0,0:0|0:0|0:0|0:0,0:0:0:0:
77,197,44304,2,0,L|57:193,6,16.12500061512,0|0|0|0|0|0|0,3:0|3:0|3:0|3:0|3:0|3:0|3:0,3:0:0:0:
106,202,44653,6,2,P|135:182|126:120,1,96.7500036907198,4|0,1:3|0:0,0:0:0:0:
118,111,45002,1,4,0:3:0:0:
43,107,45176,1,2,3:0:0:0:
37,118,45263,1,2,3:0:0:0:
31,129,45350,2,0,L|23:178,1,32.2500012302399,2|0,0:0|0:0,0:0:0:0:
63,43,45525,2,0,L|30:21,1,32.2500012302399,8|0,1:3|0:0,0:0:0:0:
125,96,45699,2,2,P|168:96|221:72,1,96.7500036907198,2|0,0:0|0:0,0:0:0:0:
233,55,46048,2,2,L|306:63,1,64.5000024604798,0|0,0:0|0:0,0:0:0:0:
491,143,46397,5,4,1:3:0:0:
416,145,46571,1,2,3:0:0:0:
418,157,46659,1,2,3:0:0:0:
424,168,46746,2,0,L|443:210,1,32.2500012302399,0|0,1:0|0:0,0:0:0:0:
445,86,46920,2,0,L|453:44,1,32.2500012302399,4|0,1:3|0:0,0:0:0:0:
354,187,47095,1,0,3:0:0:0:
352,199,47182,1,0,3:0:0:0:
349,211,47269,1,0,3:0:0:0:
346,223,47356,1,0,3:0:0:0:
345,235,47443,6,2,L|372:306,1,64.5000024604798,4|0,1:3|0:0,0:0:0:0:
270,129,47792,1,4,1:3:0:0:
212,179,47967,1,2,3:0:0:0:
201,186,48054,1,2,3:0:0:0:
188,189,48141,2,0,L|133:201,1,32.2500012302399,0|0,1:0|0:0,0:0:0:0:
198,98,48316,2,0,L|180:47,1,32.2500012302399,4|0,1:3|0:0,0:0:0:0:
269,138,48490,2,0,L|301:143,3,32.2500012302399,2|0|0|0,0:0|0:0|0:0|0:0,0:0:0:0:
177,87,48839,5,0,3:0:0:0:
170,75,48926,1,0,3:0:0:0:
165,62,49013,1,0,3:0:0:0:
161,49,49100,1,0,3:0:0:0:
156,36,49188,2,2,P|157:97|161:126,1,64.5000024604798,4|0,1:3|0:0,0:0:0:0:
105,150,49449,1,0,3:0:0:0:
105,150,49537,2,0,L|118:192,1,32.2500012302399,0|0,1:0|2:0,0:0:0:0:
28,150,49711,1,4,1:3:0:0:
28,150,49798,1,0,3:0:0:0:
28,150,49885,2,0,L|15:198,1,32.2500012302399,0|0,1:0|2:0,0:0:0:0:
25,292,50060,2,0,L|47:246,1,32.2500012302399,2|0,0:0|0:0,0:0:0:0:
106,249,50234,6,2,P|136:274|153:305,1,64.5000024604798,4|0,1:3|0:0,0:0:0:0:
183,135,50583,1,4,1:3:0:0:
246,211,50757,1,2,3:0:0:0:
249,223,50845,1,2,3:0:0:0:
251,235,50932,2,0,L|251:280,1,32.2500012302399,0|0,1:0|0:0,0:0:0:0:
297,149,51106,2,0,L|336:183,1,32.2500012302399,4|0,1:3|0:0,0:0:0:0:
295,46,51281,2,2,P|341:89|390:108,1,96.7500036907198,0|0,1:0|0:0,0:0:0:0:
428,146,51630,5,0,3:0:0:0:
440,148,51717,1,0,3:0:0:0:
452,148,51804,1,0,3:0:0:0:
464,148,51891,1,0,3:0:0:0:
476,145,51978,2,0,L|508:119,3,32.2500012302399,4|0|0|0,1:3|0:0|0:0|0:0,0:0:0:0:
361,173,52327,1,2,3:0:0:0:
344,192,52414,1,2,3:0:0:0:
332,215,52502,2,0,L|311:273,1,32.2500012302399,4|0,1:3|0:0,0:0:0:0:
372,103,52676,2,0,L|338:57,1,32.2500012302399,2|0,0:0|0:0,0:0:0:0:
430,201,52850,2,0,L|473:217,1,32.2500012302399,2|0,0:0|0:0,0:0:0:0:
263,169,53025,6,2,P|221:146|191:117,1,64.5000024604798,4|0,1:3|0:0,0:0:0:0:
263,291,53374,2,0,P|309:318|339:330,1,64.5000024604798,4|0,1:3|0:0,0:0:0:0:
374,374,53635,1,2,3:0:0:0:
374,374,53723,2,0,L|421:372,1,32.2500012302399,0|0,1:0|0:0,0:0:0:0:
347,258,53897,2,0,L|353:212,1,32.2500012302399,4|0,1:3|0:0,0:0:0:0:
273,320,54071,2,2,P|232:302|203:283,1,64.5000024604798,2|0,0:0|0:0,0:0:0:0:
113,171,54420,5,0,3:0:0:0:
104,175,54507,1,0,3:0:0:0:
95,180,54595,1,0,3:0:0:0:
86,185,54682,1,0,3:0:0:0:
77,188,54769,2,0,L|28:214,1,32.2500012302399,4|0,1:3|0:0,0:0:0:0:
96,98,54943,2,2,P|36:122|17:131,1,64.5000024604798,0|0,1:0|0:0,0:0:0:0:
169,137,55205,1,2,3:0:0:0:
169,137,55292,2,0,L|209:145,1,32.2500012302399,4|0,1:3|0:0,0:0:0:0:
149,58,55467,2,0,L|134:22,1,32.2500012302399,2|0,0:0|0:0,0:0:0:0:
110,180,55641,2,0,L|105:226,1,32.2500012302399,2|0,0:0|0:0,0:0:0:0:
236,68,55816,6,2,P|275:56|351:41,1,96.7500036907198,4|0,1:3|0:0,0:0:0:0:
351,20,56164,2,0,L|412:22,1,32.2500012302399,4|0,1:3|0:0,0:0:0:0:
482,117,56339,1,2,3:0:0:0:
463,121,56426,1,2,3:0:0:0:
444,128,56513,1,0,3:0:0:0:
425,134,56600,1,0,3:0:0:0:
407,142,56688,2,0,L|375:173,1,32.2500012302399,8|0,1:3|0:0,0:0:0:0:
315,161,56862,1,2,3:0:0:0:
312,180,56949,1,2,3:0:0:0:
314,199,57037,2,0,L|325:247,1,32.2500012302399,2|0,0:0|0:0,0:0:0:0:
464,382,57211,5,2,3:0:0:0:
474,365,57298,1,0,3:0:0:0:
481,347,57385,1,2,3:0:0:0:
486,328,57473,1,0,3:0:0:0:
490,309,57560,2,2,L|482:246,1,64.5000024604798,4|0,1:3|0:0,0:0:0:0:
416,226,57821,1,2,3:0:0:0:
416,226,57909,2,0,L|382:242,1,32.2500012302399,0|0,1:0|0:0,0:0:0:0:
340,298,58083,2,0,L|292:302,1,32.2500012302399,4|0,1:3|0:0,0:0:0:0:
222,237,58257,1,0,3:0:0:0:
212,219,58345,1,0,3:0:0:0:
205,200,58432,1,0,3:0:0:0:
201,181,58519,1,0,3:0:0:0:
198,161,58606,6,2,P|193:112|198:42,1,96.7500036907198,4|0,1:3|0:0,0:0:0:0:
205,33,58955,2,0,L|158:50,1,32.2500012302399,4|0,1:3|0:0,0:0:0:0:
43,79,59130,1,2,3:0:0:0:
43,79,59217,1,2,3:0:0:0:
43,79,59304,2,0,L|80:92,1,32.2500012302399,0|0,1:0|0:0,0:0:0:0:
168,153,59478,2,0,L|116:160,1,32.2500012302399,8|0,1:3|0:0,0:0:0:0:
14,156,59653,1,0,3:0:0:0:
32,182,59740,1,0,3:0:0:0:
53,205,59827,1,0,3:0:0:0:
78,223,59914,1,0,3:0:0:0:
108,235,60002,6,0,L|146:235,2,32.2500012302399,2|0|0,0:0|0:0|0:0,0:0:0:0:
165,310,60263,1,2,3:0:0:0:
165,310,60350,2,2,P|211:278|204:216,1,96.7500036907198,4|0,1:3|0:0,0:0:0:0:
232,172,60699,2,0,L|201:143,1,32.2500012302399,0|0,1:0|0:0,0:0:0:0:
303,205,60874,2,0,L|308:168,1,32.2500012302399,4|0,1:3|0:0,0:0:0:0:
307,276,61048,1,0,3:0:0:0:
320,305,61135,1,0,3:0:0:0:
338,331,61223,1,0,3:0:0:0:
365,348,61310,1,0,3:0:0:0:
396,353,61397,6,2,P|455:323|457:278,1,96.7500036907198,4|0,1:3|0:0,0:0:0:0:
433,269,61746,2,0,L|419:310,1,32.2500012302399,4|0,1:3|0:0,0:0:0:0:
393,197,61920,2,0,L|373:234,1,32.2500012302399,2|0,3:0|0:0,0:0:0:0:
386,110,62095,1,2,3:0:0:0:
356,123,62182,1,0,3:0:0:0:
326,136,62269,1,8,1:3:0:0:
295,145,62356,1,0,3:0:0:0:
263,149,62443,2,0,L|210:148,1,32.2500012302399,0|0,1:0|0:0,0:0:0:0:
325,38,62618,2,0,L|289:58,1,32.2500012302399,2|0,0:0|0:0,0:0:0:0:
121,121,62792,5,2,3:0:0:0:
95,141,62880,1,0,3:0:0:0:
73,164,62967,1,2,3:0:0:0:
50,186,63054,1,0,3:0:0:0:
40,218,63141,2,2,P|33:251|30:311,1,64.5000024604798,4|0,1:3|0:0,0:0:0:0:
118,225,63403,1,2,3:0:0:0:
118,225,63490,2,0,L|125:271,1,32.2500012302399,0|0,1:0|0:0,0:0:0:0:
171,164,63664,2,0,L|196:205,1,32.2500012302399,4|0,1:3|0:0,0:0:0:0:
220,94,63839,1,2,3:0:0:0:
241,117,63926,1,0,3:0:0:0:
265,138,64013,1,2,3:0:0:0:
291,155,64100,1,0,3:0:0:0:
318,173,64188,6,2,P|377:183|432:171,1,96.7500036907198,4|0,1:3|0:0,0:0:0:0:
460,127,64537,2,0,L|438:103,1,32.2500012302399,4|0,1:3|0:0,0:0:0:0:
378,62,64711,1,2,3:0:0:0:
378,62,64798,1,2,3:0:0:0:
378,62,64885,2,0,L|337:80,1,32.2500012302399,0|0,1:0|0:0,0:0:0:0:
446,31,65060,2,0,L|464:0,1,32.2500012302399,8|0,1:3|0:0,0:0:0:0:
296,127,65234,1,2,3:0:0:0:
259,138,65321,1,0,3:0:0:0:
220,142,65409,1,2,3:0:0:0:
181,138,65496,1,0,3:0:0:0:
142,132,65583,5,0,1:0:0:0:
142,132,65670,2,2,P|199:177|213:180,1,64.5000024604798,2|0,1:2|0:0,0:0:0:0:
57,146,65932,2,0,L|16:113,1,32.2500012302399,4|0,1:3|0:0,0:0:0:0:
144,58,66106,1,2,3:0:0:0:
144,58,66193,1,2,3:0:0:0:
144,58,66281,2,0,L|159:6,1,32.2500012302399,0|0,1:0|0:0,0:0:0:0:
71,68,66455,2,0,L|52:19,1,32.2500012302399,4|0,1:3|0:0,0:0:0:0:
21,164,66630,1,2,3:0:0:0:
39,197,66717,1,0,3:0:0:0:
56,231,66804,1,2,3:0:0:0:
65,268,66891,1,0,3:0:0:0:
61,306,66978,6,0,L|36:353,3,38.6999988189698,4|0|0|0,1:2|0:0|3:0|0:0,0:0:0:0:
135,239,67327,2,2,L|145:319,1,77.3999976379395,4|0,1:3|0:0,0:0:0:0:
200,196,67589,1,2,3:0:0:0:
216,212,67676,2,0,L|234:273,1,38.6999988189698,0|0,1:0|0:0,0:0:0:0:
191,78,67850,2,0,L|180:129,1,38.6999988189698,8|0,1:3|0:0,0:0:0:0:
276,23,68025,1,2,3:0:0:0:
302,51,68112,1,0,3:0:0:0:
336,68,68199,1,2,3:0:0:0:
372,81,68287,1,0,3:0:0:0:
410,75,68374,5,2,3:0:0:0:
428,68,68461,1,0,3:0:0:0:
447,67,68548,1,2,3:0:0:0:
466,64,68635,1,0,3:0:0:0:
482,74,68723,2,2,L|404:101,1,77.3999976379395,4|0,1:3|0:0,0:0:0:0:
304,179,68984,1,2,3:0:0:0:
317,192,69071,2,0,L|361:192,1,38.6999988189698,0|0,1:0|0:0,0:0:0:0:
488,282,69246,2,2,L|402:268,1,77.3999976379395,4|0,1:3|0:0,0:0:0:0:
194,202,69595,5,2,3:0:0:0:
208,214,69682,1,2,3:0:0:0:
222,226,69769,2,2,L|248:307,1,77.3999976379395,4|0,1:3|0:0,0:0:0:0:
242,142,70031,1,2,3:0:0:0:
254,127,70118,2,0,L|252:69,1,38.6999988189698,4|0,1:3|0:0,0:0:0:0:
116,182,70292,1,2,3:0:0:0:
92,212,70380,1,2,3:0:0:0:
55,223,70467,1,0,1:0:0:0:
27,249,70554,1,0,0:0:0:0:
16,286,70641,2,8,L|10:330,1,38.6999988189698,8|0,1:3|1:0,1:3:0:0:
73,361,70816,2,0,L|80:302,1,38.6999988189698,2|0,0:0|0:0,0:0:0:0:
30,160,70990,5,2,3:0:0:0:
27,140,71077,1,0,3:0:0:0:
21,121,71164,1,2,3:0:0:0:
18,101,71252,1,0,3:0:0:0:
15,81,71339,1,2,3:0:0:0:
12,61,71426,1,0,3:0:0:0:
13,41,71513,2,2,P|26:90|31:126,1,77.3999976379395,4|0,1:3|0:0,0:0:0:0:
114,40,71775,1,2,3:0:0:0:
120,58,71862,2,0,L|101:108,1,38.6999988189698,0|0,1:0|0:0,0:0:0:0:
195,108,72037,2,0,L|150:145,1,38.6999988189698,4|0,1:3|0:0,0:0:0:0:
267,72,72211,1,2,3:0:0:0:
285,66,72298,1,0,3:0:0:0:
303,61,72385,1,2,3:0:0:0:
322,56,72473,1,0,3:0:0:0:
359,46,72560,5,2,3:0:0:0:
349,83,72647,1,0,3:0:0:0:
322,111,72734,1,2,3:0:0:0:
292,135,72821,1,0,3:0:0:0:
261,159,72909,1,4,1:3:0:0:
233,186,72996,1,2,3:0:0:0:
224,223,73083,2,0,L|242:292,1,38.6999988189698,2|0,3:0|0:0,0:0:0:0:
143,205,73257,2,0,L|154:257,1,38.6999988189698,0|0,1:0|0:0,0:0:0:0:
270,354,73432,1,8,1:3:0:0:
306,367,73519,1,0,3:0:0:0:
342,353,73606,1,2,3:0:0:0:
359,344,73693,1,0,3:0:0:0:
377,337,73781,1,2,3:0:0:0:
396,339,73868,1,0,3:0:0:0:
413,346,73955,6,0,L|372:371,2,38.6999988189698,2|0|2,0:0|0:0|0:0,0:0:0:0:
461,280,74217,1,2,3:0:0:0:
461,280,74304,2,0,L|406:279,1,38.6999988189698,4|0,1:3|0:0,0:0:0:0:
486,343,74478,2,0,L|515:377,1,38.6999988189698,2|0,0:0|0:0,0:0:0:0:
353,249,74653,1,2,3:0:0:0:
353,229,74740,1,0,3:0:0:0:
354,209,74827,1,4,1:3:0:0:
356,189,74914,1,0,3:0:0:0:
380,158,75002,1,2,3:0:0:0:
386,119,75089,1,0,3:0:0:0:
377,81,75176,1,2,3:0:0:0:
358,46,75263,1,0,3:0:0:0:
327,22,75350,6,0,L|273:17,2,38.6999988189698,4|0|0,1:3|0:0|0:0,0:0:0:0:
230,81,75612,1,2,3:0:0:0:
230,81,75699,2,0,L|180:77,1,38.6999988189698,4|0,1:3|0:0,0:0:0:0:
102,13,75874,2,0,L|149:15,1,38.6999988189698,2|0,0:0|0:0,0:0:0:0:
50,88,76048,1,2,3:0:0:0:
32,122,76135,1,0,3:0:0:0:
20,159,76223,1,8,1:3:0:0:
14,197,76310,1,0,3:0:0:0:
12,234,76397,1,2,3:0:0:0:
12,272,76484,1,0,3:0:0:0:
17,310,76571,2,0,L|29:361,1,38.6999988189698,2|0,0:0|0:0,0:0:0:0:
138,208,76746,5,4,1:3:0:0:
138,208,76833,2,0,L|135:248,1,38.6999988189698,0|0,1:0|0:0,0:0:0:0:
220,158,77007,1,0,1:0:0:0:
238,164,77095,2,0,L|254:206,1,38.6999988189698,4|0,1:3|0:0,0:0:0:0:
243,54,77269,1,2,3:0:0:0:
280,64,77356,1,2,3:0:0:0:
313,83,77443,2,0,L|345:129,1,38.6999988189698,4|0,1:3|0:0,0:0:0:0:
398,155,77618,2,0,L|438:144,1,38.6999988189698,2|0,3:0|0:0,0:0:0:0:
483,55,77792,5,8,1:2:0:0:
471,56,77880,1,0,3:0:0:0:
459,58,77967,1,0,3:0:0:0:
447,59,78054,1,0,3:0:0:0:
435,61,78141,6,0,L|385:59,1,38.6999988189698,4|0,1:0|0:0,0:0:0:0:
192,123,78403,1,0,0:0:0:0:
192,123,78490,1,0,3:0:0:0:
169,223,78664,1,0,0:0:0:0:
169,223,78752,1,0,3:0:0:0:
259,269,78926,1,0,0:0:0:0:
259,269,79013,1,0,3:0:0:0:
315,182,79188,1,0,1:0:0:0:
183,40,79362,5,0,3:0:0:0:
160,44,79449,1,0,3:0:0:0:
137,49,79537,1,0,1:0:0:0:
114,53,79624,1,0,3:0:0:0:
273,108,79798,1,0,0:0:0:0:
273,108,79885,1,0,3:0:0:0:
161,156,80060,1,0,0:0:0:0:
161,156,80147,1,0,3:0:0:0:
312,242,80321,1,0,0:0:0:0:
312,242,80409,1,0,3:0:0:0:
183,278,80583,1,0,1:0:0:0:
379,164,80757,5,0,3:0:0:0:
401,170,80845,1,0,3:0:0:0:
423,175,80932,1,0,1:0:0:0:
445,179,81019,1,0,3:0:0:0:
492,46,81193,1,0,0:0:0:0:
492,46,81281,1,0,3:0:0:0:
365,47,81455,1,0,0:0:0:0:
365,47,81542,1,0,3:0:0:0:
305,165,81717,1,0,0:0:0:0:
305,165,81804,1,0,3:0:0:0:
382,268,81978,1,0,1:0:0:0:
228,73,82153,5,0,3:0:0:0:
205,76,82240,1,0,3:0:0:0:
182,79,82327,1,0,1:0:0:0:
159,83,82414,1,0,3:0:0:0:
26,167,82589,1,0,0:0:0:0:
26,167,82676,1,0,3:0:0:0:
75,322,82850,1,0,0:0:0:0:
75,322,82938,1,0,3:0:0:0:
234,302,83112,1,0,0:0:0:0:
234,302,83199,1,0,3:0:0:0:
235,149,83374,1,0,1:0:0:0:
128,204,83548,5,0,3:0:0:0:
150,208,83635,1,0,3:0:0:0:
156,230,83723,1,0,1:0:0:0:
140,247,83810,1,0,3:0:0:0:
341,239,83984,1,0,0:0:0:0:
341,239,84071,1,0,3:0:0:0:
176,58,84246,1,0,0:0:0:0:
176,58,84333,1,0,3:0:0:0:
373,111,84507,1,0,0:0:0:0:
373,111,84595,1,0,3:0:0:0:
248,158,84769,1,0,1:0:0:0:
317,5,84943,5,0,3:0:0:0:
300,21,85031,1,0,3:0:0:0:
304,43,85118,1,0,1:0:0:0:
324,53,85205,1,0,3:0:0:0:
464,132,85380,1,0,0:0:0:0:
464,132,85467,1,0,3:0:0:0:
232,174,85641,1,0,0:0:0:0:
232,174,85728,1,0,3:0:0:0:
413,260,85903,1,0,0:0:0:0:
413,260,85990,1,0,3:0:0:0:
347,152,86164,1,0,1:0:0:0:
206,253,86339,5,0,3:0:0:0:
185,243,86426,1,0,3:0:0:0:
172,223,86513,1,0,1:0:0:0:
162,201,86600,1,0,3:0:0:0:
253,27,86775,1,0,0:0:0:0:
253,27,86862,1,0,3:0:0:0:
37,130,87037,1,0,0:0:0:0:
37,130,87124,1,0,3:0:0:0:
257,167,87298,1,0,0:0:0:0:
257,167,87385,1,0,3:0:0:0:
113,19,87560,1,0,1:0:0:0:
125,207,87734,5,0,3:0:0:0:
140,240,87821,1,0,3:0:0:0:
159,270,87908,1,0,1:0:0:0:
191,285,87995,1,0,3:0:0:0:
473,255,88170,1,0,0:0:0:0:
473,255,88257,1,0,3:0:0:0:
244,57,88432,1,0,0:0:0:0:
244,57,88519,1,0,3:0:0:0:
318,360,88693,1,0,0:0:0:0:
318,360,88781,1,0,3:0:0:0:
416,78,88955,1,0,1:0:0:0:
315,205,89130,5,0,3:0:0:0:
315,205,89217,1,0,3:0:0:0:
315,205,89304,1,2,1:2:0:0:
315,205,89391,2,0,L|350:245,1,38.6999988189698,0|0,1:2|0:0,0:0:0:0:
225,201,89566,1,2,0:0:0:0:
225,201,89653,2,0,L|242:251,1,38.6999988189698,0|0,1:0|0:0,0:0:0:0:
149,152,89827,1,2,0:0:0:0:
149,152,89914,2,2,L|146:205,1,38.6999988189698,0|2,1:0|0:0,0:0:0:0:
92,87,90089,1,2,0:0:0:0:
92,87,90176,2,0,L|69:135,1,38.6999988189698,0|0,1:0|0:0,0:0:0:0:
76,14,90350,1,8,0:0:0:0:
42,325,90525,5,0,3:0:0:0:
42,325,90612,1,0,3:0:0:0:
42,325,90699,1,0,1:0:0:0:
42,325,90786,2,0,L|24:375,1,38.6999988189698,0|0,1:0|0:0,0:0:0:0:
123,286,90961,1,2,0:0:0:0:
123,286,91048,2,0,L|125:338,1,38.6999988189698,0|0,1:0|0:0,0:0:0:0:
175,213,91222,1,2,0:0:0:0:
175,213,91309,2,0,L|197:261,1,38.6999988189698,0|0,1:0|0:0,0:0:0:0:
203,131,91484,1,2,0:0:0:0:
203,131,91571,2,0,L|242:166,1,38.6999988189698,0|0,1:0|0:0,0:0:0:0:
191,58,91745,1,8,0:0:0:0:
315,336,91920,5,0,3:0:0:0:
336,343,92007,1,0,3:0:0:0:
357,350,92094,1,0,1:0:0:0:
377,361,92181,2,0,L|425:378,1,38.6999988189698,0|0,1:0|0:0,0:0:0:0:
344,251,92356,1,2,0:0:0:0:
366,254,92443,2,0,L|427:246,1,38.6999988189698,0|0,1:0|0:0,0:0:0:0:
453,45,92617,1,2,0:0:0:0:
429,43,92705,2,0,L|368:28,1,38.6999988189698,0|0,1:0|0:0,0:0:0:0:
503,124,92879,1,2,0:0:0:0:
480,129,92966,2,0,L|430:152,1,38.6999988189698,0|0,1:0|0:0,0:0:0:0:
301,5,93141,1,8,0:0:0:0:
193,261,93316,5,0,3:0:0:0:
214,254,93403,1,0,3:0:0:0:
235,247,93490,1,0,1:0:0:0:
255,236,93577,2,0,L|303:219,1,38.6999988189698,0|0,1:0|0:0,0:0:0:0:
222,346,93752,1,2,0:0:0:0:
244,343,93839,2,0,L|305:351,1,38.6999988189698,0|0,1:0|0:0,0:0:0:0:
50,172,94013,1,2,0:0:0:0:
48,148,94101,2,0,L|33:87,1,38.6999988189698,0|0,1:0|0:0,0:0:0:0:
129,222,94275,1,2,0:0:0:0:
134,199,94362,2,0,L|157:149,1,38.6999988189698,0|0,1:0|0:0,0:0:0:0:
18,35,94537,1,8,0:0:0:0:
20,266,94711,5,0,3:0:0:0:
32,298,94798,1,0,3:0:0:0:
51,326,94885,1,0,1:0:0:0:
79,346,94973,2,0,L|127:354,1,38.6999988189698,0|0,1:0|0:0,0:0:0:0:
246,238,95147,1,2,0:0:0:0:
217,258,95234,2,0,L|154:273,1,38.6999988189698,0|0,1:0|0:0,0:0:0:0:
89,136,95409,1,2,0:0:0:0:
118,156,95496,2,0,L|181:171,1,38.6999988189698,0|0,1:0|0:0,0:0:0:0:
280,72,95670,1,2,0:0:0:0:
251,92,95757,2,0,L|188:107,1,38.6999988189698,0|0,1:0|0:0,0:0:0:0:
53,211,95932,1,8,0:0:0:0:
262,323,96106,5,0,3:0:0:0:
284,312,96193,1,0,3:0:0:0:
308,287,96280,1,0,3:0:0:0:
327,257,96368,2,0,L|337:187,1,38.6999988189698,0|0,1:0|0:0,0:0:0:0:
421,93,96542,1,2,0:0:0:0:
436,124,96629,2,0,L|476:186,1,38.6999988189698,0|0,1:0|0:0,0:0:0:0:
400,279,96804,1,2,0:0:0:0:
412,246,96891,2,0,L|405:191,1,38.6999988189698,0|0,1:0|0:0,0:0:0:0:
330,42,97065,1,2,0:0:0:0:
329,77,97153,2,0,L|362:130,1,38.6999988189698,0|0,1:0|0:0,0:0:0:0:
433,356,97327,1,8,0:0:0:0:
266,182,97502,5,0,3:0:0:0:
220,192,97589,1,0,3:0:0:0:
173,189,97676,1,0,1:0:0:0:
127,180,97763,2,0,L|62:153,1,38.6999988189698,0|0,1:0|0:0,0:0:0:0:
235,91,97938,1,2,0:0:0:0:
244,45,98025,2,0,L|269:13,1,38.6999988189698,0|0,1:0|0:0,0:0:0:0:
325,233,98199,1,2,0:0:0:0:
371,239,98287,2,0,L|424:251,1,38.6999988189698,0|0,1:0|0:0,0:0:0:0:
198,284,98461,1,2,0:0:0:0:
168,318,98548,2,0,L|133:377,1,38.6999988189698,0|0,1:0|0:0,0:0:0:0:
243,191,98723,1,8,0:0:0:0:
71,25,98897,5,0,3:0:0:0:
53,40,98984,1,0,3:0:0:0:
30,71,99071,1,0,1:0:0:0:
28,110,99159,1,0,1:0:0:0:
35,147,99246,1,4,1:2:0:0:
57,178,99333,1,0,1:0:0:0:
103,212,99420,5,0,1:0:0:0:
160,206,99507,1,0,1:0:0:0:
209,174,99595,1,0,1:0:0:0:
226,118,99682,1,0,1:0:0:0:
279,73,99769,5,4,1:2:0:0:
301,77,99856,1,0,1:0:0:0:
322,85,99943,1,0,1:0:0:0:
341,97,100031,1,0,1:0:0:0:
370,121,100118,5,8,1:0:0:0:
390,132,100205,1,8,1:0:0:0:
412,134,100292,1,8,1:3:0:0:
435,130,100380,1,8,1:3:0:0:
495,95,100467,6,2,L|487:42,1,38.6999988189698,4|0,1:3|0:0,0:0:0:0:
461,108,100728,1,0,3:0:0:0:
461,108,100816,2,0,L|453:152,1,38.6999988189698,8|0,1:2|0:0,0:0:0:0:
431,26,101077,1,2,3:0:0:0:
431,26,101165,1,0,1:0:0:0:
364,175,101339,1,8,1:2:0:0:
332,160,101426,1,0,3:0:0:0:
297,162,101513,1,2,3:0:0:0:
264,175,101600,1,0,3:0:0:0:
239,200,101688,1,2,3:0:0:0:
208,216,101775,1,0,3:0:0:0:
173,218,101862,6,2,L|118:217,1,38.6999988189698,4|8,1:3|0:0,0:0:0:0:
72,143,102124,1,2,3:0:0:0:
72,143,102211,2,0,L|124:145,1,38.6999988189698,8|0,1:2|0:0,0:0:0:0:
35,201,102473,1,0,3:0:0:0:
35,201,102560,1,0,1:0:0:0:
18,74,102734,1,8,1:2:0:0:
96,250,102909,1,2,3:0:0:0:
110,281,102996,1,0,3:0:0:0:
136,302,103083,1,2,3:0:0:0:
168,314,103170,1,0,3:0:0:0:
202,312,103257,5,0,1:0:0:0:
202,312,103345,2,2,L|189:272,1,38.6999988189698,0|0,1:0|0:0,0:0:0:0:
271,347,103606,2,0,L|278:298,1,38.6999988189698,8|0,1:2|0:0,0:0:0:0:
211,380,103868,1,0,3:0:0:0:
208,368,103955,1,2,3:0:0:0:
206,356,104042,1,0,3:0:0:0:
203,344,104130,1,8,1:2:0:0:
300,217,104304,1,0,1:0:0:0:
173,112,104478,5,2,3:0:0:0:
173,112,104566,1,2,3:0:0:0:
173,112,104653,2,2,L|177:58,1,38.6999988189698,0|0,1:0|0:0,0:0:0:0:
214,15,104914,1,2,3:0:0:0:
214,15,105002,2,0,L|270:24,1,38.6999988189698,8|0,1:2|0:0,0:0:0:0:
301,74,105263,1,0,3:0:0:0:
312,75,105350,1,2,3:0:0:0:
323,76,105438,1,0,3:0:0:0:
334,77,105525,1,8,1:2:0:0:
410,207,105699,6,2,B|472:212|472:212|424:193|424:193|418:184|418:184|351:204|351:204|314:190,1,193.50000738144,2|0,1:0|0:0,1:0:0:0:
316,183,106048,6,2,B|304:173|304:173|361:185,1,58.0499982284546,4|0,0:3|0:0,0:0:0:0:
272,247,106397,6,2,B|227:230|227:230|259:22,1,258,8|0,1:0|0:0,0:1:0:0:
227,81,106746,5,4,0:3:0:0:
222,97,106833,1,0,3:0:0:0:
215,112,106920,2,0,L|205:46,1,43,8|0,1:0|0:0,0:0:0:0:
238,173,107095,1,2,3:0:0:0:
243,189,107182,1,2,3:0:0:0:
250,204,107269,2,0,L|260:138,1,43,8|0,1:2|0:0,0:0:0:0:
212,263,107443,6,0,L|220:316,1,38.6999988189698,4|0,1:3|0:0,0:0:0:0:
261,361,107705,1,0,3:0:0:0:
261,361,107792,1,8,1:0:0:0:
49,361,107967,5,0,3:0:0:0:
76,344,108054,1,2,3:0:0:0:
96,368,108141,2,2,L|32:357,1,64.5000024604798,8|0,1:2|0:0,0:1:0:0:
84,232,108316,1,0,1:0:0:0:
91,263,108403,2,2,L|33:203,1,64.5000024604798,2|0,1:0|0:0,0:1:0:0:
166,163,108577,1,0,1:0:0:0:
163,200,108664,2,2,L|119:108,1,64.5000024604798,10|0,1:0|0:0,0:1:0:0:
202,31,108839,6,0,L|207:54,3,21.5,0|0|0|0,3:0|3:0|3:0|3:0,3:0:0:0:
269,87,109013,2,0,L|271:63,1,21.5,8|0,0:3|0:0,0:0:0:0:
463,195,109188,6,0,L|453:232,1,32.2500012302399,8|0,1:0|0:0,0:0:0:0:
462,242,109362,2,2,L|470:210,1,32.2500012302399,2|0,1:0|0:0,0:1:0:0:
290,358,109537,5,0,1:0:0:0:
272,330,109624,1,0,1:0:0:0:
329,301,109711,2,2,L|324:349,1,43,8|0,1:0|0:0,0:1:0:0:
286,227,109885,5,2,1:3:0:0:
304,199,109972,1,0,1:0:0:0:
247,170,110059,2,2,L|252:218,1,43,8|0,1:2|0:0,0:1:0:0:
374,58,110234,6,2,B|385:27|385:27|376:88,1,86,2|0,1:0|0:0,1:2:0:0:
357,109,110496,1,2,3:0:0:0:
357,109,110583,2,2,L|364:56,1,38.6999988189698,4|0,1:3|0:0,0:0:0:0:
113,125,110845,6,2,B|93:107|93:107|38:109,1,64.5000024604798,8|0,1:0|0:0,0:0:0:0:
127,130,111019,2,0,L|93:58,1,64.5000024604798,8|0,1:2|0:0,0:0:0:0:
43,245,111193,6,2,B|63:227|63:227|100:228,1,64.5000024604798,8|0,1:0|0:0,0:0:0:0:
29,250,111368,1,2,1:3:0:0:
29,250,111455,2,0,L|56:191,1,64.5000024604798,2|0,1:3|0:0,0:0:0:0:
153,352,111630,6,2,L|100:344,1,38.6999988189698,4|0,1:3|0:0,0:0:0:0:
61,358,111891,1,2,3:0:0:0:
61,358,111978,2,0,L|101:367,1,38.6999988189698,8|2,1:2|0:0,0:0:0:0:
240,218,112327,1,0,1:0:0:0:
263,218,112414,1,8,0:0:0:0:
285,224,112501,1,8,1:0:0:0:
306,233,112588,1,0,3:0:0:0:
327,243,112675,1,2,1:3:0:0:
349,251,112763,1,0,1:0:0:0:
372,255,112850,1,2,1:3:0:0:
395,259,112938,1,0,1:0:0:0:
418,261,113025,6,2,L|403:206,1,38.6999988189698,4|0,1:3|0:0,0:0:0:0:
473,314,113287,1,2,1:3:0:0:
473,314,113374,2,0,L|462:269,1,38.6999988189698,8|0,1:0|0:0,0:0:0:0:
418,358,113635,1,2,3:0:0:0:
418,358,113723,1,0,1:0:0:0:
476,167,113897,1,8,1:2:0:0:
321,256,114071,1,0,1:0:0:0:
307,236,114159,1,8,1:2:0:0:
295,215,114246,1,8,1:0:0:0:
290,192,114333,1,2,1:3:0:0:
287,168,114420,5,0,1:0:0:0:
287,168,114507,2,2,L|291:120,1,38.6999988189698,8|0,1:2|0:0,0:0:0:0:
342,83,114769,2,0,L|335:124,1,38.6999988189698,8|0,1:0|0:0,0:0:0:0:
281,34,115031,1,2,1:3:0:0:
281,34,115118,1,8,1:0:0:0:
151,127,115292,1,2,1:3:0:0:
151,127,115380,1,8,1:2:0:0:
126,44,115554,1,2,1:3:0:0:
126,44,115641,1,4,1:3:0:0:
73,164,115816,6,2,L|85:217,1,38.6999988189698,8|0,1:0|0:0,0:0:0:0:
18,109,116077,1,2,3:0:0:0:
18,109,116164,1,8,1:0:0:0:
165,219,116339,1,4,1:3:0:0:
157,240,116426,1,8,1:2:0:0:
147,261,116513,1,8,1:0:0:0:
138,282,116600,1,0,1:0:0:0:
132,304,116688,1,2,1:3:0:0:
126,326,116775,1,0,1:0:0:0:
117,349,116862,6,2,B|172:283|172:282|142:150,1,193.50000738144,2|0,1:0|0:0,0:1:0:0:
180,310,117211,5,4,1:3:0:0:
183,322,117298,1,0,3:0:0:0:
187,334,117385,1,2,3:0:0:0:
190,346,117473,1,0,3:0:0:0:
196,356,117560,2,2,B|269:360|306:243|372:261,1,193.50000738144,8|0,1:0|0:0,0:1:0:0:
253,317,117909,1,4,1:3:0:0:
258,323,117996,1,2,1:3:0:0:
266,322,118083,2,2,B|239:230|212:146|243:105,1,193.50000738144,8|0,1:0|0:0,0:1:0:0:
256,247,118432,2,0,B|280:210|284:191|311:172,1,64.5000024604798,8|0,1:2|0:0,0:0:0:0:
316,22,118606,2,0,B|317:43|335:53|348:98,1,64.5000024604798,2|0,1:0|0:0,0:0:0:0:
452,190,118781,5,2,1:0:0:0:
457,204,118868,1,0,1:0:0:0:
460,216,118955,1,8,1:0:0:0:
474,204,119042,2,0,B|448:185|448:185|383:197,1,64.5000024604798,2|0,1:0|0:0,0:0:0:0:
314,194,119217,1,2,1:3:0:0:
334,211,119304,2,0,B|356:240|356:240|345:282,1,64.5000024604798,8|0,1:2|0:0,0:0:0:0:
217,149,119478,1,4,1:3:0:0:
199,166,119566,2,0,B|173:193|173:193|180:243,1,64.5000024604798,8|0,1:0|0:0,0:0:0:0:
74,195,119740,1,2,1:3:0:0:
36,198,119827,2,2,B|61:224|61:224|104:193,1,64.5000024604798,10|0,1:0|0:0,0:0:0:0:
81,333,120002,5,4,1:3:0:0:
91,351,120089,2,2,P|116:318|135:274,1,64.5000024604798,2|0,1:0|0:0,0:0:0:0:
39,28,120350,6,0,B|46:23|46:23|147:36,1,86,8|0,1:0|0:0,0:0:0:0:
164,62,120525,2,2,B|157:67|157:67|56:54,1,86,2|0,1:0|0:0,0:1:0:0:
241,185,120699,1,4,1:3:0:0:
273,201,120787,1,2,3:0:0:0:
256,168,120874,2,0,L|232:73,1,86,8|0,1:0|0:0,0:0:0:0:
306,356,121048,2,2,L|326:254,1,86,2|0,1:0|0:0,0:1:0:0:
452,157,121223,1,8,1:2:0:0:
462,176,121310,1,2,1:0:0:0:
466,217,121397,6,2,B|435:171|411:133|456:104,1,129,4|0,1:3|0:0,0:0:0:0:
475,163,121746,6,2,L|406:177,1,58.0499982284546,8|0,1:3|0:0,0:0:0:0:
271,18,122095,6,2,B|288:36|288:36|254:131,1,86,2|0,1:0|0:0,0:1:0:0:
249,199,122269,2,2,B|266:181|266:181|232:86,1,86,2|0,1:0|0:0,0:1:0:0:
165,24,122443,6,0,B|189:41|189:41|228:174,1,129.00000492096,10|0,1:0|0:0,0:0:0:0:
194,258,122618,6,2,B|170:241|170:241|141:145,1,129.00000492096,2|0,1:0|0:0,0:1:0:0:
26,270,122792,6,2,L|81:278,1,38.6999988189698,4|0,1:3|0:0,0:0:0:0:
111,332,123054,1,2,1:3:0:0:
111,332,123141,2,0,L|116:366,1,19.3499994094849,8|0,1:2|0:0,0:0:0:0:
144,240,123316,1,2,3:0:0:0:
164,250,123403,1,0,3:0:0:0:
180,266,123490,1,2,3:0:0:0:
190,286,123577,1,0,3:0:0:0:
193,308,123664,2,0,L|189:337,1,19.3499994094849,8|0,1:2|0:0,0:0:0:0:
209,127,123839,1,2,3:0:0:0:
192,109,123926,1,0,3:0:0:0:
208,96,124013,1,2,3:0:0:0:
199,78,124100,1,0,3:0:0:0:
221,71,124188,6,2,P|249:49|264:43,1,38.6999988189698,4|0,1:3|0:0,0:0:0:0:
311,16,124449,1,2,1:3:0:0:
311,16,124537,2,0,L|346:25,1,19.3499994094849,8|0,1:2|0:0,0:0:0:0:
467,62,124711,1,2,3:0:0:0:
445,70,124798,1,0,3:0:0:0:
425,82,124885,1,2,3:0:0:0:
408,98,124973,1,0,3:0:0:0:
390,112,125060,2,2,L|375:139,1,19.3499994094849,8|0,1:2|0:0,0:0:0:0:
338,186,125234,1,2,3:0:0:0:
354,202,125321,1,0,3:0:0:0:
371,217,125409,2,0,L|405:227,1,19.3499994094849,8|0,1:2|0:0,0:0:0:0:
461,202,125583,5,0,1:0:0:0:
461,202,125670,1,2,1:3:0:0:
263,265,125845,1,2,1:3:0:0:
263,265,125932,1,8,1:2:0:0:
445,347,126106,1,2,3:0:0:0:
445,347,126193,1,2,3:2:0:0:
371,268,126368,1,2,1:2:0:0:
371,268,126455,2,0,L|359:237,1,19.3499994094849,8|0,1:2|0:0,0:0:0:0:
308,205,126630,1,2,3:0:0:0:
308,205,126717,2,0,L|311:179,1,19.3499994094849,2|0,1:2|0:0,0:0:0:0:
350,73,126891,5,2,3:0:0:0:
350,73,126978,2,0,L|332:115,1,38.6999988189698,8|0,1:2|0:0,0:0:0:0:
231,164,127240,1,2,1:3:0:0:
231,164,127327,2,2,L|184:150,1,38.6999988189698,4|0,1:3|0:0,0:0:0:0:
256,63,127589,1,2,3:0:0:0:
254,51,127676,1,4,1:2:0:0:
253,39,127763,1,2,3:0:0:0:
252,27,127850,1,8,3:2:0:0:
256,253,128025,6,2,B|269:364|269:364|277:270,1,193.50000738144,2|0,1:0|0:0,0:1:0:0:
237,309,128374,6,2,L|250:373,1,58.0499982284546,6|2,1:3|0:0,0:0:0:0:
182,269,128723,6,2,B|140:271|122:288|122:288|67:245|62:183|18:167|18:167|45:131,1,258,8|0,1:0|0:0,0:1:0:0:
112,172,129071,5,4,1:3:0:0:
112,198,129159,1,2,1:3:0:0:
100,221,129246,2,0,L|69:178,1,43,8|0,1:2|0:0,0:0:0:0:
52,279,129420,1,0,3:0:0:0:
52,305,129508,1,2,3:0:0:0:
64,328,129595,2,0,L|95:285,1,43,8|0,1:0|0:0,0:0:0:0:
272,236,129769,6,0,B|192:244|192:244|279:281,1,129.00000492096,2|0,1:0|0:0,0:1:0:0:
296,307,130031,1,2,3:0:0:0:
314,311,130118,1,8,1:2:0:0:
451,267,130292,1,0,1:0:0:0:
376,123,130467,1,2,1:0:0:0:
361,135,130554,1,2,3:0:0:0:
317,114,130641,1,2,3:0:0:0:
301,124,130728,1,8,3:2:0:0:
296,72,130816,1,0,3:0:0:0:
277,76,130903,1,2,3:0:0:0:
315,35,130990,1,2,3:0:0:0:
299,23,131077,1,8,3:2:0:0:
325,71,131164,6,2,B|283:150|343:183|439:228|448:113,1,258,4|0,1:3|0:0,0:0:0:0:
397,139,131513,2,0,P|388:167|436:191,1,86,8|0,1:0|0:0,0:0:0:0:
407,225,131688,2,2,P|456:244|484:190,1,86,2|0,1:0|0:0,0:1:0:0:
348,305,131862,5,4,1:3:0:0:
318,312,131949,1,2,1:3:0:0:
315,342,132037,2,0,P|347:338|348:304,1,43,8|0,1:2|0:0,0:0:0:0:
298,249,132211,2,2,P|268:266|260:318,1,64.5000024604798,2|0,1:0|0:0,0:0:0:0:
297,65,132385,5,8,1:2:0:0:
291,46,132473,1,2,1:0:0:0:
251,45,132560,6,2,P|185:27|135:34,1,96.7500036907198,4|0,1:3|0:0,0:0:0:0:
137,54,132909,6,2,L|221:42,1,64.5000024604798,8|0,1:3|0:0,0:0:0:0:
51,113,133170,6,2,B|66:160|45:229,1,107.5,8|0,1:2|0:0,0:1:0:0:
100,172,133345,6,2,B|86:219|31:266,1,107.5,8|0,1:2|0:0,0:1:0:0:
152,227,133519,5,4,1:3:0:0:
152,227,133606,2,2,B|115:259|57:265|26:287|9:382,1,215,2|0,1:0|1:0,0:1:0:0:
270,192,133868,5,8,1:2:0:0:
270,192,133955,2,2,L|321:199,1,38.6999988189698,4|0,1:3|0:0,0:0:0:0:
357,142,134217,1,0,3:0:0:0:
357,142,134304,2,0,L|307:131,1,38.6999988189698,8|0,1:0|0:0,0:0:0:0:
385,222,134566,1,2,3:0:0:0:
408,221,134653,1,0,1:0:0:0:
430,217,134740,1,2,1:3:0:0:
451,208,134827,2,2,L|493:184,1,38.6999988189698,10|2,1:2|3:0,0:0:0:0:
437,295,135089,1,8,1:2:0:0:
437,295,135176,2,0,L|458:299,1,19.3499994094849,2|0,1:3|0:0,0:0:0:0:
293,357,135350,6,2,L|283:303,1,38.6999988189698,8|0,1:0|0:0,0:0:0:0:
207,249,135612,1,2,1:3:0:0:
207,249,135699,2,0,L|198:294,1,38.6999988189698,8|0,1:0|0:0,0:0:0:0:
288,151,135961,1,2,3:0:0:0:
294,128,136048,1,0,1:0:0:0:
295,104,136135,1,8,1:2:0:0:
294,80,136223,2,2,L|280:35,1,38.6999988189698,8|0,1:0|0:0,0:0:0:0:
184,133,136571,1,8,1:2:0:0:
191,155,136659,2,0,L|203:184,1,19.3499994094849,0|0,1:0|0:0,0:0:0:0:
165,65,136833,1,2,1:3:0:0:
46,147,137007,5,8,1:2:0:0:
46,147,137095,2,0,P|41:194|39:200,1,38.6999988189698,8|0,1:0|3:0,0:0:0:0:
98,238,137356,1,2,1:3:0:0:
98,238,137443,2,0,L|79:277,1,38.6999988189698,8|0,1:2|0:0,0:0:0:0:
162,197,137705,1,2,1:3:0:0:
162,197,137792,1,4,1:3:0:0:
185,198,137880,1,8,1:2:0:0:
206,206,137967,1,8,1:3:0:0:
219,224,138054,1,2,3:0:0:0:
235,239,138141,6,0,P|267:258|281:264,1,38.6999988189698,8|0,1:0|3:0,0:0:0:0:
255,158,138403,1,2,1:3:0:0:
255,158,138490,2,0,L|235:124,1,38.6999988189698,8|0,1:2|1:0,0:0:0:0:
329,165,138752,1,2,3:0:0:0:
329,165,138839,1,0,3:0:0:0:
339,144,138926,1,8,1:2:0:0:
354,127,139013,1,8,1:0:0:0:
373,114,139100,1,0,3:0:0:0:
392,101,139188,2,2,L|458:87,1,58.0499982284546,4|0,1:3|0:0,0:0:0:0:
256,27,139537,5,4,1:2:0:0:
218,37,139624,1,8,1:2:0:0:
58,109,139798,1,8,1:2:0:0:
95,117,139885,1,4,1:3:0:0:
131,129,139973,2,0,L|72:138,1,32.2500012302399,8|2,1:2|0:0,0:0:0:0:
132,40,140147,1,2,1:0:0:0:
132,40,140234,2,0,L|91:44,1,32.2500012302399,0|2,1:0|0:1,0:0:0:0:
26,194,140409,1,2,1:3:0:0:
26,194,140496,2,0,L|58:191,1,32.2500012302399,8|0,1:2|0:0,0:0:0:0:
137,271,140670,1,2,1:3:0:0:
137,271,140757,2,0,L|85:279,1,32.2500012302399,8|0,1:2|0:0,0:0:0:0:
234,197,140932,5,4,1:3:0:0:
271,204,141019,1,2,1:3:0:0:
408,317,141193,1,8,1:2:0:0:
369,318,141281,1,4,1:3:0:0:
331,308,141368,2,0,L|371:296,1,32.2500012302399,2|8,3:0|0:0,0:0:0:0:
463,208,141543,1,2,1:0:0:0:
463,208,141630,2,0,L|417:219,1,32.2500012302399,0|2,1:0|0:1,0:0:0:0:
342,126,141804,1,0,1:0:0:0:
345,129,141891,2,0,L|392:137,1,32.2500012302399,2|0,1:0|0:0,0:0:0:0:
450,46,142066,1,2,3:0:0:0:
450,46,142153,2,0,L|404:57,1,32.2500012302399,8|0,1:2|0:0,0:0:0:0:
236,166,142327,5,4,1:3:0:0:
263,193,142414,1,2,0:0:0:0:
146,130,142589,1,8,1:2:0:0:
155,167,142676,1,4,1:3:0:0:
155,205,142763,2,0,L|141:247,1,32.2500012302399,2|2,1:3|0:0,0:0:0:0:
59,104,142938,1,2,1:0:0:0:
51,141,143025,2,0,L|24:175,1,32.2500012302399,0|2,1:0|0:1,0:0:0:0:
120,23,143199,1,2,1:3:0:0:
150,47,143287,2,0,L|199:45,1,32.2500012302399,6|0,1:0|0:0,0:0:0:0:
48,50,143461,1,2,3:0:0:0:
40,87,143548,2,2,L|13:121,1,32.2500012302399,4|0,1:3|0:0,0:0:0:0:
26,335,143723,5,4,1:3:0:0:
55,309,143810,1,0,3:0:0:0:
93,311,143897,1,2,3:0:0:0:
103,348,143984,1,0,0:0:0:0:
72,371,144071,5,0,1:0:0:0:
56,359,144159,1,0,3:0:0:0:
59,340,144246,1,0,3:0:0:0:
76,331,144333,1,2,3:0:0:0:
129,367,144420,5,0,1:0:0:0:
142,330,144507,1,0,3:0:0:0:
131,292,144595,1,2,3:0:0:0:
99,269,144682,1,0,3:0:0:0:
40,242,144769,5,8,1:2:0:0:
24,192,144856,1,0,3:0:0:0:
27,140,144943,1,4,3:2:0:0:
57,97,145031,1,2,3:0:0:0:
124,93,145118,5,0,1:3:0:0:
134,125,145205,2,2,L|118:196,1,43,4|0,1:2|0:0,0:0:0:0:
69,21,145380,1,2,1:3:0:0:
42,42,145467,2,0,L|27:90,2,43,8|2|2,1:2|3:0|3:0,0:0:0:0:
48,163,145728,1,2,1:0:0:0:
48,163,145816,1,4,1:3:0:0:
293,179,145990,5,2,3:0:0:0:
293,179,146077,1,2,1:0:0:0:
228,206,146252,1,2,3:2:0:0:
228,206,146339,1,2,1:0:0:0:
336,31,146513,5,4,1:3:0:0:
364,49,146600,2,2,L|426:61,1,43,4|0,1:2|0:0,0:0:0:0:
466,144,146775,1,2,1:3:0:0:
432,149,146862,2,0,L|388:163,2,43,8|2|2,1:2|3:0|3:0,0:0:0:0:
485,47,147124,1,2,1:0:0:0:
485,47,147211,1,4,1:3:0:0:
260,204,147385,5,8,3:0:0:0:
260,204,147473,1,2,1:0:0:0:
242,127,147647,1,2,3:2:0:0:
242,127,147734,1,2,1:0:0:0:
218,320,147909,5,4,1:3:0:0:
188,301,147996,2,2,L|130:286,1,43,4|0,1:2|0:0,0:0:0:0:
270,370,148170,1,2,1:3:0:0:
300,351,148257,2,0,L|358:336,2,43,8|2|2,1:2|3:0|3:0,0:0:0:0:
130,360,148519,1,2,1:0:0:0:
130,360,148606,1,4,1:3:0:0:
311,148,148781,5,4,3:0:0:0:
311,148,148868,1,2,1:0:0:0:
276,240,149042,1,2,3:2:0:0:
276,240,149130,1,2,1:0:0:0:
209,57,149304,5,4,1:3:0:0:
179,76,149391,2,2,L|121:91,1,43,4|0,1:2|0:0,0:0:0:0:
267,3,149565,1,2,1:3:0:0:
297,22,149652,2,0,L|355:37,2,43,8|2|2,1:2|3:0|3:0,0:0:0:0:
142,5,149914,1,2,1:0:0:0:
142,5,150002,1,8,1:3:0:0:
220,198,150176,5,8,1:2:0:0:
220,198,150263,1,2,1:0:0:0:
326,226,150437,1,2,3:2:0:0:
326,226,150525,1,2,1:0:0:0:
138,365,150699,5,4,1:3:0:0:
130,331,150787,2,2,L|114:267,1,43,4|0,1:2|0:0,0:0:0:0:
23,226,150961,1,2,1:3:0:0:
17,259,151048,2,0,L|6:307,2,43,8|2|2,1:2|3:0|3:0,0:0:0:0:
52,368,151310,1,2,1:0:0:0:
52,368,151397,1,4,1:3:0:0:
203,174,151572,5,8,1:2:0:0:
203,174,151659,1,2,1:0:0:0:
268,285,151833,1,2,3:2:0:0:
268,285,151920,1,2,1:0:0:0:
352,31,152095,5,4,1:3:0:0:
360,65,152183,2,2,L|376:129,1,43,4|0,1:2|0:0,0:0:0:0:
467,170,152357,1,2,1:3:0:0:
473,137,152444,2,0,L|484:89,2,43,8|2|2,1:2|3:0|3:0,0:0:0:0:
442,23,152706,1,2,1:0:0:0:
442,23,152792,1,4,1:3:0:0:
282,144,152968,5,8,1:2:0:0:
282,144,153055,1,2,1:0:0:0:
213,249,153229,1,2,3:2:0:0:
213,249,153316,1,2,1:0:0:0:
354,320,153490,5,4,1:3:0:0:
379,342,153577,2,2,L|447:351,1,43,4|0,1:2|0:0,0:0:0:0:
461,212,153752,1,2,1:3:0:0:
428,223,153839,2,0,L|368:228,2,43,8|2|2,1:2|3:0|3:0,0:0:0:0:
480,303,154100,1,2,1:0:0:0:
480,303,154188,1,4,1:3:0:0:
184,234,154362,5,8,1:2:0:0:
184,234,154449,1,2,1:0:0:0:
311,179,154624,1,2,3:2:0:0:
311,179,154711,1,2,1:0:0:0:
120,21,154885,5,4,1:3:0:0:
186,53,155060,1,8,0:0:0:0:
68,100,155234,1,2,1:0:0:0:
68,100,155321,1,2,3:0:0:0:
153,141,155496,1,0,3:0:0:0:
153,141,155583,1,8,0:0:0:0:
3,179,155757,1,0,3:0:0:0:
3,179,155845,1,8,0:0:0:0:
141,243,156019,1,2,0:0:0:0:
141,243,156106,1,8,3:2:0:0:
52,343,156281,5,4,1:3:0:0:
13,362,156368,2,2,L|23:299,1,43,4|2,1:2|3:0,0:0:0:0:
122,162,156542,1,2,1:0:0:0:
165,164,156630,1,8,1:2:0:0:
196,192,156717,1,2,1:3:0:0:
214,230,156804,2,0,L|198:282,1,43,2|2,1:3|0:1,0:0:0:0:
48,192,156978,1,4,1:3:0:0:
37,149,157066,2,0,L|57:95,1,43,2|0,1:0|0:0,0:0:0:0:
174,27,157240,1,2,1:0:0:0:
191,66,157327,2,0,L|159:119,1,43,8|0,1:2|0:0,0:0:0:0:
90,282,157502,2,0,L|112:236,1,43,2|0,1:0|0:0,0:0:0:0:
353,141,157676,5,4,1:3:0:0:
331,177,157763,2,2,L|268:192,1,43,4|0,1:2|0:0,0:0:0:0:
408,252,157938,1,2,1:3:0:0:
442,226,158025,1,8,1:2:0:0:
463,188,158112,1,0,3:0:0:0:
460,145,158199,2,0,L|432:66,1,43,2|2,1:3|0:1,0:0:0:0:
331,304,158374,1,4,1:3:0:0:
357,338,158461,2,0,L|409:370,1,43,2|2,1:0|3:0,0:0:0:0:
242,265,158635,1,2,1:0:0:0:
223,304,158723,2,0,L|243:368,1,43,8|0,1:2|0:0,0:0:0:0:
204,161,158897,2,0,L|175:197,1,43,2|0,1:0|0:0,0:0:0:0:
295,75,159071,5,4,1:3:0:0:
331,51,159159,2,2,L|336:9,1,43,4|0,1:2|0:0,0:0:0:0:
330,141,159333,1,2,1:3:0:0:
372,148,159420,1,8,1:2:0:0:
413,136,159507,1,0,3:0:0:0:
447,109,159595,2,0,L|453:52,1,43,2|2,1:3|0:1,0:0:0:0:
367,238,159769,1,4,1:3:0:0:
324,241,159856,2,0,L|275:217,1,43,2|2,1:0|0:0,0:0:0:0:
398,317,160031,1,2,1:0:0:0:
440,326,160118,2,0,L|478:307,1,43,8|0,1:2|0:0,0:0:0:0:
333,372,160292,2,0,L|292:348,1,43,2|0,1:0|0:0,0:0:0:0:
184,179,160467,5,4,1:3:0:0:
202,140,160554,2,2,L|194:77,1,43,4|0,1:2|0:0,0:0:0:0:
150,250,160728,1,2,1:3:0:0:
107,240,160816,1,8,1:2:0:0:
74,211,160903,1,0,3:0:0:0:
47,177,160990,2,0,L|39:107,1,43,2|2,1:3|0:1,0:0:0:0:
86,315,161164,1,4,1:3:0:0:
44,303,161252,2,0,L|5:254,1,43,2|0,1:0|0:0,0:0:0:0:
201,326,161426,1,2,1:0:0:0:
167,352,161513,2,0,L|121:375,1,43,8|0,1:2|0:0,0:0:0:0:
231,213,161688,2,0,L|250:277,1,43,2|0,1:0|0:0,0:0:0:0:
223,20,161862,5,4,1:0:0:0:
198,55,161949,2,2,L|139:65,1,43,4|0,1:2|0:0,0:0:0:0:
256,103,162124,1,2,1:0:0:0:
298,109,162211,2,0,L|366:79,1,43,4|0,1:3|0:0,0:0:0:0:
194,150,162385,2,0,L|147:151,1,43,2|0,1:0|0:0,0:0:0:0:
236,19,162560,5,4,1:2:0:0:
216,41,162647,2,2,L|157:40,1,43,4|0,1:2|0:0,0:0:0:0:
252,106,162822,1,2,1:0:0:0:
280,115,162909,2,0,L|353:99,1,43,4|0,1:3|0:0,0:0:0:0:
183,141,163083,2,0,L|136:133,1,43,2|0,1:0|0:0,0:0:0:0:
249,20,163257,5,4,1:0:0:0:
234,36,163344,2,2,L|176:24,1,43,4|0,1:2|0:0,0:0:0:0:
248,110,163519,1,2,1:0:0:0:
266,120,163606,2,0,L|340:118,1,43,8|0,1:2|0:0,0:0:0:0:
173,130,163780,2,0,L|129:113,1,43,2|0,1:0|0:0,0:0:0:0:
261,24,163955,5,4,1:2:0:0:
249,28,164042,2,2,L|194:4,1,43,4|0,1:2|0:0,0:0:0:0:
243,112,164217,1,2,1:0:0:0:
252,120,164304,2,0,L|326:132,1,43,8|0,1:2|0:0,0:0:0:0:
166,118,164478,2,0,L|126:93,1,43,0|0,1:0|0:0,0:0:0:0:
318,321,164653,5,4,1:0:0:0:
339,358,164740,2,2,L|406:395,1,43,4|0,1:2|0:0,0:0:0:0:
384,231,164914,1,2,1:0:0:0:
411,264,165002,1,4,1:2:0:0:
442,292,165089,1,2,0:0:0:0:
480,310,165176,2,0,L|478:249,1,43,2|0,1:0|0:0,0:0:0:0:
332,305,165350,5,4,1:0:0:0:
347,330,165437,2,2,L|414:367,1,43,4|0,1:2|0:0,0:0:0:0:
411,223,165611,1,2,1:0:0:0:
430,246,165699,1,4,1:2:0:0:
451,266,165786,1,2,0:0:0:0:
476,281,165873,2,0,L|474:220,1,43,2|0,1:0|0:0,0:0:0:0:
286,30,166048,5,4,1:0:0:0:
243,28,166135,1,8,1:3:0:0:
201,39,166222,1,2,3:0:0:0:
170,68,166309,1,2,3:0:0:0:
146,104,166396,1,8,1:2:0:0:
115,133,166484,1,0,3:0:0:0:
75,147,166571,1,2,3:0:0:0:
32,150,166658,1,8,1:3:0:0:
23,86,166746,5,0,1:0:0:0:
66,85,166833,1,8,0:3:0:0:
107,96,166920,1,2,3:0:0:0:
138,124,167007,1,2,3:0:0:0:
162,160,167094,1,8,0:0:0:0:
193,189,167182,1,2,0:3:0:0:
234,204,167269,1,2,0:0:0:0:
277,207,167356,1,0,3:0:0:0:
333,175,167443,6,2,L|326:104,1,58.0499982284546,4|0,1:3|0:0,0:0:0:0:
375,184,167792,6,2,B|368:215|368:215|371:214|371:214|358:270|358:270|364:274|364:274|356:299,1,116.099996456909,8|2,1:2|3:0,0:0:0:0:
383,258,168141,1,0,1:0:0:0:
474,65,168316,2,0,B|481:96|481:96|478:95|478:95|491:151|491:151|485:155|485:155|493:180,1,116.099996456909,8|8,1:0|0:0,0:0:0:0:
466,139,168665,1,2,0:0:0:0:
455,122,168752,1,8,0:0:0:0:
443,106,168839,6,2,L|338:123,1,77.3999976379395,4|2,1:2|0:0,0:0:0:0:
336,100,169100,1,8,0:0:0:0:
358,127,169188,2,0,L|434:114,1,77.3999976379395,8|2,1:0|0:0,0:0:0:0:
458,139,169449,1,2,1:3:0:0:
443,106,169537,2,0,L|338:123,1,77.3999976379395,4|2,1:2|0:0,0:0:0:0:
237,25,169798,6,0,L|265:68,1,38.6999988189698,8|0,1:0|0:0,0:0:0:0:
251,220,169973,1,8,0:0:0:0:
251,220,170060,2,0,L|273:168,1,38.6999988189698,8|0,1:0|0:0,0:0:0:0:
60,203,170234,5,2,1:3:0:0:
78,198,170321,1,8,0:0:0:0:
97,194,170409,1,4,1:2:0:0:
114,186,170496,1,8,0:0:0:0:
131,178,170583,6,2,B|143:231|90:217|44:223,1,116.099996456909,8|0,1:0|0:0,0:0:0:0:
148,104,170932,2,0,L|186:121,1,38.6999988189698,4|8,1:2|0:0,0:0:0:0:
112,162,171106,2,2,B|68:194|59:140|35:100,1,116.099996456909,8|8,1:0|0:0,0:0:0:0:
180,188,171455,2,0,L|156:236,1,38.6999988189698,2|0,1:3|0:0,0:0:0:0:
124,124,171630,6,2,B|76:97|122:67|144:36,1,77.3999976379395,8|2,1:0|0:0,0:0:0:0:
251,203,171891,1,8,1:3:0:0:
251,203,171978,2,2,B|302:185|294:239|303:276,1,77.3999976379395,8|4,1:0|0:0,0:0:0:0:
91,269,172240,1,2,0:0:0:0:
91,269,172327,1,2,1:3:0:0:
80,285,172414,1,8,0:0:0:0:
63,292,172501,1,8,1:0:0:0:
45,286,172588,1,2,0:3:0:0:
27,268,172676,6,2,B|15:194|121:185|189:251|142:357|81:378|-6:332,1,309.599990551758,2|0,1:0|0:0,0:1:0:0:
53,328,173025,6,2,P|86:319|111:289,1,64.5,4|0,1:3|0:0,0:0:0:0:
139,232,173374,6,0,P|151:186|93:173,1,86,8|0,1:0|0:0,0:0:0:0:
76,119,173548,2,2,P|37:131|32:181,1,86,2|0,1:0|0:0,0:1:0:0:
151,95,173723,1,4,1:3:0:0:
127,79,173810,1,2,1:3:0:0:
162,78,173897,2,0,P|168:41|122:3,1,86,8|0,1:0|0:0,0:0:0:0:
210,161,174071,6,2,B|238:143|238:143|225:153|225:153|350:197|350:197|352:180|352:180|374:187,1,193.50000738144,2|0,1:0|0:0,0:1:0:0:
268,125,174420,6,2,L|274:85,1,21.5,4|0,1:3|0:0,0:0:0:0:
255,230,174595,1,8,1:2:0:0:
255,230,174682,1,2,1:3:0:0:
255,230,174769,2,2,L|245:266,1,21.5,8|0,1:0|0:0,0:0:0:0:
356,112,174943,5,2,3:0:0:0:
356,112,175031,1,0,3:0:0:0:
356,112,175118,2,2,P|400:72|422:68,1,43,8|4,1:0|0:3,0:0:0:0:
412,15,175292,1,2,1:3:0:0:
433,19,175380,1,8,1:2:0:0:
459,40,175467,1,2,1:3:0:0:
469,72,175554,1,2,1:3:0:0:
454,117,175641,1,8,1:2:0:0:
422,163,175728,1,2,3:0:0:0:
459,218,175816,6,2,P|443:170|385:245,1,193.50000738144,4|0,1:3|0:0,0:0:0:0:
349,305,176164,2,0,P|319:284|289:234,1,64.5000024604798,8|0,1:0|0:0,0:0:0:0:
360,94,176339,2,2,P|329:117|302:168,1,64.5000024604798,2|0,1:0|0:0,0:1:0:0:
198,265,176513,5,4,1:3:0:0:
215,246,176600,1,2,1:3:0:0:
178,262,176688,2,0,L|99:249,1,43,10|2,1:0|0:0,0:0:0:0:
36,316,176862,2,2,L|115:329,1,43,2|0,1:0|0:0,0:1:0:0:
101,20,177037,1,8,1:2:0:0:
132,52,177124,1,2,1:0:0:0:
101,91,177211,6,2,B|131:31|131:31|100:36,1,86,4|0,1:3|0:0,0:0:0:0:
32,109,177385,6,2,L|40:143,1,21.5,8|0,1:3|0:0,0:0:0:0:
106,186,177560,5,2,0:3:0:0:
90,192,177647,1,0,3:0:0:0:
74,199,177734,1,8,1:3:0:0:
39,198,177821,6,2,L|3:221,1,43,8|0,1:2|0:0,0:1:0:0:
132,282,177996,2,2,L|79:269,1,43,8|0,1:2|0:0,0:1:0:0:
249,363,178170,5,8,1:0:0:0:
228,335,178257,1,2,1:3:0:0:
230,300,178345,1,2,3:0:0:0:
255,276,178432,1,4,1:2:0:0:
274,276,178519,1,2,1:3:0:0:
291,277,178606,6,2,L|363:287,1,64.5,4|0,1:3|0:0,0:0:0:0:
453,230,178955,6,0,L|384:182,1,77.3999976379395,8|2,1:0|0:0,0:0:0:0:
394,162,179217,2,0,L|421:201,1,38.6999988189698,8|2,1:2|0:0,0:0:0:0:
315,167,179391,2,2,L|327:86,1,77.3999976379395,4|0,1:2|0:0,0:1:0:0:
342,73,179653,2,0,L|320:120,1,38.6999988189698,2|8,1:3|0:0,0:0:0:0:
425,73,179827,5,2,1:0:0:0:
425,73,179914,1,8,1:2:0:0:
425,73,180002,2,2,P|391:15|324:3,1,116.099996456909,8|0,1:0|0:0,0:0:0:0:
324,2,180350,1,8,1:2:0:0:
187,160,180525,1,2,1:3:0:0:
187,160,180612,1,8,0:0:0:0:
274,190,180787,1,8,0:0:0:0:
274,190,180874,1,8,1:0:0:0:
260,93,181048,1,2,3:0:0:0:
241,78,181135,1,0,3:0:0:0:
221,65,181223,1,8,3:2:0:0:
200,54,181310,1,0,3:0:0:0:
179,43,181397,6,0,L|217:95,1,38.6999988189698,4|8,1:2|0:0,0:0:0:0:
104,71,181571,1,4,1:3:0:0:
104,71,181659,1,2,1:0:0:0:
104,71,181746,2,0,L|12:62,1,77.3999976379395,8|2,1:0|0:0,0:0:0:0:
49,36,182007,1,8,0:0:0:0:
60,69,182095,2,0,L|94:161,1,77.3999976379395,8|2,1:0|0:0,0:0:0:0:
62,166,182356,2,2,L|21:142,1,38.6999988189698,10|2,1:2|0:0,0:0:0:0:
121,214,182531,1,2,1:0:0:0:
121,214,182618,2,0,L|168:188,1,38.6999988189698,8|0,1:0|0:0,0:0:0:0:
53,249,182792,6,0,L|32:299,1,38.6999988189698,4|8,1:2|0:0,0:0:0:0:
41,331,182967,2,0,L|60:282,1,38.6999988189698,8|0,1:0|0:0,0:0:0:0:
149,270,183141,1,4,1:3:0:0:
135,288,183228,1,8,0:0:0:0:
284,247,183403,1,8,0:0:0:0:
267,262,183490,1,8,1:0:0:0:
251,278,183577,1,8,0:2:0:0:
237,296,183664,1,8,1:0:0:0:
227,317,183752,1,2,1:0:0:0:
249,348,183839,5,2,1:0:0:0:
277,305,183926,1,0,1:0:0:0:
246,263,184013,1,4,1:2:0:0:
254,212,184100,1,2,1:3:0:0:
230,186,184188,5,4,1:3:0:0:
234,202,184275,1,0,3:0:0:0:
236,218,184362,1,2,3:0:0:0:
239,234,184449,1,2,3:2:0:0:
268,252,184537,6,2,B|301:212|301:212|276:166,1,86,8|0,1:0|0:0,0:0:0:0:
221,29,184711,2,2,B|188:69|188:69|213:115,1,86,2|0,1:0|0:0,0:1:0:0:
436,156,184885,5,4,1:3:0:0:
458,167,184973,1,2,1:3:0:0:
460,200,185060,2,0,L|398:186,1,43,8|0,1:0|0:0,0:0:0:0:
365,156,185234,2,2,L|461:130,1,86,2|2,1:0|0:3,0:1:0:0:
445,12,185496,5,8,0:0:0:0:
458,22,185583,1,4,1:3:0:0:
464,53,185670,1,8,0:0:0:0:
430,58,185757,2,2,L|366:38,1,64.5000024604798,2|0,1:0|0:0,0:1:0:0:
204,95,185932,5,4,1:3:0:0:
214,102,186019,1,8,1:2:0:0:
224,108,186106,1,2,3:0:0:0:
234,115,186193,1,2,3:0:0:0:
204,134,186281,6,2,P|151:106|125:63,1,86,4|0,1:0|0:0,0:0:0:0:
133,195,186542,6,2,P|101:201|38:228,1,86,4|0,1:2|0:0,0:0:0:0:
72,125,186804,6,2,L|2:109,1,43,6|0,0:0|0:0,0:1:0:0:
45,353,186978,5,4,1:3:0:0:
45,353,187066,2,10,L|30:292,1,43,0|0,0:0|0:0,1:2:0:0:
211,225,187240,1,2,1:3:0:0:
222,248,187327,2,0,P|187:283|158:280,1,64.5000024604798,8|0,1:0|0:0,0:0:0:0:
270,168,187502,2,2,P|222:103|202:102,1,64.5000024604798,2|0,1:0|0:0,0:1:0:0:
339,242,187676,5,4,1:3:0:0:
349,207,187763,1,2,1:3:0:0:
369,261,187850,2,2,P|349:301|286:327,1,86,8|0,1:0|0:0,0:1:0:0:
470,382,188025,2,0,P|456:338|456:281,1,86,2|0,1:0|0:0,0:0:0:0:
480,146,188199,5,2,0:0:0:0:
480,146,188287,1,0,3:0:0:0:
480,146,188374,2,2,L|486:91,1,43,4|0,1:3|0:0,0:0:0:0:
454,24,188635,6,2,L|469:108,1,86,8|0,1:3|0:0,0:0:0:0:
357,36,189071,5,4,0:0:0:0:
301,28,189188,5,2,3:0:0:0:
256,62,189304,5,2,3:0:0:0:
237,114,189420,5,4,1:2:0:0:
213,137,189507,1,2,3:0:0:0:
182,137,189595,2,0,L|131:124,1,32.2500012302399,6|0,3:0|0:0,0:0:0:0:
63,229,189769,6,2,L|120:223,1,43,4|0,1:3|0:0,0:0:0:0:
175,251,190118,6,0,B|158:272|158:272|170:334|170:334|201:354,1,116.099996456909,8|2,1:0|0:0,0:0:0:0:
210,333,190467,1,4,1:3:0:0:
231,324,190554,1,8,1:2:0:0:
252,315,190641,2,2,B|230:300|230:300|218:238|218:238|235:217,1,116.099996456909,2|0,1:0|0:0,0:1:0:0:
255,206,190990,1,2,3:0:0:0:
276,198,191077,1,8,1:2:0:0:
287,165,191164,6,0,B|270:186|270:186|282:248|282:248|313:268,1,116.099996456909,8|2,1:0|0:0,0:0:0:0:
315,229,191513,2,2,B|300:207|300:207|312:145|312:145|335:132,1,116.099996456909,8|0,1:2|0:0,0:1:0:0:
321,99,191862,5,4,1:3:0:0:
288,112,191949,1,8,1:2:0:0:
267,144,192036,1,8,1:0:0:0:
266,180,192123,1,2,1:3:0:0:
292,202,192211,2,0,L|352:213,1,38.6999988189698,4|0,1:2|0:0,0:0:0:0:
387,245,192385,2,0,L|444:231,1,38.6999988189698,8|0,1:0|0:0,0:0:0:0:
490,122,192560,5,2,1:3:0:0:
490,122,192647,2,2,L|398:108,1,77.3999976379395,8|8,1:2|0:0,0:0:0:0:
401,43,192909,2,2,L|309:53,1,77.3999976379395,8|2,1:0|0:0,0:0:0:0:
254,23,193170,1,8,1:2:0:0:
254,23,193257,2,2,L|262:114,1,77.3999976379395,8|0,1:0|0:0,0:0:0:0:
184,182,193519,1,2,1:3:0:0:
184,182,193606,2,0,L|190:126,1,38.6999988189698,4|8,1:2|0:0,0:0:0:0:
111,68,193781,1,8,1:0:0:0:
111,68,193868,2,0,L|117:124,1,38.6999988189698,4|0,1:2|0:0,0:0:0:0:
28,224,194042,5,8,1:2:0:0:
28,224,194130,2,2,P|60:250|74:295,1,77.3999976379395,8|8,1:0|0:0,0:0:0:0:
138,325,194391,1,2,0:0:0:0:
138,325,194478,2,0,L|115:369,1,38.6999988189698,4|2,1:2|0:0,0:0:0:0:
227,197,194653,1,4,1:3:0:0:
242,208,194740,1,2,1:0:0:0:
299,242,194827,1,8,1:2:0:0:
299,261,194914,1,2,1:0:0:0:
265,312,195002,6,2,B|205:281|197:232|193:147|382:259|404:185|374:119,1,309.599990551758,2|0,1:0|0:0,0:1:0:0:
300,107,195350,5,4,1:3:0:0:
303,118,195438,1,2,0:0:0:0:
307,127,195525,1,0,3:0:0:0:
310,136,195612,1,2,0:0:0:0:
323,203,195699,6,2,B|341:259|341:259|259:133|259:133|312:100,1,258,8|0,1:0|0:0,0:1:0:0:
406,27,196048,5,4,1:3:0:0:
403,49,196135,1,2,1:3:0:0:
376,25,196223,2,0,L|387:66,1,43,8|0,1:0|0:0,0:0:0:0:
450,170,196397,5,2,1:0:0:0:
453,148,196484,1,8,1:2:0:0:
480,172,196572,2,0,L|469:131,1,43,8|0,1:0|0:0,0:0:0:0:
386,254,196746,6,2,L|356:240,1,21.5,4|0,1:3|0:0,0:0:0:0:
416,328,196920,1,2,1:3:0:0:
416,328,197007,1,8,1:2:0:0:
416,328,197095,2,2,L|449:311,1,21.5,10|2,1:0|0:0,0:0:0:0:
169,184,197269,5,4,1:3:0:0:
145,186,197356,1,8,1:2:0:0:
103,164,197443,1,8,1:0:0:0:
83,177,197531,1,8,1:2:0:0:
36,182,197618,1,2,1:3:0:0:
33,205,197705,1,8,1:2:0:0:
10,246,197792,1,2,1:0:0:0:
26,263,197880,1,2,1:3:0:0:
14,308,197967,1,8,1:2:0:0:
36,316,198054,1,2,1:0:0:0:
82,356,198141,6,2,B|32:352|29:309|29:309|-31:213|51:210|71:181|57:143,1,258,4|0,1:0|0:0,0:0:0:0:
109,234,198490,6,2,P|136:277|138:316,1,64.5000024604798,8|0,1:0|0:0,0:1:0:0:
14,98,198664,2,2,P|30:65|51:43,1,64.5000024604798,2|0,1:0|0:0,0:1:0:0:
182,144,198839,5,4,1:3:0:0:
232,135,198926,1,2,1:3:0:0:
207,178,199013,2,0,P|189:167|173:119,1,64.5000024604798,8|0,1:0|0:0,0:0:0:0:
278,191,199188,2,2,P|268:221|242:239,1,64.5000024604798,2|0,1:0|0:0,0:1:0:0:
209,36,199362,1,8,1:2:0:0:
257,54,199449,1,2,1:0:0:0:
314,24,199537,6,2,B|400:56|484:50|484:50|415:88,1,193.50000738144,8|0,1:0|0:0,0:0:0:0:
404,120,199885,6,2,L|327:130,1,64.5,4|0,1:3|0:0,0:0:0:0:
208,195,200205,6,2,P|138:253|132:266,1,86,2|0,1:0|0:0,0:1:0:0:
165,196,200350,2,2,L|262:122,1,114.666666666667,2|0,1:0|0:0,0:1:0:0:
249,239,200525,6,2,P|145:192|91:57,1,258.000009841919,4|0,1:2|0:0,0:1:0:0:
127,104,200757,2,2,P|148:156|238:197,1,129.00000492096,2|0,1:3|0:0,0:1:0:0:
259,306,200932,6,2,L|234:379,1,64.5,4|0,1:3|0:0,0:0:0:0:
56,276,201281,6,0,B|25:253|25:253|115:284,1,116.099996456909,8|0,1:0|0:0,0:0:0:0:
117,291,201630,2,2,L|55:288,1,38.6999988189698,4|0,1:3|0:0,0:0:0:0:
165,156,201804,6,0,B|145:113|145:113|217:198,1,154.799995275879,8|0,1:2|0:0,0:0:0:0:
226,245,202153,2,2,L|170:206,1,51.599998425293,4|0,1:3|0:0,0:0:0:0:
317,81,202327,6,0,B|318:13|318:13|337:144,1,193.50000738144,8|0,1:0|0:0,0:0:0:0:
318,201,202676,2,2,L|292:126,1,64.5000024604798,4|0,1:3|0:0,0:0:0:0:
454,180,202850,6,0,B|498:104|498:104|436:244,1,232.199992913819,8|0,1:2|0:0,0:0:0:0:
384,279,203199,2,2,L|409:197,1,77.3999976379395,4|0,1:3|0:0,0:0:0:0:
317,81,203374,6,0,B|318:13|318:13|337:144,1,193.50000738144,8|0,1:0|0:0,0:0:0:0:
318,201,203723,2,2,L|292:126,1,64.5000024604798,4|0,1:3|0:0,0:0:0:0:
165,156,203897,6,0,B|145:113|145:113|217:198,1,154.799995275879,8|0,1:2|0:0,0:0:0:0:
226,245,204246,2,2,L|170:206,1,51.599998425293,4|0,1:3|0:0,0:0:0:0:
56,276,204420,6,0,B|25:253|25:253|115:284,1,116.099996456909,8|0,1:0|0:0,0:0:0:0:
117,291,204769,2,2,L|55:288,1,38.6999988189698,4|0,1:3|0:0,0:0:0:0:
48,175,204943,2,0,L|85:207,1,38.6999988189698,4|0,1:2|0:0,0:0:0:0:
123,19,205118,6,0,B|151:-1|151:-1|125:57,1,77.3999976379395,8|0,1:0|0:0,0:0:0:0:
119,56,205380,1,2,1:3:0:0:
108,76,205467,2,0,B|87:102|87:102|106:38,1,77.3999976379395,8|2,1:2|0:0,0:0:0:0:
200,195,205728,5,2,1:3:0:0:
200,195,205816,2,2,B|195:164|195:164|216:189,1,64.5000024604798,8|0,1:0|0:0,0:0:0:0:
281,226,205990,2,0,B|302:251|302:251|297:220,1,64.5000024604798,8|0,1:3|0:0,0:0:0:0:
306,131,206164,5,4,0:3:0:0:
309,118,206252,1,2,3:0:0:0:
321,119,206339,1,2,3:0:0:0:
329,128,206426,1,2,1:2:0:0:
292,139,206513,5,2,1:3:0:0:
285,148,206600,2,2,P|256:99|263:69,1,77.3999976379395,2|8,1:0|0:0,0:0:0:0:
316,30,206862,1,4,1:3:0:0:
335,32,206949,1,2,1:3:0:0:
354,34,207037,1,8,1:0:0:0:
373,36,207124,1,2,1:0:0:0:
392,37,207211,6,2,L|376:87,1,38.6999988189698,0|0,1:0|0:0,0:0:0:0:
405,206,207385,1,2,1:3:0:0:
405,206,207473,2,2,L|379:145,1,38.6999988189698,2|0,1:0|0:0,0:0:0:0:
460,94,207647,1,2,3:0:0:0:
460,94,207734,2,0,L|442:140,1,38.6999988189698,2|0,1:0|0:0,0:0:0:0:
218,135,207909,5,4,1:3:0:0:
199,139,207996,1,2,0:0:0:0:
181,146,208083,1,2,1:3:0:0:
163,153,208170,1,8,0:0:0:0:
124,158,208257,5,4,1:3:0:0:
158,177,208345,1,2,3:0:0:0:
174,211,208432,1,8,1:0:0:0:
208,228,208519,1,2,1:0:0:0:
228,260,208606,6,2,L|160:251,1,38.6999988189698,4|2,1:2|0:0,0:0:0:0:
300,328,208781,1,2,3:0:0:0:
300,328,208868,2,0,L|315:272,1,38.6999988189698,10|0,1:0|0:0,0:0:0:0:
214,362,209042,1,2,3:0:0:0:
214,362,209130,2,0,L|146:353,1,38.6999988189698,2|0,1:0|0:0,0:0:0:0:
51,191,209304,5,4,1:3:0:0:
42,173,209391,1,2,3:0:0:0:
158,21,209566,1,2,1:3:0:0:
141,47,209653,1,4,1:3:0:0:
151,76,209740,1,2,3:0:0:0:
143,106,209827,1,0,3:0:0:0:
116,121,209914,1,2,1:0:0:0:
117,89,210002,6,2,L|95:50,1,38.6999988189698,4|0,1:3|0:0,0:0:0:0:
247,148,210176,1,8,1:0:0:0:
247,148,210263,2,0,L|306:130,1,38.6999988189698,2|0,1:0|0:0,0:0:0:0:
127,220,210438,1,2,1:3:0:0:
127,220,210525,2,0,L|94:264,1,38.6999988189698,2|0,1:0|0:0,0:0:0:0:
231,353,210699,5,0,1:0:0:0:
279,302,210874,1,2,0:0:0:0:
348,314,211048,1,0,3:0:0:0:
348,314,211135,1,8,0:0:0:0:
304,369,211310,1,8,0:0:0:0:
304,369,211397,1,2,1:0:0:0:
320,186,211571,1,2,3:0:0:0:
320,186,211659,1,0,3:0:0:0:
320,186,211746,2,0,L|299:260,1,64.5,8|0,1:0|0:0,0:0:0:0:
296,316,212095,6,2,B|491:266|491:266|328:287,1,361.199988977051,4|0,1:0|0:0,0:0:0:0:
218,316,214885,6,2,B|23:266|23:266|186:287,1,361.199988977051,2|0,0:0|0:0,0:0:0:0:
332,286,217676,6,2,B|468:137|468:137|343:244,1,361.199988977051,2|0,0:0|0:0,0:0:0:0:
182,286,220467,6,2,B|45:137|45:137|170:244,1,361.199988977051,4|0,1:0|0:0,0:0:0:0:
346,241,223257,6,2,B|379:42|379:42|332:199,1,361.199988977051,4|0,1:0|0:0,0:0:0:0:
168,241,226048,6,2,B|135:42|135:42|182:199,1,361.199988977051,4|0,1:0|0:0,0:0:0:0:
260,185,228839,5,4,1:0:0:0:
256,192,228926,12,4,231630,1:0:0:0:
256,192,231717,12,0,234246,0:0:0:0:
206,190,234420,5,4,1:0:0:0:
206,190,234507,1,0,3:0:0:0:
132,174,234682,1,0,3:0:0:0:
132,174,234769,1,2,0:0:0:0:
64,157,234943,1,0,3:0:0:0:
64,157,235031,1,2,0:0:0:0:
182,105,235205,1,8,3:0:0:0:
182,105,235292,1,2,0:0:0:0:
101,243,235467,1,8,1:3:0:0:
258,177,235641,5,0,3:0:0:0:
270,174,235728,1,0,3:0:0:0:
282,171,235816,1,0,1:0:0:0:
294,168,235903,1,0,3:0:0:0:
362,203,236077,1,0,3:0:0:0:
362,203,236164,1,2,0:0:0:0:
432,237,236339,1,0,3:0:0:0:
432,237,236426,1,2,0:0:0:0:
311,274,236600,1,8,3:0:0:0:
311,274,236688,1,2,0:0:0:0:
394,132,236862,1,8,1:3:0:0:
391,302,237037,5,0,3:0:0:0:
396,313,237124,1,2,3:0:0:0:
400,324,237211,1,0,1:0:0:0:
404,336,237298,1,0,3:0:0:0:
473,262,237473,1,0,3:0:0:0:
473,262,237560,1,2,0:0:0:0:
431,199,237734,1,0,3:0:0:0:
431,199,237821,1,2,0:0:0:0:
356,200,237996,1,0,3:0:0:0:
356,200,238083,1,2,0:0:0:0:
379,324,238257,1,8,1:3:0:0:
396,126,238432,5,0,3:0:0:0:
403,115,238519,1,0,3:0:0:0:
410,104,238606,1,4,1:2:0:0:
417,93,238693,1,0,3:0:0:0:
331,30,238868,1,0,3:0:0:0:
331,30,238955,1,2,0:0:0:0:
291,88,239130,1,0,3:0:0:0:
291,88,239217,1,2,0:0:0:0:
325,150,239391,1,8,3:0:0:0:
325,150,239478,1,2,0:0:0:0:
409,53,239653,1,8,1:3:0:0:
225,157,239827,5,8,3:3:0:0:
212,156,239914,1,0,3:0:0:0:
199,155,240002,1,0,1:0:0:0:
186,153,240089,1,0,3:0:0:0:
276,223,240263,1,0,3:0:0:0:
288,222,240350,1,2,0:0:0:0:
219,279,240525,1,8,3:0:0:0:
206,277,240612,1,2,0:0:0:0:
293,324,240787,1,8,3:0:0:0:
305,320,240874,1,2,3:0:0:0:
222,371,241048,1,8,1:3:0:0:
108,235,241223,5,4,3:0:0:0:
111,222,241310,1,0,3:0:0:0:
115,209,241397,1,0,1:0:0:0:
119,196,241484,1,0,3:0:0:0:
23,155,241659,1,0,3:0:0:0:
23,167,241746,1,2,0:0:0:0:
34,280,241920,1,8,3:0:0:0:
32,267,242007,1,2,0:0:0:0:
103,322,242182,1,8,3:0:0:0:
99,334,242269,1,2,0:0:0:0:
34,369,242443,1,8,1:3:0:0:
170,226,242618,5,4,3:0:0:0:
182,227,242705,1,0,3:0:0:0:
194,229,242792,1,0,1:0:0:0:
206,230,242880,1,0,3:0:0:0:
287,172,243054,1,0,3:0:0:0:
275,166,243141,1,2,0:0:0:0:
175,140,243316,1,0,3:0:0:0:
186,134,243403,1,2,0:0:0:0:
275,81,243577,1,8,3:0:0:0:
264,74,243664,1,2,0:0:0:0:
203,21,243839,1,8,1:3:0:0:
356,147,244013,5,4,3:0:0:0:
368,148,244100,1,0,3:0:0:0:
380,150,244188,1,4,1:2:0:0:
392,151,244275,1,0,3:0:0:0:
466,180,244449,1,0,3:0:0:0:
466,180,244537,1,2,0:0:0:0:
354,240,244711,1,0,3:0:0:0:
354,240,244798,1,2,0:0:0:0:
412,55,244973,1,8,3:0:0:0:
412,55,245060,1,2,0:0:0:0:
275,129,245234,1,8,1:3:0:0:
342,159,245409,5,4,1:3:0:0:
359,167,245496,1,2,3:0:0:0:
378,164,245583,1,4,1:0:0:0:
392,151,245670,2,0,L|390:119,1,32.2500012302399,2|2,1:2|3:0,0:0:0:0:
216,45,245845,1,0,1:0:0:0:
216,45,245932,2,0,L|220:87,1,32.2500012302399,2|0,1:2|0:0,0:0:0:0:
281,235,246106,1,2,3:0:0:0:
281,235,246193,2,0,L|277:193,1,32.2500012302399,2|0,1:2|0:0,0:0:0:0:
171,151,246368,1,2,1:3:0:0:
171,151,246455,2,0,L|175:193,1,32.2500012302399,2|0,1:2|0:0,0:0:0:0:
213,311,246630,2,0,L|209:269,1,32.2500012302399,4|0,1:2|0:0,0:0:0:0:
59,216,246804,5,2,3:0:0:0:
48,199,246891,1,0,3:0:0:0:
40,181,246978,1,0,1:0:0:0:
33,162,247066,2,0,L|35:111,1,32.2500012302399,2|2,1:2|3:0,0:0:0:0:
137,22,247240,1,0,1:0:0:0:
137,22,247327,2,0,L|116:78,1,32.2500012302399,2|0,1:2|0:0,0:0:0:0:
147,216,247502,1,2,1:3:0:0:
147,216,247589,2,0,L|124:157,1,32.2500012302399,2|0,1:2|0:0,0:0:0:0:
226,63,247763,1,0,3:0:0:0:
226,63,247850,2,0,L|208:106,1,32.2500012302399,2|0,1:2|0:0,0:0:0:0:
235,198,248025,2,0,L|225:167,1,32.2500012302399,4|0,1:2|0:0,0:0:0:0:
238,306,248199,5,2,3:0:0:0:
256,312,248287,1,0,3:0:0:0:
274,318,248374,1,0,1:0:0:0:
292,323,248461,2,0,L|342:331,1,32.2500012302399,2|2,1:2|3:0,0:0:0:0:
343,220,248635,1,0,1:0:0:0:
356,234,248723,2,0,L|382:264,1,32.2500012302399,2|0,1:2|0:0,0:0:0:0:
442,175,248897,1,2,1:3:0:0:
452,191,248984,2,0,L|474:242,1,32.2500012302399,2|0,1:2|0:0,0:0:0:0:
325,105,249159,1,2,1:3:0:0:
336,120,249246,2,0,L|364:164,1,32.2500012302399,2|0,1:2|0:0,0:0:0:0:
422,33,249420,2,0,L|432:84,1,32.2500012302399,8|0,1:2|0:0,0:0:0:0:
282,197,249595,5,2,3:0:0:0:
263,191,249682,1,0,3:0:0:0:
244,184,249769,1,0,1:0:0:0:
226,176,249856,2,0,L|185:135,1,32.2500012302399,2|2,1:2|3:0,0:0:0:0:
247,271,250031,1,0,1:0:0:0:
227,270,250118,2,0,L|166:274,1,32.2500012302399,2|0,1:2|0:0,0:0:0:0:
134,141,250292,1,2,1:3:0:0:
123,124,250380,2,0,L|113:76,1,32.2500012302399,2|0,0:2|0:0,0:0:0:0:
106,287,250554,1,0,0:0:0:0:
87,293,250641,2,0,L|34:317,1,32.2500012302399,2|0,1:2|0:0,0:0:0:0:
28,89,250816,2,0,L|31:33,1,32.2500012302399,8|0,1:2|0:0,0:0:0:0:
14,197,250990,5,2,3:0:0:0:
32,191,251077,1,0,3:0:0:0:
75,204,251164,6,0,B|103:203|103:203|202:226,1,129,4|2,1:3|3:0,0:0:0:0:
236,226,251513,2,0,L|212:186,1,43,8|0,1:3|0:0,0:0:0:0:
222,32,251688,1,8,0:0:0:0:
222,32,251775,2,0,L|253:116,1,86,2|0,1:0|0:0,0:0:0:0:
282,129,252037,2,0,L|297:72,1,43,4|0,1:3|0:0,0:0:0:0:
296,280,252211,2,0,L|269:329,1,43,8|0,1:2|0:0,0:0:0:0:
466,233,252385,5,8,1:2:0:0:
436,215,252473,1,0,1:0:0:0:
397,247,252560,6,0,B|391:285|391:285|442:368,1,129,4|0,1:3|0:0,0:0:0:0:
472,369,252909,2,0,L|454:311,1,43,8|0,1:3|0:0,0:0:0:0:
354,181,253083,1,4,1:3:0:0:
354,181,253170,2,0,L|359:105,1,43,2|0,1:0|0:0,0:0:0:0:
406,81,253345,1,8,0:0:0:0:
406,81,253432,2,0,L|457:96,1,43,4|0,1:3|0:0,0:0:0:0:
333,31,253606,2,0,L|231:48,1,86,8|0,1:2|0:0,0:0:0:0:
196,98,253868,5,8,0:0:0:0:
196,98,253955,2,2,B|211:174,1,64.5,4|0,1:0|0:0,0:0:0:0:
166,217,254304,2,0,L|150:209,6,10.75,2|0|0|0|0|0|0,3:0|3:0|3:0|3:0|3:0|3:0|3:0,3:0:0:0:
99,177,254653,2,0,L|85:183,6,10.75,2|0|0|0|0|0|0,3:0|3:0|3:0|3:0|3:0|3:0|3:0,3:0:0:0:
41,233,255002,2,0,L|44:245,6,10.75,2|0|0|0|0|0|0,3:0|3:0|3:0|3:0|3:0|3:0|3:0,3:0:0:0:
116,293,255350,5,0,1:0:0:0:
116,293,255438,1,2,1:0:0:0:
318,233,255612,1,0,1:0:0:0:
318,233,255699,1,2,1:0:0:0:
243,166,255874,5,4,1:2:0:0:
243,166,255961,1,2,1:0:0:0:
467,212,256135,1,0,1:0:0:0:
467,212,256223,1,2,1:0:0:0:
303,105,256397,6,2,B|292:86|292:86|318:19,1,86,8|0,1:2|0:0,0:1:0:0:
247,282,256571,2,2,L|283:377,1,86,2|0,1:0|0:0,0:1:0:0:
159,198,256746,6,2,L|83:186,1,64.5,4|0,1:3|0:0,0:0:0:0:
32,160,257095,5,8,1:2:0:0:
45,145,257182,1,0,3:0:0:0:
59,132,257269,1,2,1:3:0:0:
76,124,257356,1,0,3:0:0:0:
98,92,257443,5,4,1:3:0:0:
117,89,257531,1,2,3:0:0:0:
136,90,257618,1,2,3:0:0:0:
154,93,257705,1,4,1:3:0:0:
191,103,257792,6,0,L|171:58,1,38.6999988189698,8|0,1:2|0:0,0:0:0:0:
114,20,257967,2,0,L|69:31,1,38.6999988189698,2|2,1:3|0:0,0:0:0:0:
181,173,258141,5,4,1:3:0:0:
198,180,258228,1,0,3:0:0:0:
216,184,258316,1,2,3:2:0:0:
235,187,258403,1,0,3:0:0:0:
271,173,258490,5,8,1:2:0:0:
307,185,258577,1,0,3:0:0:0:
334,211,258664,1,2,3:0:0:0:
346,247,258752,1,0,3:0:0:0:
340,300,258839,5,4,1:3:0:0:
354,335,258926,1,2,3:0:0:0:
384,359,259013,1,2,3:0:0:0:
421,365,259100,1,4,1:3:0:0:
458,355,259188,2,0,L|446:293,1,38.6999988189698,8|0,1:2|0:0,0:0:0:0:
501,249,259362,2,0,L|517:308,1,38.6999988189698,4|0,1:2|0:0,0:0:0:0:
397,202,259537,6,0,L|406:153,1,38.6999988189698,4|0,1:0|0:0,0:0:0:0:
481,124,259711,2,0,L|467:175,1,38.6999988189698,2|0,1:2|0:0,0:0:0:0:
385,183,259885,6,0,L|412:141,1,38.6999988189698,8|0,1:2|0:0,0:0:0:0:
492,142,260059,2,0,L|460:184,1,38.6999988189698,2|0,1:3|0:0,0:0:0:0:
301,177,260234,5,4,1:3:0:0:
302,157,260321,1,2,3:0:0:0:
308,138,260409,1,2,3:0:0:0:
316,120,260496,1,4,1:3:0:0:
330,84,260583,5,8,1:2:0:0:
292,91,260670,1,0,3:0:0:0:
264,118,260757,1,2,3:0:0:0:
252,155,260845,1,2,3:0:0:0:
239,211,260932,5,4,1:3:0:0:
207,188,261019,1,2,3:0:0:0:
192,152,261106,1,2,3:0:0:0:
183,114,261193,1,0,3:0:0:0:
144,70,261281,5,8,1:2:0:0:
117,98,261368,1,0,3:0:0:0:
98,132,261455,1,2,3:0:0:0:
87,169,261542,1,2,1:0:0:0:
49,213,261630,5,4,1:3:0:0:
5,175,261717,1,2,3:0:0:0:
29,122,261804,1,2,1:0:0:0:
86,129,261891,1,4,1:3:0:0:
98,185,261978,6,2,P|44:162|67:113,1,116.099996456909,10|0,1:2|0:0,0:1:0:0:
56,150,262327,6,2,L|30:227,1,64.5,4|0,1:3|0:0,0:0:0:0:
96,277,262676,6,2,B|124:257|124:257|146:283|146:283|174:237|229:323|245:263|245:263|282:297|282:297|249:281|187:326,1,322.5,10|0,1:2|0:0,0:1:0:0:
209,207,263025,6,0,B|216:82|244:195|263:163,1,107.5,8|0,1:0|0:0,0:0:0:0:
313,222,263199,1,8,1:2:0:0:
327,233,263287,2,0,B|431:193|339:265|376:269,1,107.5,8|0,1:0|0:0,0:0:0:0:
330,133,263461,5,4,1:3:0:0:
338,91,263548,1,2,3:0:0:0:
373,66,263635,1,8,0:0:0:0:
414,78,263723,1,4,1:3:0:0:
434,83,263810,1,2,3:0:0:0:
452,68,263897,1,2,3:0:0:0:
460,88,263984,1,0,3:0:0:0:
485,116,264071,6,2,B|442:125|442:125|476:158|391:36,1,129.00000492096,10|0,1:2|0:0,0:1:0:0:
355,35,264333,5,2,3:0:0:0:
352,20,264420,2,0,B|257:22|257:22|294:32|244:-61|354:88,1,215,8|2,1:0|3:0,0:0:0:0:
350,148,264682,5,8,1:0:0:0:
352,169,264769,1,4,1:3:0:0:
309,163,264856,1,8,0:0:0:0:
276,135,264943,1,2,1:3:0:0:
318,141,265031,1,8,1:2:0:0:
328,182,265118,6,2,B|350:312|363:306|363:306|273:208,1,215,4|0,1:3|0:0,0:0:0:0:
251,303,265380,1,0,3:0:0:0:
239,303,265467,2,0,B|198:367|198:367|241:317|283:330,1,150.50000143528,8|0,1:2|0:0,0:0:0:0:
188,161,265641,2,2,B|229:225|229:225|186:175|144:188,1,150.50000143528,2|0,1:0|0:0,0:0:0:0:
23,285,265816,2,0,P|60:280|191:274,1,150.50000143528,8|0,1:0|0:0,0:0:0:0:
94,145,265990,1,4,1:2:0:0:
78,149,266077,2,2,L|56:223,1,64.5000024604798,8|0,1:2|0:0,0:1:0:0:
30,60,266252,5,4,0:3:0:0:
31,48,266339,1,2,3:0:0:0:
66,38,266426,1,8,0:0:0:0:
61,66,266513,6,2,B|23:93|23:93|100:62|219:53,1,215,2|0,1:0|0:0,0:1:0:0:
276,8,266775,5,2,3:0:0:0:
293,19,266862,2,2,B|327:49|327:49|270:22|222:14,1,129,4|0,1:3|0:0,0:0:0:0:
145,163,267211,5,4,1:3:0:0:
194,150,267298,1,2,3:0:0:0:
239,173,267385,1,0,3:0:0:0:
251,223,267473,1,2,3:0:0:0:
217,261,267560,1,8,1:2:0:0:
187,286,267647,1,2,3:0:0:0:
179,323,267734,1,0,3:0:0:0:
197,357,267821,1,2,3:0:0:0:
242,374,267909,6,2,L|246:322,1,43,4|0,1:3|0:0,0:0:0:0:
303,280,268170,1,2,3:0:0:0:
311,297,268257,2,0,L|358:304,1,38.6999988189698,8|0,1:0|0:0,0:0:0:0:
404,260,268432,1,2,3:0:0:0:
422,264,268519,1,2,3:0:0:0:
440,268,268606,1,4,1:3:0:0:
458,274,268693,1,2,3:0:0:0:
495,262,268781,6,0,L|437:245,1,38.6999988189698,2|0,1:0|0:0,0:0:0:0:
361,179,268955,2,2,L|412:194,1,38.6999988189698,8|0,1:0|0:0,0:1:0:0:
479,140,269130,2,2,L|434:124,1,38.6999988189698,2|0,1:0|0:0,0:1:0:0:
359,22,269304,5,4,1:3:0:0:
322,35,269391,1,2,0:0:0:0:
299,66,269478,1,2,0:0:0:0:
283,101,269566,1,8,0:0:0:0:
274,138,269653,5,8,1:0:0:0:
259,125,269740,1,2,3:0:0:0:
248,108,269827,1,2,3:0:0:0:
241,89,269914,1,0,3:0:0:0:
240,49,270002,5,4,1:3:0:0:
211,75,270089,1,2,3:0:0:0:
207,113,270176,1,2,3:0:0:0:
207,151,270263,1,4,1:3:0:0:
170,196,270350,5,8,1:0:0:0:
137,147,270438,1,0,3:0:0:0:
80,136,270525,1,2,3:0:0:0:
25,154,270612,1,2,3:0:0:0:
10,210,270699,5,4,1:3:0:0:
29,213,270787,1,2,3:0:0:0:
36,230,270874,1,2,3:0:0:0:
30,248,270961,1,0,3:0:0:0:
16,284,271048,5,8,1:0:0:0:
29,320,271135,1,2,3:0:0:0:
61,341,271223,1,2,3:0:0:0:
95,322,271310,1,0,3:0:0:0:
127,274,271397,5,4,1:3:0:0:
184,271,271484,1,2,3:0:0:0:
237,292,271571,1,2,3:0:0:0:
254,348,271659,1,0,3:0:0:0:
207,382,271746,5,8,1:0:0:0:
195,325,271833,1,2,3:0:0:0:
184,271,271920,1,2,3:0:0:0:
177,213,272007,1,0,3:0:0:0:
167,155,272095,5,4,1:3:0:0:
180,141,272182,1,2,3:0:0:0:
198,135,272269,1,2,3:0:0:0:
217,138,272356,1,0,3:0:0:0:
249,159,272443,5,8,1:0:0:0:
262,173,272530,1,2,3:0:0:0:
280,179,272617,1,2,3:0:0:0:
299,176,272704,1,8,0:0:0:0:
324,146,272792,5,4,1:3:0:0:
354,121,272880,1,2,3:0:0:0:
392,121,272967,1,2,3:0:0:0:
430,127,273054,1,4,1:3:0:0:
471,158,273141,6,2,B|498:176|498:176|370:173|370:173|373:180|373:180|242:178|242:178|290:199,1,322.5,8|0,1:0|0:0,0:1:0:0:
326,211,273490,6,2,L|390:213,1,64.5,4|0,1:3|0:0,0:0:0:0:
207,129,273839,6,0,B|155:108|155:108|220:107,1,107.5,8|0,1:2|0:0,0:0:0:0:
30,202,274013,2,2,B|82:181|82:181|17:180,1,107.5,2|0,1:0|0:0,0:1:0:0:
89,13,274188,6,0,L|122:237,1,215,8|0,1:0|0:0,0:0:0:0:
125,365,274449,2,2,L|154:131,1,215,12|0,1:0|0:0,0:1:0:0:
320,229,274711,5,2,1:3:0:0:
340,236,274798,1,8,1:2:0:0:
351,283,274885,2,0,B|369:254|369:254|362:220,1,64.5000024604798,4|0,1:3|0:0,0:0:0:0:
430,196,275060,2,0,B|446:226|446:226|479:237,1,64.5000024604798,2|0,1:0|0:0,0:0:0:0:
470,307,275234,1,8,1:2:0:0:
450,306,275321,1,0,3:0:0:0:
432,308,275408,1,2,3:0:0:0:
418,321,275495,1,2,3:0:0:0:
371,377,275583,6,0,L|404:153,1,215,8|0,1:2|0:0,0:0:0:0:
407,25,275844,2,2,L|436:259,1,215,12|8,1:0|0:2,0:1:0:0:
322,155,276106,5,2,3:0:0:0:
301,147,276193,1,8,0:0:0:0:
243,173,276281,2,2,L|338:166,1,86,4|0,1:3|0:0,0:1:0:0:
180,135,276542,1,0,3:0:0:0:
180,135,276630,2,2,L|160:186,1,43,4|0,1:3|0:0,0:0:0:0:
230,81,276804,2,2,L|209:31,1,43,2|0,1:0|0:0,0:1:0:0:
77,313,276978,6,0,L|301:280,1,215,8|0,1:2|0:0,0:0:0:0:
429,277,277239,2,2,L|195:248,1,215,12|2,1:0|0:0,0:1:0:0:
224,343,277502,5,2,1:0:0:0:
245,340,277589,1,8,0:0:0:0:
293,381,277676,2,2,B|301:330|301:330|243:113|243:113|253:41,1,322.5,4|0,1:2|0:0,0:1:0:0:
288,14,278025,6,2,L|280:72,1,43,4|0,1:3|0:0,0:0:0:0:
165,126,278287,5,0,3:0:0:0:
177,134,278374,2,0,P|154:143|134:113,1,64.5000024604798,8|0,1:0|0:0,0:0:0:0:
337,214,278548,2,2,P|360:223|380:193,1,64.5000024604798,2|0,1:0|0:0,0:1:0:0:
210,349,278723,5,8,1:0:0:0:
187,288,278810,1,8,0:2:0:0:
130,257,278897,1,0,3:0:0:0:
66,264,278984,1,2,1:0:0:0:
42,327,279071,6,2,L|117:369,1,64.5000024604798,4|0,1:3|0:0,0:0:0:0:
67,302,279420,6,0,L|32:222,1,64.5000024604798,8|2,1:0|0:0,0:0:0:0:
35,221,279682,1,2,1:3:0:0:
35,221,279769,2,0,L|41:152,1,64.5000024604798,4|2,1:3|0:1,0:0:0:0:
146,199,280031,5,2,1:3:0:0:
146,199,280118,2,0,L|233:184,1,64.5000024604798,8|0,1:0|0:0,0:0:0:0:
230,172,280380,1,0,0:0:0:0:
230,172,280467,2,0,L|307:185,1,64.5000024604798,4|2,1:3|0:0,0:0:0:0:
406,114,280728,5,2,1:3:0:0:
406,114,280816,2,0,L|483:177,1,77.3999976379395,8|2,1:0|0:0,0:0:0:0:
474,100,281077,1,2,1:3:0:0:
474,100,281164,2,0,L|452:12,1,77.3999976379395,4|2,1:3|0:0,0:0:0:0:
393,215,281426,5,2,1:3:0:0:
406,222,281513,2,0,L|397:321,1,77.3999976379395,8|2,1:0|0:0,0:0:0:0:
358,359,281775,1,2,1:3:0:0:
343,353,281862,2,0,L|320:264,1,77.3999976379395,4|2,1:3|0:0,0:0:0:0:
278,45,282124,5,2,1:3:0:0:
283,75,282211,2,0,L|259:178,1,94.600002886963,8|2,1:0|0:0,0:0:0:0:
186,207,282473,1,2,1:3:0:0:
181,177,282560,2,0,L|201:83,1,94.600002886963,4|2,1:3|0:0,0:0:0:0:
106,339,282821,5,2,1:3:0:0:
139,337,282909,2,0,L|251:360,1,111.799994882202,8|2,1:0|0:0,0:0:0:0:
37,281,283170,1,2,1:3:0:0:
23,250,283257,2,0,L|43:123,1,111.799994882202,4|2,1:3|0:0,0:0:0:0:
169,262,283519,5,2,1:3:0:0:
219,250,283607,2,0,L|365:277,1,129.00000492096,8|2,1:0|0:0,0:0:0:0:
143,177,283868,1,2,1:3:0:0:
124,129,283955,2,0,L|145:-3,1,129.00000492096,4|2,1:3|0:0,0:0:0:0:
274,139,284217,5,2,1:3:0:0:
331,182,284304,2,2,B|360:172|360:172|450:206|450:206|423:142|423:142|444:57|444:57|462:121,1,322.5,2|0,1:0|0:0,0:1:0:0:
465,162,284653,6,2,L|486:239,1,64.5,4|0,1:3|0:0,0:0:0:0:
454,94,285002,6,2,B|444:57|444:57|423:142|423:142|450:206|450:206|360:172|360:172|331:182,1,322.5,8|0,1:2|0:0,0:1:0:0:
261,148,285350,2,0,B|234:141|234:141|299:95,1,107.5,8|0,1:0|0:0,0:0:0:0:
256,229,285525,1,8,0:0:0:0:
256,229,285612,2,2,B|283:236|283:236|202:292,1,107.5,12|0,1:0|0:0,0:1:0:0:
169,164,285787,1,8,0:0:0:0:
169,164,285874,2,0,L|137:96,1,64.5000024604798,2|0,1:3|0:0,0:0:0:0:
40,273,286048,5,4,1:3:0:0:
27,307,286135,1,2,1:3:0:0:
51,328,286223,1,2,1:3:0:0:
112,362,286310,1,2,3:2:0:0:
127,333,286397,6,0,B|146:299|146:299|56:153,1,193.50000738144,8|0,1:2|0:0,0:0:0:0:
158,23,286746,2,0,B|129:84|129:84|173:158,1,107.5,8|0,1:0|0:0,0:0:0:0:
289,178,286920,1,8,0:0:0:0:
289,178,287007,2,2,B|240:172|240:172|184:228,1,107.5,12|0,1:0|0:0,0:1:0:0:
328,308,287182,5,8,0:0:0:0:
371,338,287269,1,2,1:3:0:0:
418,363,287356,1,8,0:0:0:0:
466,339,287443,6,2,B|482:277|482:277|305:332|305:332|388:377,1,322.5,10|0,1:0|0:0,0:1:0:0:
455,215,287792,2,0,B|463:206|463:206|412:218,1,64.5000024604798,8|0,1:0|0:0,0:0:0:0:
339,237,287967,2,2,B|285:250|285:250|314:264,1,64.5000024604798,2|0,1:0|0:0,0:1:0:0:
231,158,288141,6,0,B|199:149|175:230|234:45,1,107.5,8|0,1:0|0:0,0:0:0:0:
167,269,288316,1,2,1:3:0:0:
153,281,288403,2,0,B|185:290|209:209|150:394,1,107.5,12|0,1:0|0:0,0:0:0:0:
17,182,288577,1,0,3:0:0:0:
35,171,288664,1,2,1:0:0:0:
100,138,288752,1,8,1:2:0:0:
84,123,288839,6,2,B|66:101|30:99|-1:173|57:259|86:303,1,215,4|2,1:3|0:0,0:0:0:0:
124,208,289100,5,8,0:0:0:0:
139,195,289188,1,4,1:3:0:0:
193,208,289275,1,2,1:0:0:0:
245,230,289362,1,2,0:0:0:0:
297,183,289449,1,2,3:0:0:0:
280,118,289537,2,2,L|263:62,1,43,8|0,1:0|0:0,0:1:0:0:
379,152,289711,6,2,L|385:178,1,21.5,2|0,1:0|0:0,0:0:0:0:
390,155,289798,2,2,L|396:181,1,21.5,2|0,3:0|0:0,0:0:0:0:
417,196,289885,2,0,L|423:170,1,21.5,0|0,1:0|0:0,0:0:0:0:
428,193,289972,2,2,L|434:167,1,21.5,0|0,3:0|0:0,0:0:0:0:
448,140,290060,2,2,L|454:166,1,21.5,2|0,1:0|0:0,0:0:0:0:
459,143,290147,2,2,L|465:169,1,21.5,0|0,3:0|0:0,0:0:0:0:
506,218,290234,5,4,1:3:0:0:
506,218,290350,2,2,L|465:226,1,35.8333333333333,8|0,1:3|0:0,0:0:0:0:
390,255,290583,6,0,L|367:301,1,43,8|2,1:2|0:0,0:0:0:0:
363,212,290845,6,0,L|357:277,1,64.5000024604798,8|2,1:0|0:1,0:0:0:0:
318,192,291106,6,2,L|340:267,1,77.3999976379395,8|2,1:2|0:0,0:0:0:0:
265,196,291368,6,0,L|323:266,1,90.2999972442628,8|2,1:0|3:0,0:0:0:0:
354,141,291630,6,0,L|340:266,1,103.199996850586,8|2,1:2|3:0,0:0:0:0:
286,113,291891,6,2,L|321:238,1,116.100000442886,8|2,1:0|0:0,0:0:0:0:
204,115,292153,6,0,L|285:220,1,129.00000492096,8|2,1:2|3:0,0:0:0:0:
132,152,292414,6,0,L|254:225,1,141.900001353264,8|2,1:0|0:0,0:0:0:0:
279,51,292676,6,2,L|322:202,1,154.799995275879,8|2,1:2|3:0,0:0:0:0:
174,42,292938,6,0,L|279:175,1,167.700000639725,8|2,1:0|0:0,0:0:0:0:
70,90,293199,6,0,L|233:183,1,180.599994488526,8|2,1:2|3:0,0:0:0:0:
8,190,293461,6,2,L|203:219,1,193.500007381439,8|2,1:0|0:0,0:0:0:0:
21,114,293723,6,0,L|204:221,1,206.399993701172,8|2,1:2|3:0,0:0:0:0:
92,6,293984,6,0,L|228:181,1,219.299997072029,8|2,1:0|0:0,0:0:0:0:
257,59,294246,6,2,L|282:204,1,116.100000442886,8|0,1:2|0:0,0:0:0:0:
327,74,294420,6,0,L|295:217,1,116.100000442886,4|0,1:3|0:0,0:0:0:0:
387,115,294595,6,0,L|304:236,1,116.100000442886,8|0,1:0|0:0,0:0:0:0:
428,176,294769,6,0,L|305:257,1,116.100000442886,4|0,1:3|0:0,0:0:0:0:
472,81,294943,5,2,1:3:0:0:
472,81,295031,1,0,3:0:0:0:
472,81,295118,2,0,L|373:186,1,116.100000442886,8|0,1:0|0:0,0:0:0:0:
354,9,295292,5,0,3:0:0:0:
354,9,295380,1,0,3:0:0:0:
354,9,295467,2,2,L|317:156,1,129,4|0,1:3|0:0,0:0:0:0:
299,195,295816,6,2,L|279:123,1,64.5,8|0,1:3|0:0,0:0:0:0:
216,94,296164,5,4,1:0:0:0:
196,96,296251,1,0,0:0:0:0:
179,106,296338,1,0,3:0:0:0:
166,120,296425,1,0,0:0:0:0:
156,136,296512,1,2,3:0:0:0:
145,152,296600,1,0,0:0:0:0:
134,168,296687,1,0,3:0:0:0:
120,181,296774,1,0,0:0:0:0:
105,193,296861,1,0,3:0:0:0:
88,202,296948,1,4,0:3:0:0:
70,212,297037,2,0,L|57:164,1,38.6999988189698,4|0,0:0|0:0,0:0:0:0:
30,273,297211,6,2,L|42:349,1,64.5,0|0,0:0|0:0,0:0:0:0:
107,363,297560,5,4,1:2:0:0:
114,345,297647,1,0,0:0:0:0:
124,328,297734,1,0,3:0:0:0:
139,316,297821,1,2,0:0:0:0:
156,308,297908,1,0,3:0:0:0:
175,303,297996,1,2,0:0:0:0:
194,300,298083,1,2,3:0:0:0:
213,294,298170,1,0,0:0:0:0:
230,285,298257,1,4,0:0:0:0:
245,273,298344,1,8,0:0:0:0:
260,260,298432,6,0,L|248:215,1,38.6999988189698,0|8,0:0|0:0,0:0:0:0:
328,306,298606,1,4,1:0:0:0:
328,306,298693,2,0,L|350:352,1,38.6999988189698,8|0,0:0|0:0,0:0:0:0:
349,233,298868,1,8,0:0:0:0:
349,233,298955,2,0,L|337:188,1,38.6999988189698,4|0,1:2|0:0,0:0:0:0:
385,142,299130,5,2,3:0:0:0:
404,143,299217,1,8,0:0:0:0:
422,149,299304,1,2,0:0:0:0:
438,159,299391,1,8,0:0:0:0:
450,173,299478,1,0,0:0:0:0:
460,189,299566,1,2,0:0:0:0:
470,205,299653,2,0,L|486:253,1,38.6999988189698,0|8,0:0|0:0,0:0:0:0:
309,133,299827,5,2,0:0:0:0:
291,124,299914,1,8,0:0:0:0:
274,114,300002,2,4,L|271:73,1,38.6999988189698,4|0,0:0|0:0,0:0:0:0:
338,25,300176,2,0,L|338:74,1,38.6999988189698,2|0,3:3|3:0,0:0:0:0:
261,358,300350,1,8,1:0:0:0:
223,295,300525,1,4,1:3:0:0:
223,295,300787,6,2,L|226:243,1,38.6999988189698,2|0,1:2|0:0,0:0:0:0:
336,282,300961,1,2,3:0:0:0:
336,282,301048,2,0,L|286:271,1,38.6999988189698,4|0,0:0|0:0,0:0:0:0:
277,169,301223,2,2,L|274:222,1,38.6999988189698,2|0,0:0|0:0,0:0:0:0:
220,123,301397,5,4,1:0:0:0:
256,192,301484,12,0,304013,0:0:0:0:
216,11,304188,6,2,L|260:378,1,361.199988977051,4|0,1:0|0:0,0:0:0:0:
296,11,306978,6,2,L|252:378,1,361.199988977051,4|0,1:0|0:0,0:0:0:0:
216,11,309769,6,2,L|260:378,1,361.199988977051,4|0,1:2|0:0,0:0:0:0:
419,82,312560,6,2,P|489:238|373:363,1,361.199988977051,4|0,1:0|0:0,0:0:0:0:
139,21,315350,6,2,P|63:65|93:302,1,361.199988977051,4|0,1:2|0:0,0:0:0:0:
269,133,318141,6,2,L|257:237,2,103.199996850586,4|0|4,1:0|0:0|0:0,0:0:0:0:
256,192,321019,12,4,323723,1:0:0:0:
