osu file format v14

[General]
AudioFilename: audio.mp3
AudioLeadIn: 0
PreviewTime: 89369
Countdown: 0
SampleSet: Soft
StackLeniency: 0.7
Mode: 2
LetterboxInBreaks: 0
WidescreenStoryboard: 1

[Editor]
Bookmarks: 178758,312712
DistanceSpacing: 1.1
BeatDivisor: 8
GridSize: 8
TimelineZoom: 2

[Metadata]
Title:Running Blind
TitleUnicode:Running Blind
Artist:Noisia
ArtistUnicode:Noisia
Creator:Spectator
Version:Team South Korea's Overdose
Source:osu!
Tags:Roxy Migurdia CMWC Team South Korea osu!catch Mapping World Cup #2 Featured Artist FA Electronic Instrumental dnb drum and bass drumstep neurofunk purpose ep vision recordings
BeatmapID:2684716
BeatmapSetID:1293035

[Difficulty]
HPDrainRate:6
CircleSize:4.2
OverallDifficulty:9.5
ApproachRate:9.5
SliderMultiplier:2.02
SliderTickRate:2

[Events]
//Background and Video events
0,0,"running.jpg",0,0
//Break Periods
2,156633,161838
//Storyboard Layer 0 (Background)
//Storyboard Layer 1 (Fail)
//Storyboard Layer 2 (Pass)
//Storyboard Layer 3 (Foreground)
//Storyboard Layer 4 (Overlay)
//Storyboard Sound Samples

[TimingPoints]
154,348.837209302326,4,2,35,70,1,0
154,-30.3030303030303,4,2,35,70,0,0
328,-30.3030303030303,4,2,31,5,0,0
1549,-30.3030303030303,4,2,35,70,0,0
1723,-30.3030303030303,4,2,31,5,0,0
2944,-30.3030303030303,4,2,35,70,0,0
3119,-30.3030303030303,4,2,31,5,0,0
4340,-30.3030303030303,4,2,35,70,0,0
4514,-30.3030303030303,4,2,31,5,0,0
5735,-30.3030303030303,4,2,35,70,0,0
5909,-30.3030303030303,4,2,31,5,0,0
7130,-30.3030303030303,4,2,35,70,0,0
7305,-30.3030303030303,4,2,31,5,0,0
8526,-30.3030303030303,4,2,35,70,0,0
8700,-30.3030303030303,4,2,31,5,0,0
9921,-30.3030303030303,4,2,35,70,0,0
10095,-30.3030303030303,4,2,31,5,0,0
11316,-30.3030303030303,4,1,35,70,0,0
11491,-30.3030303030303,4,2,31,5,0,0
12712,-30.3030303030303,4,2,35,70,0,0
12886,-30.3030303030303,4,2,31,5,0,0
14107,-30.3030303030303,4,2,35,70,0,0
14281,-30.3030303030303,4,2,31,5,0,0
15502,-30.3030303030303,4,2,35,70,0,0
15677,-30.3030303030303,4,2,31,5,0,0
16898,-30.3030303030303,4,2,35,70,0,0
17072,-30.3030303030303,4,2,31,5,0,0
18293,-30.3030303030303,4,2,35,70,0,0
18467,-30.3030303030303,4,2,31,5,0,0
19688,-30.3030303030303,4,2,35,70,0,0
19863,-30.3030303030303,4,2,31,5,0,0
21084,-30.3030303030303,4,2,35,70,0,0
21258,-30.3030303030303,4,2,31,5,0,0
22479,-30.3030303030303,4,2,35,60,0,0
23177,-100,4,2,34,25,0,0
23874,-100,4,2,34,28,0,0
24485,-100,4,2,34,31,0,0
25270,-100,4,2,34,33,0,0
25967,-100,4,2,34,35,0,0
26665,-100,4,2,34,37,0,0
27363,-100,4,2,34,40,0,0
28060,-100,4,2,34,42,0,0
28758,-100,4,2,34,44,0,0
29456,-100,4,2,34,46,0,0
30154,-100,4,2,34,48,0,0
30851,-100,4,2,34,50,0,0
31549,-100,4,2,34,52,0,0
32247,-100,4,2,34,54,0,0
32944,-100,4,2,34,56,0,0
33642,-100,4,2,34,60,0,0
33904,-100,4,2,31,40,0,0
34340,-100,4,2,31,43,0,0
35037,-100,4,2,31,45,0,0
35735,-100,4,2,31,47,0,0
36433,-100,4,2,31,49,0,0
37130,-100,4,2,31,51,0,0
37828,-100,4,2,31,53,0,0
38526,-100,4,2,31,55,0,0
39223,-100,4,2,31,57,0,0
39921,-100,4,2,31,59,0,0
40619,-100,4,2,31,60,0,0
41316,-100,4,2,31,61,0,0
42014,-100,4,2,31,62,0,0
42712,-100,4,2,31,63,0,0
43409,-100,4,2,31,64,0,0
44107,-100,4,2,31,65,0,0
44805,-100,4,2,31,65,0,0
47595,-83.3333333333333,4,2,31,65,0,0
50386,-83.3333333333333,4,2,31,67,0,0
53177,-83.3333333333333,4,2,31,69,0,0
54572,-83.3333333333333,4,2,31,70,0,0
55967,-83.3333333333333,4,2,31,60,0,0
57363,-83.3333333333333,4,2,31,62,0,0
58758,-83.3333333333333,4,2,31,64,0,0
60154,-83.3333333333333,4,2,31,65,0,0
61549,-83.3333333333333,4,2,31,66,0,0
62247,-83.3333333333333,4,2,31,67,0,0
62944,-83.3333333333333,4,2,31,68,0,0
63642,-83.3333333333333,4,2,31,69,0,0
64340,-83.3333333333333,4,2,31,71,0,0
65037,-83.3333333333333,4,2,31,72,0,0
65735,-83.3333333333333,4,2,31,74,0,0
66781,-27.7777777777778,4,2,31,75,0,0
66956,-27.7777777777778,4,2,31,10,0,0
67130,-31.25,4,2,35,70,0,0
67305,-31.25,4,2,31,5,0,0
67479,-31.25,4,1,34,60,0,0
67566,-31.25,4,2,31,5,0,0
68526,-31.25,4,1,34,65,0,0
68613,-31.25,4,2,31,5,0,0
68874,-31.25,4,1,34,65,0,0
68962,-31.25,4,2,31,5,0,0
69049,-31.25,4,3,31,60,0,0
69921,-31.25,4,1,34,55,0,0
70008,-31.25,4,2,31,5,0,0
70270,-31.25,4,1,34,55,0,0
70357,-31.25,4,2,31,5,0,0
71316,-31.25,4,1,34,65,0,0
71404,-31.25,4,2,31,5,0,0
71665,-31.25,4,1,34,65,0,0
71752,-31.25,4,2,31,5,0,0
71840,-31.25,4,3,31,70,0,0
72712,-31.25,4,1,31,55,0,0
72886,-31.25,4,1,31,40,0,0
73758,-31.25,4,1,31,43,0,0
74281,-31.25,4,1,31,46,0,0
74892,-31.25,4,1,31,49,0,0
75851,-31.25,4,1,31,52,0,0
76549,-31.25,4,1,31,54,0,0
77072,-31.25,4,1,31,51,0,0
77421,-31.25,4,1,31,54,0,0
77770,-31.25,4,1,31,58,0,0
77944,-31.25,4,1,31,60,0,0
78293,-25,4,2,31,70,0,0
78380,-25,4,2,1,5,0,0
78642,-25,4,2,36,50,0,0
78816,-25,4,2,1,5,0,0
79688,-25,4,2,36,55,0,0
79863,-25,4,2,1,5,0,0
80037,-25,4,2,36,55,0,0
80212,-25,4,3,31,80,0,0
81084,-25,4,2,36,65,0,0
81258,-25,4,2,1,5,0,0
81433,-25,4,2,36,65,0,0
81607,-25,4,2,1,5,0,0
82479,-25,4,2,36,70,0,0
82654,-25,4,2,1,5,0,0
82828,-25,4,2,36,70,0,0
83002,-25,4,3,31,90,0,0
83700,-25,4,3,31,50,0,0
83874,-66.6666666666667,4,2,31,70,0,0
89456,-66.6666666666667,4,3,37,70,0,1
89543,-86.9565217391304,4,3,31,70,0,0
91374,-86.9565217391304,4,3,31,75,0,0
92247,-86.9565217391304,4,3,31,70,0,0
94165,-86.9565217391304,4,3,31,75,0,0
94688,-40,4,3,31,70,0,0
95037,-86.9565217391304,4,3,31,58,0,0
95822,-86.9565217391304,4,3,31,61,0,0
96433,-86.9565217391304,4,3,31,63,0,0
97217,-86.9565217391304,4,3,31,65,0,0
97828,-86.9565217391304,4,3,31,66,0,0
98526,-86.9565217391304,4,3,31,67,0,0
99223,-86.9565217391304,4,3,31,68,0,0
99747,-28.5714285714286,4,2,38,70,0,0
100270,-28.5714285714286,4,3,31,70,0,0
100444,-86.9565217391304,4,3,31,70,0,0
100619,-39.2156862745098,4,3,31,70,0,0
100967,-86.9565217391304,4,3,31,70,0,0
102537,-86.9565217391304,4,3,31,75,0,0
103409,-39.2156862745098,4,3,31,70,0,0
103584,-86.9565217391304,4,3,31,70,0,0
105328,-86.9565217391304,4,3,31,75,0,0
105851,-71.4285714285714,4,3,31,75,0,0
106200,-39.2156862745098,4,3,31,62,0,0
106374,-86.9565217391304,4,3,31,62,0,0
107595,-86.9565217391304,4,3,31,65,0,0
108991,-86.9565217391304,4,3,31,67,0,0
109514,-86.9565217391304,4,3,31,65,0,0
110037,-86.9565217391304,4,3,31,62,0,0
110560,-86.9565217391304,4,3,31,58,0,0
110909,-86.9565217391304,4,3,31,63,0,0
111084,-86.9565217391304,4,3,31,65,0,0
111781,-39.2156862745098,4,3,31,70,0,0
111956,-86.9565217391304,4,3,31,70,0,0
113700,-86.9565217391304,4,3,31,75,0,0
114572,-39.2156862745098,4,3,31,70,0,0
114747,-86.9565217391304,4,3,31,70,0,0
116491,-86.9565217391304,4,3,31,75,0,0
117363,-86.9565217391304,4,3,31,60,0,0
118060,-86.9565217391304,4,3,31,62,0,0
118758,-86.9565217391304,4,3,31,63,0,0
119456,-86.9565217391304,4,3,31,64,0,0
120154,-86.9565217391304,4,3,31,66,0,0
120851,-86.9565217391304,4,3,31,67,0,0
121549,-86.9565217391304,4,3,31,69,0,0
122072,-28.5714285714286,4,2,38,70,0,0
122595,-28.5714285714286,4,3,31,70,0,0
122770,-86.9565217391304,4,3,31,70,0,0
122944,-39.2156862745098,4,3,31,70,0,0
123119,-86.9565217391304,4,3,31,70,0,0
124863,-86.9565217391304,4,3,31,75,0,0
125735,-39.2156862745098,4,3,31,70,0,0
125822,-86.9565217391304,4,3,31,70,0,0
127654,-86.9565217391304,4,3,31,75,0,0
128526,-86.9565217391304,4,3,31,65,0,0
129310,-86.9565217391304,4,3,31,67,0,0
129921,-86.9565217391304,4,3,31,68,0,0
130706,-86.9565217391304,4,3,31,69,0,0
130967,-86.9565217391304,4,3,31,70,0,0
131316,-86.9565217391304,4,3,31,67,0,0
131665,-86.9565217391304,4,3,31,65,0,0
131927,-86.9565217391304,4,3,31,62,0,0
132188,-86.9565217391304,4,3,31,60,0,0
132363,-86.9565217391304,4,3,31,57,0,0
132886,-86.9565217391304,4,3,31,25,0,0
133060,-86.9565217391304,4,3,31,57,0,0
133235,-86.9565217391304,4,3,31,25,0,0
133409,-86.9565217391304,4,3,31,59,0,0
133584,-86.9565217391304,4,3,31,25,0,0
133758,-86.9565217391304,4,3,31,63,0,0
134107,-39.2156862745098,4,3,31,70,0,0
134630,-90.9090909090909,4,3,31,70,0,0
135502,-39.2156862745098,4,3,31,70,0,0
135851,-90.9090909090909,4,3,31,70,0,0
136026,-90.9090909090909,4,3,31,75,0,0
136898,-39.2156862745098,4,3,31,70,0,0
137421,-90.9090909090909,4,3,31,70,0,0
138293,-39.2156862745098,4,3,31,70,0,0
138555,-90.9090909090909,4,3,31,70,0,0
138816,-90.9090909090909,4,3,31,75,0,0
139688,-90.9090909090909,4,3,31,60,0,0
141084,-90.9090909090909,4,3,31,64,0,0
142654,-76.9230769230769,4,3,31,66,0,0
143874,-76.9230769230769,4,3,31,68,0,0
144398,-38.4615384615385,4,2,38,45,0,0
144921,-62.5,4,3,31,70,0,0
145095,-86.9565217391304,4,3,31,70,0,0
147014,-86.9565217391304,4,3,31,75,0,0
148060,-86.9565217391304,4,3,31,70,0,0
149979,-86.9565217391304,4,3,31,75,0,0
150851,-86.9565217391304,4,3,31,60,0,0
151549,-86.9565217391304,4,3,31,62,0,0
152247,-86.9565217391304,4,3,31,65,0,0
152944,-86.9565217391304,4,3,31,68,0,0
153467,-86.9565217391304,4,3,31,69,0,0
153642,-86.9565217391304,4,3,31,72,0,0
153816,-86.9565217391304,4,3,31,74,0,0
154340,-86.9565217391304,4,3,31,75,0,0
154688,-86.9565217391304,4,3,31,76,0,0
155037,-86.9565217391304,4,3,31,77,0,0
155560,-28.5714285714286,4,2,38,70,0,0
156258,-28.5714285714286,4,3,31,70,0,0
156345,-28.5714285714286,4,3,31,55,0,0
156433,-28.5714285714286,4,3,33,70,0,0
157828,-100,4,2,31,70,0,0
162363,-28.5714285714286,4,2,31,70,0,0
162712,-28.5714285714286,4,2,37,25,0,0
162886,-28.5714285714286,4,2,31,70,0,0
163060,-28.5714285714286,4,2,37,25,0,0
163235,-28.5714285714286,4,2,31,70,0,0
163409,-28.5714285714286,4,2,35,70,0,0
163584,-28.5714285714286,4,2,31,70,0,0
163758,-28.5714285714286,4,2,37,25,0,0
163933,-28.5714285714286,4,2,31,70,0,0
164107,-28.5714285714286,4,2,37,25,0,0
164281,-28.5714285714286,4,2,31,70,0,0
164456,-28.5714285714286,4,2,37,25,0,0
164630,-28.5714285714286,4,2,31,70,0,0
164805,-28.5714285714286,4,2,35,70,0,0
164979,-28.5714285714286,4,2,31,70,0,0
165154,-28.5714285714286,4,2,37,25,0,0
165328,-28.5714285714286,4,2,31,70,0,0
165502,-28.5714285714286,4,2,37,25,0,0
165677,-28.5714285714286,4,2,31,70,0,0
165851,-28.5714285714286,4,2,37,25,0,0
166026,-28.5714285714286,4,2,31,70,0,0
166200,-28.5714285714286,4,2,35,70,0,0
166374,-28.5714285714286,4,2,31,70,0,0
166549,-28.5714285714286,4,2,37,25,0,0
166723,-28.5714285714286,4,2,31,70,0,0
166898,-28.5714285714286,4,2,37,25,0,0
167072,-28.5714285714286,4,2,31,70,0,0
167247,-28.5714285714286,4,2,37,25,0,0
167421,-28.5714285714286,4,2,31,70,0,0
167595,-28.5714285714286,4,2,35,70,0,0
167770,-28.5714285714286,4,2,31,70,0,0
167944,-28.5714285714286,4,2,37,25,0,0
168119,-28.5714285714286,4,2,31,70,0,0
168293,-28.5714285714286,4,2,37,25,0,0
168467,-28.5714285714286,4,2,31,70,0,0
168642,-28.5714285714286,4,2,37,25,0,0
168816,-28.5714285714286,4,2,31,70,0,0
168991,-28.5714285714286,4,2,35,70,0,0
169165,-28.5714285714286,4,2,31,70,0,0
169340,-28.5714285714286,4,2,37,25,0,0
169514,-28.5714285714286,4,2,31,70,0,0
169688,-28.5714285714286,4,2,37,25,0,0
169863,-28.5714285714286,4,2,31,70,0,0
170037,-28.5714285714286,4,2,37,25,0,0
170212,-28.5714285714286,4,2,31,70,0,0
170386,-28.5714285714286,4,2,35,70,0,0
170560,-28.5714285714286,4,2,31,70,0,0
170735,-28.5714285714286,4,2,37,25,0,0
170909,-28.5714285714286,4,2,31,70,0,0
171084,-28.5714285714286,4,2,37,25,0,0
171258,-28.5714285714286,4,2,31,70,0,0
171433,-28.5714285714286,4,2,37,25,0,0
171607,-28.5714285714286,4,2,31,70,0,0
171781,-28.5714285714286,4,2,35,70,0,0
171956,-28.5714285714286,4,2,31,70,0,0
172130,-28.5714285714286,4,2,37,25,0,0
172305,-28.5714285714286,4,2,31,70,0,0
172479,-28.5714285714286,4,2,37,25,0,0
172654,-28.5714285714286,4,2,31,70,0,0
172828,-28.5714285714286,4,2,37,25,0,0
173002,-28.5714285714286,4,2,31,70,0,0
173177,-28.5714285714286,4,2,35,75,0,0
173351,-28.5714285714286,4,2,31,75,0,0
173526,-28.5714285714286,4,2,37,28,0,0
173700,-28.5714285714286,4,2,31,75,0,0
173874,-28.5714285714286,4,2,37,28,0,0
174049,-28.5714285714286,4,2,31,75,0,0
174223,-28.5714285714286,4,2,37,28,0,0
174398,-28.5714285714286,4,2,31,75,0,0
174572,-28.5714285714286,4,2,35,75,0,0
174747,-28.5714285714286,4,2,31,75,0,0
174921,-28.5714285714286,4,2,37,28,0,0
175095,-28.5714285714286,4,2,31,75,0,0
175270,-28.5714285714286,4,2,37,28,0,0
175444,-28.5714285714286,4,2,31,75,0,0
175619,-28.5714285714286,4,2,37,28,0,0
175793,-28.5714285714286,4,2,31,75,0,0
175967,-28.5714285714286,4,2,35,75,0,0
176142,-28.5714285714286,4,2,31,75,0,0
176316,-28.5714285714286,4,2,37,28,0,0
176491,-28.5714285714286,4,2,31,75,0,0
176665,-28.5714285714286,4,2,37,28,0,0
176840,-28.5714285714286,4,2,31,75,0,0
177014,-28.5714285714286,4,2,37,28,0,0
177188,-28.5714285714286,4,2,31,75,0,0
177363,-28.5714285714286,4,2,35,75,0,0
177537,-28.5714285714286,4,2,31,75,0,0
177712,-28.5714285714286,4,2,37,28,0,0
177886,-28.5714285714286,4,2,31,75,0,0
178060,-28.5714285714286,4,2,37,28,0,0
178235,-28.5714285714286,4,2,31,75,0,0
178409,-28.5714285714286,4,2,37,28,0,0
178584,-28.5714285714286,4,2,31,75,0,0
178758,-28.5714285714286,4,3,31,75,0,0
178933,-111.111111111111,4,3,31,35,0,0
180154,-111.111111111111,4,3,31,37,0,0
181549,-111.111111111111,4,3,31,39,0,0
182944,-111.111111111111,4,3,31,41,0,0
184340,-111.111111111111,4,3,31,43,0,0
185735,-111.111111111111,4,3,31,45,0,0
186694,-111.111111111111,4,3,31,48,0,0
187392,-111.111111111111,4,3,31,50,0,0
188090,-111.111111111111,4,3,31,52,0,0
188526,-111.111111111111,4,3,31,54,0,0
189223,-111.111111111111,4,3,31,56,0,0
189921,-111.111111111111,4,3,31,58,0,0
190619,-111.111111111111,4,3,31,60,0,0
192014,-111.111111111111,4,3,31,62,0,0
193409,-111.111111111111,4,3,31,64,0,0
194805,-111.111111111111,4,3,31,66,0,0
195502,-111.111111111111,4,3,31,69,0,0
196200,-111.111111111111,4,3,31,67,0,0
196898,-111.111111111111,4,3,31,65,0,0
197421,-111.111111111111,4,3,31,62,0,0
197944,-111.111111111111,4,3,31,59,0,0
198642,-111.111111111111,4,3,31,56,0,0
198991,-111.111111111111,4,3,31,53,0,0
199340,-111.111111111111,4,3,31,56,0,0
199776,-111.111111111111,4,3,31,59,0,0
200037,-111.111111111111,4,3,31,61,0,0
200386,-111.111111111111,4,3,31,64,0,0
200473,-111.111111111111,4,3,31,60,0,0
200648,-111.111111111111,4,3,31,55,0,0
201084,-28.5714285714286,4,2,38,60,0,0
201433,-28.5714285714286,4,2,31,60,0,0
201781,-28.5714285714286,4,2,38,60,0,0
202479,-28.5714285714286,4,2,38,65,0,0
203177,-28.5714285714286,4,3,31,65,0,0
203700,-28.5714285714286,4,2,38,65,0,0
203874,-28.5714285714286,4,2,38,60,0,0
204223,-28.5714285714286,4,2,31,60,0,0
204572,-28.5714285714286,4,2,38,60,0,0
205270,-28.5714285714286,4,2,38,65,0,0
205793,-28.5714285714286,4,2,38,68,0,0
206491,-28.5714285714286,4,2,38,60,0,0
206665,-28.5714285714286,4,2,38,60,0,0
207014,-28.5714285714286,4,2,31,60,0,0
207363,-28.5714285714286,4,2,38,60,0,0
208060,-28.5714285714286,4,2,38,65,0,0
208758,-28.5714285714286,4,3,31,65,0,0
209281,-28.5714285714286,4,2,38,65,0,0
209456,-28.5714285714286,4,2,38,60,0,0
209805,-28.5714285714286,4,2,31,60,0,0
210154,-28.5714285714286,4,2,38,60,0,0
210851,-28.5714285714286,4,2,38,65,0,0
211374,-28.5714285714286,4,2,38,68,0,0
212072,-28.5714285714286,4,2,38,63,0,0
212247,-83.3333333333333,4,3,39,70,0,0
212944,-83.3333333333333,4,3,39,69,0,0
213642,-83.3333333333333,4,3,39,68,0,0
214340,-83.3333333333333,4,3,39,66,0,0
215037,-83.3333333333333,4,3,39,62,0,0
215386,-83.3333333333333,4,2,36,62,0,0
215560,-83.3333333333333,4,3,39,62,0,0
215735,-83.3333333333333,4,2,36,62,0,0
215909,-83.3333333333333,4,3,39,62,0,0
216433,-83.3333333333333,4,3,39,55,0,0
216781,-83.3333333333333,4,2,36,52,0,0
216956,-83.3333333333333,4,3,39,52,0,0
217130,-83.3333333333333,4,2,36,49,0,0
217305,-83.3333333333333,4,3,39,49,0,0
217828,-83.3333333333333,4,3,39,48,0,0
218177,-83.3333333333333,4,3,39,49,0,0
218526,-83.3333333333333,4,3,39,50,0,0
218874,-83.3333333333333,4,3,39,51,0,0
219223,-83.3333333333333,4,3,39,52,0,0
219572,-83.3333333333333,4,3,39,53,0,0
219921,-83.3333333333333,4,3,39,54,0,0
220270,-83.3333333333333,4,3,39,55,0,0
220619,-83.3333333333333,4,3,39,56,0,0
220967,-83.3333333333333,4,3,39,57,0,0
221316,-83.3333333333333,4,3,39,58,0,0
221665,-83.3333333333333,4,3,39,59,0,0
222014,-83.3333333333333,4,3,39,60,0,0
222363,-83.3333333333333,4,3,39,62,0,0
222624,-83.3333333333333,4,3,39,63,0,0
222886,-83.3333333333333,4,3,39,64,0,0
223060,-83.3333333333333,4,3,39,65,0,0
223409,-39.2156862745098,4,3,37,70,0,1
223584,-86.9565217391304,4,3,31,70,0,0
224805,-86.9565217391304,4,3,31,72,0,0
225328,-86.9565217391304,4,3,31,75,0,0
226200,-39.2156862745098,4,3,31,70,0,0
226374,-86.9565217391304,4,3,31,70,0,0
227595,-86.9565217391304,4,3,31,72,0,0
228119,-86.9565217391304,4,3,31,75,0,0
228991,-39.2156862745098,4,3,31,70,0,0
229165,-86.9565217391304,4,3,31,70,0,0
230386,-86.9565217391304,4,3,31,72,0,0
230909,-86.9565217391304,4,3,31,75,0,0
231781,-39.2156862745098,4,3,31,70,0,0
231956,-86.9565217391304,4,3,31,70,0,0
233177,-86.9565217391304,4,3,31,72,0,0
233700,-86.9565217391304,4,3,31,75,0,0
234572,-39.2156862745098,4,3,31,70,0,0
234747,-86.9565217391304,4,3,31,70,0,0
235967,-86.9565217391304,4,3,31,72,0,0
236491,-86.9565217391304,4,3,31,75,0,0
237363,-39.2156862745098,4,3,31,70,0,0
237537,-86.9565217391304,4,3,31,70,0,0
238758,-86.9565217391304,4,3,31,72,0,0
239281,-86.9565217391304,4,3,31,75,0,0
240154,-39.2156862745098,4,3,31,70,0,0
240328,-86.9565217391304,4,3,31,63,0,0
240851,-86.9565217391304,4,3,31,65,0,0
241549,-86.9565217391304,4,3,31,66,0,0
242247,-86.9565217391304,4,3,31,68,0,0
242944,-86.9565217391304,4,3,31,70,0,0
243380,-86.9565217391304,4,3,31,71,0,0
243729,-86.9565217391304,4,3,31,68,0,0
243991,-86.9565217391304,4,3,31,67,0,0
244340,-86.9565217391304,4,3,31,66,0,0
244688,-86.9565217391304,4,3,31,69,0,0
245037,-86.9565217391304,4,3,31,71,0,0
245386,-86.9565217391304,4,3,31,74,0,0
245735,-39.2156862745098,4,3,31,70,0,0
245909,-86.9565217391304,4,3,31,70,0,0
247130,-39.2156862745098,4,3,31,70,0,0
247305,-86.9565217391304,4,3,31,70,0,0
247654,-86.9565217391304,4,3,31,75,0,0
248526,-39.2156862745098,4,3,31,70,0,0
248700,-86.9565217391304,4,3,31,70,0,0
249921,-39.2156862745098,4,3,31,70,0,0
250095,-86.9565217391304,4,3,31,70,0,0
250444,-86.9565217391304,4,3,31,75,0,0
251316,-39.2156862745098,4,3,31,70,0,0
251491,-86.9565217391304,4,3,31,70,0,0
252712,-39.2156862745098,4,3,31,70,0,0
252886,-86.9565217391304,4,3,31,70,0,0
253235,-86.9565217391304,4,3,31,75,0,0
254107,-39.2156862745098,4,3,31,70,0,0
254281,-86.9565217391304,4,3,31,70,0,0
255502,-39.2156862745098,4,3,31,70,0,0
255677,-86.9565217391304,4,3,31,70,0,0
256026,-86.9565217391304,4,3,31,72,0,0
256898,-39.2156862745098,4,3,31,70,0,0
257072,-86.9565217391304,4,3,31,70,0,0
258293,-39.2156862745098,4,3,31,70,0,0
258467,-86.9565217391304,4,3,31,70,0,0
258816,-86.9565217391304,4,3,31,75,0,0
259688,-39.2156862745098,4,3,31,70,0,0
259863,-86.9565217391304,4,3,31,70,0,0
261084,-39.2156862745098,4,3,31,70,0,0
261258,-86.9565217391304,4,3,31,70,0,0
261607,-86.9565217391304,4,3,31,75,0,0
262479,-39.2156862745098,4,3,31,60,0,0
262654,-86.9565217391304,4,3,31,60,0,0
263177,-86.9565217391304,4,3,31,62,0,0
263874,-86.9565217391304,4,3,31,63,0,0
264572,-86.9565217391304,4,3,31,64,0,0
265270,-86.9565217391304,4,3,31,65,0,0
265967,-86.9565217391304,4,3,31,67,0,0
266665,-86.9565217391304,4,3,31,68,0,0
267188,-86.9565217391304,4,3,31,72,0,0
267712,-37.037037037037,4,3,31,70,0,0
267886,-86.9565217391304,4,3,31,70,0,0
269456,-86.9565217391304,4,3,31,72,0,0
270154,-76.9230769230769,4,3,31,75,0,0
270328,-68.9655172413793,4,3,31,75,0,0
270502,-86.9565217391304,4,3,31,75,0,0
270851,-86.9565217391304,4,3,31,70,0,0
272247,-86.9565217391304,4,3,31,72,0,0
272770,-86.9565217391304,4,3,31,75,0,0
273642,-86.9565217391304,4,3,31,70,0,0
275037,-86.9565217391304,4,3,31,72,0,0
275735,-76.9230769230769,4,3,31,74,0,0
275909,-68.9655172413793,4,3,31,74,0,0
276084,-86.9565217391304,4,3,31,74,0,0
276345,-86.9565217391304,4,3,31,70,0,0
277828,-86.9565217391304,4,3,31,72,0,0
278351,-86.9565217391304,4,3,31,75,0,0
279223,-86.9565217391304,4,3,31,60,0,0
281142,-86.9565217391304,4,3,31,64,0,0
282014,-86.9565217391304,4,3,31,60,0,0
283933,-86.9565217391304,4,3,31,64,0,0
284805,-86.9565217391304,4,3,31,60,0,0
286200,-86.9565217391304,4,3,31,63,0,0
287595,-86.9565217391304,4,3,31,64,0,0
287944,-86.9565217391304,4,3,31,66,0,0
288991,-86.9565217391304,4,3,31,68,0,0
289688,-86.9565217391304,4,3,31,70,0,0
290386,-86.9565217391304,4,3,39,45,0,0
290473,-86.9565217391304,4,3,32,35,0,0
291781,-86.9565217391304,4,3,32,25,0,0
293177,-86.9565217391304,4,3,32,27,0,0
294572,-86.9565217391304,4,3,32,29,0,0
295270,-86.9565217391304,4,3,32,28,0,0
297363,-86.9565217391304,4,3,32,28,0,0
298758,-86.9565217391304,4,3,32,27,0,0
299281,-86.9565217391304,4,3,32,26,0,0
300154,-86.9565217391304,4,3,32,24,0,0
300677,-86.9565217391304,4,3,32,22,0,0
301549,-86.9565217391304,4,3,32,30,0,0
302334,-86.9565217391304,4,3,32,31,0,0
302944,-86.9565217391304,4,3,32,32,0,0
304340,-86.9565217391304,4,3,32,33,0,0
305735,-86.9565217391304,4,3,32,34,0,0
307130,-86.9565217391304,4,3,32,36,0,0
308526,-86.9565217391304,4,3,32,37,0,0
309921,-86.9565217391304,4,3,32,38,0,0
311316,-86.9565217391304,4,3,32,39,0,0
312712,-86.9565217391304,4,3,39,40,0,0
313148,-86.9565217391304,4,3,32,20,0,0
314107,-86.9565217391304,4,3,32,19,0,0
315851,-86.9565217391304,4,3,32,18,0,0
316549,-86.9565217391304,4,3,32,17,0,0
317595,-86.9565217391304,4,3,32,16,0,0
318293,-86.9565217391304,4,3,32,15,0,0
318816,-86.9565217391304,4,3,32,16,0,0
318991,-86.9565217391304,4,3,32,17,0,0
319165,-86.9565217391304,4,3,32,18,0,0
319340,-86.9565217391304,4,3,32,19,0,0
319514,-86.9565217391304,4,3,32,20,0,0
320560,-86.9565217391304,4,3,32,19,0,0
321258,-86.9565217391304,4,3,32,20,0,0
321607,-86.9565217391304,4,3,32,21,0,0
321781,-86.9565217391304,4,3,32,22,0,0
322828,-86.9565217391304,4,3,32,20,0,0
323177,-86.9565217391304,4,3,32,19,0,0
323526,-86.9565217391304,4,3,32,17,0,0
324223,-86.9565217391304,4,3,32,15,0,0
324398,-86.9565217391304,4,3,32,14,0,0
324572,-86.9565217391304,4,3,32,13,0,0
324747,-86.9565217391304,4,3,32,12,0,0
324921,-86.9565217391304,4,3,32,11,0,0
325095,-86.9565217391304,4,3,32,9,0,0
326316,-86.9565217391304,4,3,32,8,0,0
327363,-86.9565217391304,4,3,32,7,0,0
328409,-86.9565217391304,4,3,32,6,0,0
329107,-86.9565217391304,4,3,32,5,0,0

[Colours]
Combo1 : 168,117,198
Combo2 : 146,142,213
Combo3 : 131,137,163

[HitObjects]
64,192,154,6,0,B|64:25|64:25|64:25|64:25|64:191|64:191|64:192|64:192|64:25|64:25|64:25|64:25|64:191|64:191|64:192|64:192|64:25|64:25|64:25|64:25|64:191|64:191|64:192|64:192|64:25|64:25|64:25|64:25|64:191|64:191|64:192|64:192|64:25|64:25|64:25|64:25|64:191|64:191|64:192|64:192|64:25|64:25|64:25|64:25|64:191|64:191|64:192|64:192|64:25|64:25|64:25|64:25|64:187|64:187|64:192|64:192|129:38|129:38|192:192|192:192|192:192|192:192|192:25|192:25|192:25|192:25|192:191|192:191|192:192|192:192|192:25|192:25|192:25|192:25|192:191|192:191|192:192|192:192|192:25|192:25|192:25|192:25|192:191|192:191|192:192|192:192|192:25|192:25|192:25|192:25|192:191|192:191|192:192|192:192|192:25|192:25|192:25|192:25|192:191|192:191|192:192|192:192|192:25|192:25|192:25|192:25|192:191|192:191|192:192|192:192|192:25|192:25|192:25|192:25|192:187|192:187|192:187|192:187|258:34|258:34|320:188|320:188|320:189|320:189|320:188|320:188|320:21|320:21|320:21|320:21|320:187|320:187|320:188|320:188|320:21|320:21|320:21|320:21|320:187|320:187|320:188|320:188|320:21|320:21|320:21|320:21|320:187|320:187|320:188|320:188|320:21|320:21|320:21|320:21|320:187|320:187|320:188|320:188|320:21|320:21|320:21|320:21|320:187|320:187|320:188|320:188|320:21|320:21|320:21|320:21|320:187|320:187|320:188|320:188|320:21|320:21|320:21|320:21|320:183|320:183|320:183|320:183|385:29|385:29|448:183|448:183|447:182|447:182|447:15|447:15|447:15|447:15|447:181|447:181|447:182|447:182|447:15|447:15|447:15|447:15|447:181|447:181|447:182|447:182|447:15|447:15|447:15|447:15|447:181|447:181|447:182|447:182|447:15|447:15|447:15|447:15|447:181|447:181|447:182|447:182|447:15|447:15|447:15|447:15|447:181|447:181|447:182|447:182|447:15|447:15|447:15|447:15|447:181|447:181|447:182|447:182|447:15|447:15|447:15|447:15|447:177|447:177|447:182|447:182|316:75|316:75|191:182|191:182|191:181|191:181|191:14|191:14|191:14|191:14|191:180|191:180|191:181|191:181|191:14|191:14|191:14|191:14|191:180|191:180|191:181|191:181|191:14|191:14|191:14|191:14|191:180|191:180|191:181|191:181|191:14|191:14|191:14|191:14|191:180|191:180|191:181|191:181|191:14|191:14|191:14|191:14|191:180|191:180|191:181|191:181|191:14|191:14|191:14|191:14|191:180|191:180|191:181|191:181|191:14|191:14|191:14|191:14|191:176|191:176|191:176|191:176|255:22|255:22|319:176|319:176|319:175|319:175|319:8|319:8|319:8|319:8|319:174|319:174|319:175|319:175|319:8|319:8|319:8|319:8|319:174|319:174|319:175|319:175|319:8|319:8|319:8|319:8|319:174|319:174|319:175|319:175|319:8|319:8|319:8|319:8|319:174|319:174|319:175|319:175|319:8|319:8|319:8|319:8|319:174|319:174|319:175|319:175|319:8|319:8|319:8|319:8|319:174|319:174|319:175|319:175|319:8|319:8|319:8|319:8|319:170|319:170|319:170|319:170|175:79|175:79|40:170|40:170|39:169|39:169|39:2|39:2|39:2|39:2|39:168|39:168|39:169|39:169|39:2|39:2|39:2|39:2|39:168|39:168|39:169|39:169|39:2|39:2|39:2|39:2|39:168|39:168|39:169|39:169|39:2|39:2|39:2|39:2|39:168|39:168|39:169|39:169|39:2|39:2|39:2|39:2|39:168|39:168|39:169|39:169|39:2|39:2|39:2|39:2|39:168|39:168|39:169|39:169|39:2|39:2|39:2|39:2|39:164|39:164|39:164|39:164|103:10|103:10|167:164|167:164|166:163|166:163|166:-4|166:-4|166:-4|166:-4|166:162|166:162|166:163|166:163|166:-4|166:-4|166:-4|166:-4|166:162|166:162|166:163|166:163|166:-4|166:-4|166:-4|166:-4|166:162|166:162|166:163|166:163|166:-4|166:-4|166:-4|166:-4|166:162|166:162|166:163|166:163|166:-4|166:-4|166:-4|166:-4|166:162|166:162|166:163|166:163|166:-4|166:-4|166:-4|166:-4|166:162|166:162|166:163|166:163|166:-4|166:-4|166:-4|166:-4|166:158|166:158|166:158|166:158|310:74|310:74|454:157|454:157|454:157|454:157|454:-10|454:-10|454:-10|454:-10|454:156|454:156|454:157|454:157|454:-10|454:-10|454:-10|454:-10|454:156|454:156|454:157|454:157|454:-10|454:-10|454:-10|454:-10|454:156|454:156|454:157|454:157|454:-10|454:-10|454:-10|454:-10|454:156|454:156|454:157|454:157|454:-10|454:-10|454:-10|454:-10|454:156|454:156|454:157|454:157|454:-10|454:-10|454:-10|454:-10|454:156|454:156|454:157|454:157|454:-10|454:-10|454:-10|454:-10|454:152|454:152|454:152|454:152|383:0|383:0|318:152|318:152|318:152|318:152|318:-15|318:-15|318:-15|318:-15|318:151|318:151|318:152|318:152|318:-15|318:-15|318:-15|318:-15|318:151|318:151|318:152|318:152|318:-15|318:-15|318:-15|318:-15|318:151|318:151|318:152|318:152|318:-15|318:-15|318:-15|318:-15|318:151|318:151|318:152|318:152|318:-15|318:-15|318:-15|318:-15|318:151|318:151|318:152|318:152|318:-15|318:-15|318:-15|318:-15|318:151|318:151|318:152|318:152|318:-15|318:-15|318:-15|318:-15|318:147|318:147|318:147|318:147|247:-5|247:-5|182:147|182:147|182:147|182:147|182:-20|182:-20|182:-20|182:-20|182:146|182:146|182:147|182:147|182:-20|182:-20|182:-20|182:-20|182:146|182:146|182:147|182:147|182:-20|182:-20|182:-20|182:-20|182:146|182:146|182:147|182:147|182:-20|182:-20|182:-20|182:-20|182:146|182:146|182:147|182:147|182:-20|182:-20|182:-20|182:-20|182:146|182:146|182:147|182:147|182:-20|182:-20|182:-20|182:-20|182:146|182:146|182:147|182:147|182:-20|182:-20|182:-20|182:-20|182:146|182:146|182:147|182:147|111:-5|111:-5|46:147|46:147|46:147|46:147|46:-20|46:-20|46:-20|46:-20|46:146|46:146|46:147|46:147|46:-20|46:-20|46:-20|46:-20|46:146|46:146|46:147|46:147|46:-20|46:-20|46:-20|46:-20|46:146|46:146|46:147|46:147|46:-20|46:-20|46:-20|46:-20|46:146|46:146|46:147|46:147|46:-20|46:-20|46:-20|46:-20|46:146|46:146|46:147|46:147|46:-20|46:-20|46:-20|46:-20|46:146|46:146|46:147|46:147|46:-20|46:-20|46:-20|46:-20|46:146|46:146|46:147|46:147|190:228|190:228|334:147|334:147|334:147|334:147|334:-20|334:-20|334:-20|334:-20|334:146|334:146|334:147|334:147|334:-20|334:-20|334:-20|334:-20|334:146|334:146|334:147|334:147|334:-20|334:-20|334:-20|334:-20|334:146|334:146|334:147|334:147|334:-20|334:-20|334:-20|334:-20|334:146|334:146|334:147|334:147|334:-20|334:-20|334:-20|334:-20|334:146|334:146|334:147|334:147|334:-20|334:-20|334:-20|334:-20|334:146|334:146|334:147|334:147|334:-20|334:-20|334:-20|334:-20|334:146|334:146|334:147|334:147|254:1|254:1|174:147|174:147|174:147|174:147|174:-20|174:-20|174:-20|174:-20|174:146|174:146|174:147|174:147|174:-20|174:-20|174:-20|174:-20|174:146|174:146|174:147|174:147|174:-20|174:-20|174:-20|174:-20|174:146|174:146|174:147|174:147|174:-20|174:-20|174:-20|174:-20|174:146|174:146|174:147|174:147|174:-20|174:-20|174:-20|174:-20|174:146|174:146|174:147|174:147|174:-20|174:-20|174:-20|174:-20|174:146|174:146|174:147|174:147|174:-20|174:-20|174:-20|174:-20|174:146|174:146|173:147|173:147|253:0|253:0|333:146|333:146|334:147|334:147|334:-20|334:-20|334:-20|334:-20|334:146|334:146|334:147|334:147|334:-20|334:-20|334:-20|334:-20|334:146|334:146|334:147|334:147|334:-20|334:-20|334:-20|334:-20|334:146|334:146|334:147|334:147|334:-20|334:-20|334:-20|334:-20|334:146|334:146|334:147|334:147|334:-20|334:-20|334:-20|334:-20|334:146|334:146|334:147|334:147|334:-20|334:-20|334:-20|334:-20|334:146|334:146|334:147|334:147|334:-20|334:-20|334:-20|334:-20|334:146|334:146|334:147|334:147|128:199|128:199|34:199|34:199|76:79|76:79|111:297|111:297|128:132|128:132|175:292|175:292|186:100|186:100|209:239|209:239|209:23|209:23|209:140|209:140|209:140|209:140|195:-43|195:-43|174:106|174:106|143:215|143:215|104:-2|104:-2|62:157|62:157|17:-5|17:-5|334:60,1,42662.4004068604,4|4,0:0|1:2,0:0:0:0:
480,376,23177,6,0,L|329:-5,1,404,4|8,2:2|2:2,2:0:0:0:
32,376,24572,2,0,L|183:-5,1,404,4|8,2:2|2:2,2:0:0:0:
480,376,25967,2,0,L|329:-5,1,404,4|8,2:2|2:2,2:2:0:0:
31,376,27363,2,0,L|182:-5,1,404,4|8,2:2|2:2,2:2:0:0:
480,376,28758,2,0,L|329:-5,1,404,4|8,2:2|2:2,2:2:0:0:
23,376,30154,2,0,L|174:-5,1,404,4|8,2:2|2:2,2:2:0:0:
490,376,31549,2,0,L|338:-5,1,404,4|8,2:2|2:2,2:2:0:0:
16,376,32944,2,0,L|167:-5,1,404,4|10,2:2|2:2,2:2:0:0:
385,19,33904,5,0,0:0:0:0:
385,19,34078,1,0,3:0:0:0:
124,121,34340,5,4,3:3:0:0:
343,122,34601,1,0,0:0:0:0:
343,122,34775,1,0,3:0:0:0:
85,233,35037,5,4,3:3:0:0:
304,234,35298,1,0,0:0:0:0:
304,234,35472,1,0,3:0:0:0:
33,350,35735,5,4,3:3:0:0:
252,351,35996,1,0,0:0:0:0:
252,351,36170,1,0,3:0:0:0:
472,341,36433,5,4,3:3:0:0:
233,342,36694,1,0,0:0:0:0:
262,256,36868,1,0,3:0:0:0:
39,341,37130,5,4,3:3:0:0:
278,342,37391,1,0,0:0:0:0:
249,256,37565,1,0,3:0:0:0:
485,350,37828,5,4,3:3:0:0:
163,260,38089,1,0,0:0:0:0:
289,260,38263,1,0,3:0:0:0:
27,350,38526,5,4,3:3:0:0:
349,260,38787,1,0,0:0:0:0:
223,260,38961,1,0,3:0:0:0:
485,350,39223,5,4,3:3:0:0:
125,259,39484,1,0,0:0:0:0:
272,260,39658,1,0,3:0:0:0:
27,350,39921,5,4,3:3:0:0:
387,259,40182,1,0,0:0:0:0:
240,260,40356,1,0,3:0:0:0:
485,350,40619,5,4,3:3:0:0:
112,263,40880,1,0,0:0:0:0:
272,260,41054,1,0,3:0:0:0:
27,350,41316,5,4,3:3:0:0:
401,260,41577,1,0,0:0:0:0:
240,260,41751,1,0,3:0:0:0:
485,350,42014,5,4,3:3:0:0:
45,263,42276,1,0,3:0:0:0:
198,263,42449,1,0,3:0:0:0:
27,350,42712,5,4,3:3:0:0:
468,264,42973,1,0,3:0:0:0:
314,263,43148,1,0,3:0:0:0:
485,350,43409,5,4,3:3:0:0:
44,264,43670,1,0,3:0:0:0:
348,262,43844,1,0,3:0:0:0:
27,350,44107,5,4,3:3:0:0:
468,264,44368,1,0,3:0:0:0:
136,261,44542,1,0,3:0:0:0:
468,264,44805,6,0,L|468:89,1,151.5,4|0,0:3|0:0,0:0:0:0:
407,112,45154,1,8,0:3:0:0:
325,111,45241,1,0,0:0:0:0:
127,208,45502,6,0,L|127:33,1,151.5
188,56,45851,1,8,0:3:0:0:
270,55,45938,1,0,0:0:0:0:
44,264,46200,6,0,L|44:89,1,151.5
105,115,46549,1,8,0:3:0:0:
187,114,46636,1,0,0:0:0:0:
385,208,46898,6,0,L|385:33,1,151.5
324,57,47247,1,8,0:3:0:0:
412,55,47334,1,0,0:0:0:0:
89,278,47595,6,0,P|37:235|105:149,1,181.799994451904,4|0,0:3|0:0,0:0:0:0:
159,149,47944,1,8,0:3:0:0:
241,148,48031,1,0,0:0:0:0:
423,278,48293,6,0,P|475:235|407:149,1,181.799994451904
353,149,48642,1,8,0:3:0:0:
271,148,48729,1,0,0:0:0:0:
83,277,48991,6,0,P|31:234|99:148,1,181.799994451904
153,150,49340,1,8,0:3:0:0:
235,149,49427,1,0,0:0:0:0:
429,277,49688,6,0,P|481:234|413:148,1,181.799994451904
359,150,50037,1,8,0:3:0:0:
447,149,50124,1,0,0:0:0:0:
91,283,50386,6,0,L|297:283,1,181.799994451904,4|0,0:3|0:0,0:0:0:0:
198,282,50735,1,8,0:3:0:0:
100,283,50822,1,0,0:0:0:0:
420,283,51084,6,0,L|214:283,1,181.799994451904
313,282,51433,1,8,0:3:0:0:
411,283,51520,1,0,0:0:0:0:
74,283,51781,6,0,L|280:283,1,181.799994451904
181,282,52130,1,8,0:3:0:0:
83,283,52217,1,0,0:0:0:0:
438,283,52479,6,0,L|232:283,1,181.799994451904
331,282,52828,1,8,0:3:0:0:
429,283,52915,1,0,0:0:0:0:
106,108,53177,6,0,L|296:107,1,181.799994451904,4|0,0:3|0:0,0:0:0:0:
354,107,53526,1,8,0:3:0:0:
447,109,53613,1,0,0:0:0:0:
74,179,53874,6,0,L|264:178,1,181.799994451904
324,177,54223,1,8,0:3:0:0:
417,179,54310,1,0,0:0:0:0:
39,257,54572,6,0,L|229:256,1,181.799994451904
294,257,54921,1,8,0:3:0:0:
387,259,55008,1,0,0:0:0:0:
69,354,55270,6,0,P|35:299|89:266,1,121.19999630127,4|0,0:3|0:0,0:0:0:0:
303,271,55531,2,0,L|155:271,1,121.19999630127,4|0,0:3|0:0,0:0:0:0:
373,186,55793,2,0,L|468:186,1,60.5999981506348,4|0,0:3|0:0,0:0:0:0:
183,190,55967,6,0,P|131:151|200:71,1,181.799994451904,4|0,0:3|0:0,0:0:0:0:
366,72,56316,2,0,L|283:71,2,60.5999981506348,8|0|0,0:3|0:0|0:0,0:0:0:0:
191,252,56665,2,0,L|388:253,1,181.799994451904
192,171,57014,2,0,L|83:169,1,60.5999981506348,8|0,0:3|0:0,0:0:0:0:
329,190,57363,6,0,P|381:151|312:71,1,181.799994451904
146,72,57712,2,0,L|229:71,2,60.5999981506348,8|0|0,0:3|0:0|0:0,0:0:0:0:
321,252,58060,2,0,L|124:253,1,181.799994451904
362,173,58409,2,0,L|471:171,1,60.5999981506348,8|0,0:3|0:0,0:0:0:0:
60,276,58758,6,0,P|74:201|177:153,1,181.799994451904,4|0,0:3|0:0,0:0:0:0:
344,74,59107,2,0,L|271:74,2,60.5999981506348,8|0|0,0:3|0:0|0:0,0:0:0:0:
94,211,59456,2,0,P|39:163|116:96,1,181.799994451904
322,157,59805,2,0,L|244:156,1,60.5999981506348,8|0,0:3|0:0,0:0:0:0:
451,275,60154,6,0,P|437:200|334:152,1,181.799994451904
167,73,60503,2,0,L|240:73,2,60.5999981506348,8|0|0,0:3|0:0|0:0,0:0:0:0:
446,132,60851,2,0,P|480:175|431:224,1,121.19999630127
261,229,61113,2,0,L|399:227,1,121.19999630127
205,307,61374,2,0,L|125:309,1,60.5999981506348,4|0,0:3|0:0,0:0:0:0:
403,351,61549,6,0,P|456:313|382:237,1,181.799994451904,4|2,0:3|0:2,0:0:0:0:
202,140,61898,2,0,L|283:140,2,60.5999981506348,8|0|2,0:3|0:0|0:2,0:0:0:0:
76,336,62247,2,0,L|72:188,1,121.19999630127
260,257,62508,2,0,L|344:257,1,60.5999981506348,2|8,0:2|0:3,0:0:0:0:
177,205,62770,1,2,0:2:0:0:
430,338,62944,6,0,P|483:300|409:224,1,181.799994451904,0|2,0:0|0:2,0:0:0:0:
229,127,63293,2,0,L|310:127,2,60.5999981506348,8|0|2,0:3|0:0|0:2,0:0:0:0:
79,242,63642,2,0,L|220:244,1,121.19999630127
360,313,63904,2,0,L|286:313,1,60.5999981506348,2|8,0:2|0:3,0:0:0:0:
442,310,64165,1,2,0:2:0:0:
161,346,64340,6,0,P|97:315|174:286,1,181.799994451904,4|2,0:3|0:2,0:0:0:0:
346,211,64688,2,0,L|272:212,2,60.5999981506348,8|0|2,0:3|0:0|0:2,0:0:0:0:
69,261,65037,2,0,L|70:138,1,121.19999630127
292,290,65299,2,0,L|352:290,1,60.5999981506348,2|8,0:2|0:3,0:0:0:0:
221,293,65560,1,2,0:0:0:0:
478,299,65735,6,0,P|444:217|360:189,1,181.799994451904,0|2,0:0|0:2,0:0:0:0:
105,192,66084,2,0,L|165:192,2,60.5999981506348,8|0|2,0:3|0:0|0:2,0:0:0:0:
344,119,66433,2,0,P|428:146|462:228,1,181.799994451904,0|2,0:0|0:2,0:0:0:0:
460,304,66781,2,0,B|97:303|97:303|43:116,1,545.399983355713,12|0,1:3|0:0,0:0:0:0:
423,126,67130,6,4,B|423:288|423:288|423:127|423:127|423:289|423:289|423:128|423:128|423:290|423:290|423:128|423:128|423:290|423:290|423:129|423:129|423:291|423:291|423:130|423:130|423:292|423:292|423:131|423:131|423:293|423:293|423:132|423:132|423:294|423:294|423:132|423:132|423:294|423:294|423:133|423:133|423:295|423:295|423:134|423:134|355:8|355:8|280:171|280:171|258:331|258:331|233:172|233:172|257:333|257:333|279:174|279:174|257:334|257:334|233:174|233:174|257:335|257:335|279:176|279:176|195:27|195:27|87:134|87:134|87:296|87:296|87:135|87:135|87:297|87:297|87:136|87:136|87:298|87:298|87:137|87:137|87:299|87:299|87:138|87:138|87:300|87:300|87:138|87:138|87:300|87:300|87:139|87:139|87:301|87:301|87:140|87:140|87:302|87:302|87:141|87:141|87:303|87:303|87:142|87:142|87:304|87:304|87:142|87:142|411:148|411:148|450:319|450:319|503:181|503:181|450:320|450:320|410:146|410:146|450:319|450:319|503:188|503:188|450:320|450:320|409:146|409:146|60:143,1,10342.4,4|4,0:3|0:3,0:3:0:0:
256,192,72886,12,0,77944,3:0:0:0:
44,71,78293,6,0,B|44:272|44:272|44:69|44:69|111:259|111:259|182:69|182:69|182:270|182:270|182:67|182:67|249:257|249:257|320:68|320:68|320:269|320:269|320:66|320:66|387:256|387:256|458:66|458:66|458:267|458:267|458:64|458:64|319:210|319:210|181:62|181:62|181:62|181:62|181:263|181:263|181:60|181:60|181:261|181:261|181:58|181:58|319:206|319:206|457:59|457:59|457:59|457:59|381:250|381:250|321:61|321:61|381:249|381:249|456:57|456:57|456:57|456:57|380:248|380:248|320:60|320:60|319:59|319:59|379:247|379:247|454:55|454:55|455:54|455:54|51:53|51:53|51:254|51:254|51:51|51:51|124:239|124:239|194:50|194:50|194:251|194:251|194:48|194:48|267:236|267:236|338:46|338:46|338:247|338:247|338:44|338:44|411:232|411:232|481:42|481:42|481:243|481:243|481:40|481:40|338:187|338:187|182:64|182:64|182:265|182:265|182:62|182:62|182:263|182:263|182:60|182:60|339:201|339:201|490:81|490:81|417:273|417:273|345:88|345:88|418:274|418:274|490:83|490:83|417:275|417:275|345:90|345:90|418:276|418:276|491:84,1,12524,4|0,3:3|3:0,3:0:0:0:
24,347,83874,6,0,B|22:247|22:247|27:299|27:299|37:223|37:223|34:297|34:297|43:208|43:208|43:273|43:273|60:200|60:200|59:274|59:274|85:267|85:267|77:142|77:142|87:71|87:71|97:149|97:149|109:74|109:74|120:149|120:149|136:74|136:74|143:147|143:147|158:68|158:68|166:140|166:140|186:66|186:66|193:142|193:142|217:68|217:68|223:142|223:142|245:70|245:70|252:148|252:148|263:73|263:73|283:142|283:142|298:61|298:61|313:129|313:129|325:63|325:63|349:146|349:146|485:144|498:144|498:144|499:144|349:146|349:146|325:63|325:63|313:129|313:129|298:61|298:61|283:142|283:142|263:73|263:73|252:148|252:148|245:70|245:70|223:142|223:142|217:68|217:68|193:142|193:142|186:66|186:66|166:140|166:140|158:68|158:68|143:147|143:147|136:74|136:74|120:149|120:149|109:74|109:74|97:149|97:149|87:71|87:71|77:142|77:142|85:267|85:267|59:274|59:274|60:200|60:200|43:273|43:273|43:208|43:208|34:297|34:297|37:223|37:223|27:299|27:299|22:247|22:247|24:347,1,4848.00018493653,2|10,0:0|0:3,0:0:0:0:
291,244,89630,6,0,L|423:252,1,116.150002215385,4|8,0:0|0:0,0:0:0:0:
220,263,89979,2,0,L|230:180,1,58.0750011076927,2|4,0:0|0:0,0:0:0:0:
306,194,90154,2,0,L|316:111,1,58.0750011076927,2|4,0:0|0:0,0:0:0:0:
137,104,90328,2,0,L|225:104,1,58.0750011076927,2|4,0:0|0:0,0:0:0:0:
407,175,90502,2,0,L|424:44,1,116.150002215385,8|2,0:0|0:0,0:0:0:0:
359,58,90764,1,0,0:0:0:0:
148,197,90851,6,0,L|17:197,1,116.150002215385,4|4,0:0|0:0,0:0:0:0:
182,199,91200,1,8,0:0:0:0:
426,270,91374,2,0,L|438:188,1,58.0750011076927,2|4,0:0|0:0,0:0:0:0:
263,179,91549,1,2,0:0:0:0:
432,190,91636,2,0,L|455:56,1,116.150002215385,4|4,0:0|0:0,0:0:0:0:
265,239,91898,2,0,L|277:157,1,58.0750011076927,8|0,0:0|0:0,0:0:0:0:
432,292,92072,2,0,L|444:210,1,58.0750011076927,2|4,0:0|0:0,0:0:0:0:
214,303,92247,6,0,L|88:317,1,116.150002215385,4|4,0:0|0:0,0:0:0:0:
237,247,92595,1,8,0:0:0:0:
485,242,92770,2,0,L|474:144,1,58.0750011076927,2|4,0:0|0:0,0:0:0:0:
245,119,92944,2,0,L|317:118,1,58.0750011076927,2|4,0:0|0:0,0:0:0:0:
386,144,93119,2,0,L|468:143,1,58.0750011076927,2|4,0:0|0:0,0:0:0:0:
193,174,93293,2,0,L|176:43,1,116.150002215385,8|2,0:0|0:0,0:0:0:0:
246,58,93555,1,4,0:0:0:0:
403,229,93642,6,0,L|281:230,1,116.150002215385,4|4,0:0|0:0,0:0:0:0:
103,231,93991,1,8,0:0:0:0:
376,346,94165,2,0,L|387:262,1,58.0750011076927,2|4,0:0|0:0,0:0:0:0:
212,221,94340,2,0,L|321:221,1,58.0750011076927,2|4,0:0|0:0,0:0:0:0:
103,287,94514,2,0,L|92:203,1,58.0750011076927,2|4,0:0|0:0,0:0:0:0:
371,174,94688,2,0,L|95:174,1,252.5,8|2,0:0|0:0,0:0:0:0:
110,109,94950,1,4,0:0:0:0:
429,27,95037,6,0,L|435:158,1,116.150002215385,4|4,0:0|0:0,0:0:0:0:
293,142,95386,1,8,0:0:0:0:
174,312,95560,2,0,L|176:253,1,58.0750011076927,2|4,0:0|0:0,0:0:0:0:
335,248,95822,2,0,L|337:307,1,58.0750011076927,4|0,0:0|0:0,0:0:0:0:
181,245,95997,1,4,0:0:0:0:
360,104,96084,2,0,L|366:235,1,116.150002215385,8|0,0:0|0:0,0:0:0:0:
83,27,96433,6,0,L|77:158,1,116.150002215385,4|4,0:0|0:0,0:0:0:0:
219,142,96782,1,8,0:0:0:0:
381,240,96956,2,0,L|379:181,1,58.0750011076927,2|4,0:0|0:0,0:0:0:0:
236,100,97218,2,0,L|304:100,1,58.0750011076927,4|2,0:0|0:0,0:0:0:0:
438,176,97393,1,4,0:0:0:0:
278,182,97479,2,0,L|150:182,1,116.150002215385,8|0,0:0|0:0,0:0:0:0:
462,244,97828,6,0,L|473:103,1,116.150002215385,4|4,0:0|0:0,0:0:0:0:
332,125,98177,1,8,0:0:0:0:
86,136,98351,2,0,L|164:136,1,58.0750011076927,2|4,0:0|0:0,0:0:0:0:
414,234,98613,2,0,L|336:234,1,58.0750011076927,4|2,0:0|0:0,0:0:0:0:
176,232,98787,1,4,0:0:0:0:
343,314,98874,2,0,L|479:313,1,116.150002215385,8|0,0:0|0:0,0:0:0:0:
181,183,99223,6,0,L|65:183,2,116.150002215385,4|4|8,0:0|0:0|0:0,0:0:0:0:
434,374,99747,2,0,B|434:18|434:18|82:19|82:19|82:394,1,1060.50001011372,2|8,0:1|0:3,0:0:0:0:
345,148,100444,2,0,L|431:149,1,58.0750011076927
320,237,100619,6,0,L|28:238,1,257.549996561337,4|4,0:0|0:0,0:0:0:0:
214,181,100967,1,8,0:0:0:0:
448,270,101142,2,0,L|464:189,1,58.0750011076927,2|4,0:0|0:0,0:0:0:0:
365,195,101317,2,0,L|297:196,1,58.0750011076927,2|4,0:0|0:0,0:0:0:0:
475,69,101491,2,0,L|387:69,1,58.0750011076927,2|4,0:0|0:0,0:0:0:0:
238,207,101665,2,0,L|221:76,1,116.150002215385,8|2,0:0|0:0,0:0:0:0:
286,90,101927,1,0,0:0:0:0:
116,185,102014,6,0,L|232:178,1,116.150002215385,4|4,0:0|0:0,0:0:0:0:
385,212,102363,1,8,0:0:0:0:
86,270,102537,2,0,L|74:188,1,58.0750011076927,2|4,0:0|0:0,0:0:0:0:
249,179,102712,1,2,0:0:0:0:
80,190,102799,2,0,L|57:56,1,116.150002215385,4|4,0:0|0:0,0:0:0:0:
247,239,103061,2,0,L|327:239,1,58.0750011076927,8|0,0:0|0:0,0:0:0:0:
79,291,103235,2,0,L|169:290,1,58.0750011076927,2|4,0:0|0:0,0:0:0:0:
205,239,103409,6,0,L|484:239,1,257.549996561337,4|4,0:0|0:0,0:0:0:0:
325,180,103757,1,8,0:0:0:0:
59,222,103933,2,0,L|66:157,1,58.0750011076927,2|4,0:0|0:0,0:0:0:0:
146,174,104107,2,0,L|224:174,1,58.0750011076927,2|4,0:0|0:0,0:0:0:0:
53,68,104281,2,0,L|134:67,1,58.0750011076927,2|4,0:0|0:0,0:0:0:0:
280,260,104456,2,0,L|416:261,1,116.150002215385,8|2,0:0|0:0,0:0:0:0:
338,260,104717,1,0,0:0:0:0:
114,346,104805,6,0,L|104:222,1,116.150002215385,4|4,0:0|0:0,0:0:0:0:
255,227,105154,1,8,0:0:0:0:
22,173,105328,2,0,L|115:173,1,58.0750011076927,2|4,0:0|0:0,0:0:0:0:
239,90,105502,2,0,L|176:90,1,58.0750011076927,2|4,0:0|0:0,0:0:0:0:
351,171,105677,2,0,L|444:171,1,58.0750011076927,2|4,0:0|0:0,0:0:0:0:
249,266,105851,2,0,L|428:282,1,141.399995684815,8|4,0:0|0:0,0:0:0:0:
390,279,106113,1,4,0:0:0:0:
292,316,106200,6,0,L|-41:340,1,257.549996561337
284,261,106549,1,8,0:0:0:0:
51,243,106723,2,0,L|50:173,1,58.0750011076927,2|4,0:0|0:0,0:0:0:0:
317,180,106985,2,0,L|454:191,1,116.150002215385,4|4,0:0|0:0,0:0:0:0:
245,191,107247,2,0,L|245:63,1,116.150002215385,8|0,0:0|0:0,0:0:0:0:
314,73,107508,1,0,0:0:0:0:
149,228,107595,6,0,L|12:239,1,116.150002215385,4|4,0:0|0:0,0:0:0:0:
340,326,107944,1,8,0:0:0:0:
107,308,108119,2,0,L|106:238,1,58.0750011076927,2|4,0:0|0:0,0:0:0:0:
351,240,108380,2,0,L|488:251,1,116.150002215385,4|4,0:0|0:0,0:0:0:0:
293,171,108642,2,0,L|211:172,3,58.0750011076927,8|0|0|0,0:0|0:0|0:0|0:0,0:0:0:0:
63,138,108991,6,0,L|136:137,1,58.0750011076927,4|0,0:0|0:0,0:0:0:0:
307,262,109165,2,0,L|438:262,1,116.150002215385,4|8,0:0|0:0,0:0:0:0:
185,330,109514,2,0,L|185:249,1,58.0750011076927,2|4,0:0|0:0,0:0:0:0:
352,179,109688,2,0,L|278:180,3,58.0750011076927,2|4|2|4,0:0|0:0|0:0|0:0,0:0:0:0:
120,208,110037,2,0,L|120:123,1,58.0750011076927,8|0,0:0|0:0,0:0:0:0:
293,100,110212,2,0,L|392:101,1,58.0750011076927,0|2,0:0|0:0,0:0:0:0:
164,322,110386,5,4,0:0:0:0:
109,303,110473,1,0,0:0:0:0:
70,260,110560,1,4,0:0:0:0:
57,204,110647,1,0,0:0:0:0:
72,149,110735,1,8,0:0:0:0:
111,107,110822,1,0,0:0:0:0:
166,90,110909,1,2,0:0:0:0:
231,89,110997,1,4,0:0:0:0:
397,94,111084,5,0,0:0:0:0:
230,175,111171,2,0,L|366:174,1,116.150002215385,4|4,0:0|0:0,0:0:0:0:
180,258,111433,2,0,L|103:257,2,58.0750011076927,8|2|0,0:0|0:0|0:0,0:0:0:0:
366,257,111694,1,2,0:0:0:0:
291,316,111781,6,0,L|12:315,1,257.549996561337,4|4,0:0|0:0,0:0:0:0:
155,333,112130,1,8,0:0:0:0:
466,146,112305,2,0,L|470:234,1,58.0750011076927,2|4,0:0|0:0,0:0:0:0:
331,276,112566,2,0,L|412:276,1,58.0750011076927,4|2,0:0|0:0,0:0:0:0:
230,214,112741,1,4,0:0:0:0:
296,213,112828,2,0,L|318:53,1,116.150002215385,8|2,0:0|0:0,0:0:0:0:
45,78,113177,6,0,L|180:77,2,116.150002215385,4|4|8,0:0|0:0|0:0,0:0:0:0:
283,322,113700,2,0,L|290:256,1,58.0750011076927,2|4,0:0|0:0,0:0:0:0:
436,256,113874,2,0,L|447:175,1,58.0750011076927,2|4,0:0|0:0,0:0:0:0:
251,323,114049,2,0,L|244:257,1,58.0750011076927,2|4,0:0|0:0,0:0:0:0:
96,257,114223,2,0,L|85:176,1,58.0750011076927,8|0,0:0|0:0,0:0:0:0:
302,111,114398,2,0,L|212:111,1,58.0750011076927,2|4,0:0|0:0,0:0:0:0:
161,167,114572,6,0,L|444:168,1,257.549996561337,4|4,0:0|0:0,0:0:0:0:
303,183,114921,1,8,0:0:0:0:
46,146,115095,2,0,L|42:234,1,58.0750011076927,2|4,0:0|0:0,0:0:0:0:
181,276,115357,2,0,L|100:276,1,58.0750011076927,4|2,0:0|0:0,0:0:0:0:
282,214,115531,1,4,0:0:0:0:
216,213,115618,2,0,L|194:53,1,116.150002215385,8|2,0:0|0:0,0:0:0:0:
477,98,115967,6,0,L|492:213,1,116.150002215385,4|4,0:0|0:0,0:0:0:0:
339,99,116316,1,8,0:0:0:0:
100,194,116491,2,0,L|192:193,3,58.0750011076927,2|4|2|4,0:0|0:0|0:0|0:0,0:0:0:0:
370,196,116840,2,0,L|278:195,3,58.0750011076927,2|4|8|0,0:0|0:0|0:0|0:0,0:0:0:0:
138,275,117188,2,0,L|57:275,1,58.0750011076927,2|4,0:0|0:0,0:0:0:0:
311,342,117363,6,0,L|385:343,1,58.0750011076927,4|2,0:0|0:0,0:0:0:0:
224,234,117624,1,0,0:0:0:0:
295,236,117712,2,0,L|308:100,1,116.150002215385,8|0,0:0|0:0,0:0:0:0:
147,265,118060,2,0,L|73:266,1,58.0750011076927,2|4,0:0|0:0,0:0:0:0:
234,157,118321,1,4,0:0:0:0:
163,159,118409,2,0,L|150:23,1,116.150002215385,10|0,0:0|0:0,0:0:0:0:
457,247,118758,5,6,0:0:0:0:
466,191,118845,1,0,0:0:0:0:
309,156,119020,1,0,0:0:0:0:
380,158,119107,2,0,L|393:22,1,116.150002215385,10|0,0:0|0:0,0:0:0:0:
204,315,119456,1,2,0:0:0:0:
214,262,119543,1,4,0:0:0:0:
353,224,119718,1,4,0:0:0:0:
282,226,119805,2,0,L|269:90,1,116.150002215385,10|0,0:0|0:0,0:0:0:0:
24,308,120154,6,0,L|82:307,1,58.0750011076927,6|0,0:0|0:0,0:0:0:0:
214,233,120415,1,0,0:0:0:0:
143,235,120502,2,0,L|130:99,1,116.150002215385,10|0,0:0|0:0,0:0:0:0:
299,292,120851,2,0,L|240:291,1,58.0750011076927,2|4,0:0|0:0,0:0:0:0:
109,217,121112,1,4,0:0:0:0:
180,219,121200,2,0,L|193:83,1,116.150002215385,10|0,0:0|0:0,0:0:0:0:
456,77,121549,6,0,L|330:71,2,116.150002215385,6|4|10,0:0|0:0|0:0,0:0:0:0:
78,374,122072,2,0,B|78:18|78:18|430:19|430:19|430:394,1,1060.50001011372,2|8,0:1|0:0,0:0:0:0:
144,270,122770,2,0,L|63:270,1,58.0750011076927
171,192,122944,6,0,L|461:191,1,257.549996561337,4|4,0:0|0:0,0:0:0:0:
195,117,123293,2,0,L|50:117,1,116.150002215385,8|0,0:0|0:0,0:0:0:0:
69,42,123555,1,4,0:0:0:0:
241,206,123642,2,0,L|153:207,1,58.0750011076927,2|4,0:0|0:0,0:0:0:0:
329,291,123904,2,0,L|429:291,1,58.0750011076927,4|8,0:0|0:0,0:0:0:0:
243,292,124165,1,2,0:0:0:0:
483,221,124340,6,0,L|492:58,1,116.150002215385,4|4,0:0|0:0,0:0:0:0:
346,106,124688,1,8,0:0:0:0:
108,316,124863,2,0,L|206:313,1,58.0750011076927,2|4,0:0|0:0,0:0:0:0:
359,251,125037,2,0,L|451:250,1,58.0750011076927,2|4,0:0|0:0,0:0:0:0:
330,179,125212,2,0,L|326:101,1,58.0750011076927,2|4,0:0|0:0,0:0:0:0:
149,157,125386,2,0,L|-18:140,1,116.150002215385,8|2,0:0|0:0,0:0:0:0:
103,127,125648,1,4,0:0:0:0:
177,96,125735,6,0,L|454:120,1,257.549996561337,4|4,0:0|0:0,0:0:0:0:
176,314,126084,2,0,L|163:175,1,116.150002215385,8|2,0:0|0:0,0:0:0:0:
223,198,126345,1,4,0:0:0:0:
389,92,126433,2,0,L|315:91,1,58.0750011076927,2|4,0:0|0:0,0:0:0:0:
199,158,126694,2,0,L|304:161,1,58.0750011076927,4|8,0:0|0:0,0:0:0:0:
403,160,126956,1,2,0:0:0:0:
152,257,127130,6,0,L|22:254,2,116.150002215385,4|4|8,0:0|0:0|0:0,0:0:0:0:
385,323,127654,2,0,L|392:221,1,58.0750011076927,2|4,0:0|0:0,0:0:0:0:
181,159,127828,2,0,L|264:157,1,58.0750011076927,2|4,0:0|0:0,0:0:0:0:
428,194,128002,2,0,L|435:92,1,58.0750011076927,2|4,0:0|0:0,0:0:0:0:
239,64,128177,2,0,L|156:62,3,58.0750011076927,8|0|2|4,0:0|0:0|0:0|0:0,0:0:0:0:
347,52,128526,6,0,L|353:181,1,116.150002215385,6|4,0:0|0:0,0:0:0:0:
195,147,128874,1,10,0:0:0:0:
457,206,129049,2,0,L|463:288,1,58.0750011076927,0|4,0:0|0:0,0:0:0:0:
215,245,129310,1,4,0:0:0:0:
295,270,129397,2,0,L|301:352,1,58.0750011076927,0|4,0:0|0:0,0:0:0:0:
57,219,129572,2,0,L|44:370,1,116.150002215385,10|0,0:0|0:0,0:0:0:0:
318,68,129921,6,0,L|331:219,1,116.150002215385,6|4,0:0|0:0,0:0:0:0:
468,180,130270,1,8,0:0:0:0:
147,156,130444,2,0,L|141:238,1,58.0750011076927,0|4,0:0|0:0,0:0:0:0:
306,226,130706,1,4,0:0:0:0:
238,251,130793,2,0,L|232:333,1,58.0750011076927,0|4,0:0|0:0,0:0:0:0:
49,340,130967,2,0,L|40:225,1,116.150002215385,10|0,0:0|0:0,0:0:0:0:
296,160,131316,6,0,L|172:142,1,116.150002215385,6|0,0:0|0:0,0:0:0:0:
312,83,131665,1,10,0:0:0:0:
189,136,131840,1,0,0:0:0:0:
185,184,131927,1,0,0:0:0:0:
122,200,132014,1,2,0:0:0:0:
195,218,132101,1,0,0:0:0:0:
265,241,132188,1,0,0:0:0:0:
193,263,132276,1,0,0:0:0:0:
341,355,132363,2,0,P|390:313|326:241,1,174.225003323078,10|0,0:0|0:0,0:0:0:0:
250,223,132712,6,0,L|403:216,1,116.150002215385,4|0,0:0|0:0,0:0:0:0:
222,184,133060,2,0,L|55:173,1,116.150002215385,8|0,0:0|0:0,0:0:0:0:
246,155,133409,2,0,L|386:145,1,116.150002215385
103,69,133758,1,10,0:0:0:0:
105,276,134107,6,0,L|394:252,1,257.549996561337,4|4,0:0|0:0,0:0:0:0:
224,212,134456,1,8,0:0:0:0:
360,154,134630,2,0,L|272:153,2,55.5500016952515,2|4|2,0:0|0:0|0:0,0:0:0:0:
223,88,134979,1,2,0:0:0:0:
474,81,135154,2,0,L|474:225,1,111.100003390503,8|2,0:0|0:0,0:0:0:0:
418,192,135415,1,2,0:0:0:0:
349,192,135502,6,4,L|59:193,1,257.549996561337,0|0,0:0|0:0,0:0:0:0:
211,188,135851,1,8,0:0:0:0:
479,262,136026,2,0,L|491:350,1,55.5500016952515,2|4,0:0|0:0,0:0:0:0:
294,262,136200,2,0,L|217:261,1,55.5500016952515,2|4,0:0|0:0,0:0:0:0:
433,194,136374,2,0,L|449:51,1,111.100003390503,2|10,0:0|0:0,0:0:0:0:
379,81,136636,1,0,0:0:0:0:
218,120,136723,2,0,L|141:119,1,55.5500016952515,2|2,0:0|0:0,0:0:0:0:
236,192,136898,6,4,L|507:193,1,257.549996561337,0|0,0:0|0:0,0:0:0:0:
370,186,137247,1,8,0:0:0:0:
216,185,137421,2,0,L|304:186,2,55.5500016952515,2|4|2,0:0|0:0|0:0,0:0:0:0:
370,186,137770,1,2,0:0:0:0:
73,248,137944,2,0,L|74:118,1,111.100003390503,10|2,0:0|0:0,0:0:0:0:
129,135,138206,1,2,0:0:0:0:
201,134,138293,6,0,L|499:137,1,257.549996561337,4|4,0:0|0:0,0:0:0:0:
328,134,138642,1,10,0:0:0:0:
43,224,138816,2,0,L|99:224,1,55.5500016952515,2|4,0:0|0:0,0:0:0:0:
268,267,138991,2,0,L|258:159,1,55.5500016952515,2|0,0:0|0:0,0:0:0:0:
182,183,139165,2,0,L|106:181,1,55.5500016952515,2|0,0:0|0:0,0:0:0:0:
307,134,139340,2,0,L|443:136,1,111.100003390503,10|2,0:0|0:0,0:0:0:0:
344,136,139601,1,2,0:0:0:0:
138,134,139688,5,4,0:0:0:0:
269,338,139863,2,0,L|276:174,1,111.100003390503,4|10,0:0|0:0,0:0:0:0:
195,224,140124,2,0,L|188:60,1,111.100003390503
272,111,140386,2,0,P|338:149|314:243,1,166.650005085755,4|0,0:0|0:0,0:0:0:0:
253,227,140735,1,10,0:0:0:0:
406,228,140909,1,2,0:0:0:0:
35,128,141084,5,0,0:0:0:0:
173,184,141258,2,0,L|321:183,1,111.100003390503,4|10,0:0|0:0,0:0:0:0:
209,117,141520,2,0,L|88:117,1,111.100003390503
298,309,141781,2,0,P|356:263|275:263,1,166.650005085755,4|0,0:0|0:0,0:0:0:0:
110,234,142130,1,10,0:0:0:0:
255,232,142305,1,2,0:0:0:0:
402,234,142479,1,4,0:0:0:0:
158,125,142654,6,0,L|-7:125,1,131.299993989563,4|8,0:0|0:0,0:0:0:0:
185,239,142915,2,0,L|350:239,1,131.299993989563
85,340,143177,2,0,L|85:178,1,131.299993989563,4|0,0:0|0:0,0:0:0:0:
316,160,143526,1,10,0:0:0:0:
177,159,143700,1,2,0:0:0:0:
468,82,143874,5,2,0:0:0:0:
329,81,144048,1,4,0:0:0:0:
468,82,144223,1,10,0:0:0:0:
75,319,144398,2,0,B|75:57|75:57|340:56|340:56|340:325,1,787.79996393738,2|10,0:1|0:0,0:0:0:0:
184,119,145095,2,0,L|109:120,1,58.0750011076927
280,298,145270,6,0,P|337:280|346:193,1,116.150002215385,4|4,0:0|0:0,0:0:0:0:
291,229,145531,1,0,0:0:0:0:
121,174,145619,2,0,L|207:174,1,58.0750011076927,8|4,0:0|0:0,0:0:0:0:
332,97,145793,2,0,L|266:97,1,58.0750011076927,2|4,0:0|0:0,0:0:0:0:
121,294,145967,2,0,P|134:231|246:193,1,174.225003323078
443,72,146316,2,0,L|450:146,1,58.0750011076927,8|0,0:0|0:0,0:0:0:0:
372,126,146491,2,0,L|379:200,1,58.0750011076927,2|0,0:0|0:0,0:0:0:0:
216,300,146665,6,0,L|368:298,1,116.150002215385,4|4,0:0|0:0,0:0:0:0:
273,300,146927,1,0,0:0:0:0:
99,315,147014,2,0,L|98:230,1,58.0750011076927,8|4,0:0|0:0,0:0:0:0:
277,206,147188,2,0,L|388:204,1,58.0750011076927,2|4,0:0|0:0,0:0:0:0:
143,123,147363,2,0,L|293:125,1,116.150002215385,2|0,0:0|0:0,0:0:0:0:
269,47,147624,1,0,0:0:0:0:
460,182,147712,2,0,L|378:182,1,58.0750011076927,8|0,0:0|0:0,0:0:0:0:
325,202,147886,2,0,L|251:203,1,58.0750011076927,2|4,0:0|0:0,0:0:0:0:
91,294,148060,6,0,L|87:150,1,116.150002215385,4|4,0:0|0:0,0:0:0:0:
146,178,148322,1,0,0:0:0:0:
294,102,148409,2,0,L|374:102,1,58.0750011076927,8|4,0:0|0:0,0:0:0:0:
158,32,148584,2,0,L|54:31,1,58.0750011076927,2|4,0:0|0:0,0:0:0:0:
260,288,148758,2,0,P|314:244|239:185,1,174.225003323078,2|0,0:0|0:0,0:0:0:0:
428,49,149107,2,0,L|428:127,1,58.0750011076927,8|0,0:0|0:0,0:0:0:0:
336,157,149281,2,0,L|436:157,1,58.0750011076927,2|0,0:0|0:0,0:0:0:0:
185,255,149456,6,0,L|186:107,1,116.150002215385,4|4,0:0|0:0,0:0:0:0:
243,139,149717,1,0,0:0:0:0:
428,237,149805,2,0,L|356:235,1,58.0750011076927,8|4,0:0|0:0,0:0:0:0:
217,335,149979,2,0,L|129:336,1,58.0750011076927,2|4,0:0|0:0,0:0:0:0:
391,318,150154,2,0,L|478:320,3,58.0750011076927,2|0|2|0,0:0|0:0|0:0|0:0,0:0:0:0:
230,243,150502,2,0,L|143:245,2,58.0750011076927,8|0|2,0:0|0:0|0:0,0:0:0:0:
388,237,150764,1,4,0:0:0:0:
234,137,150851,6,0,L|226:230,1,58.0750011076927,4|0,0:0|0:0,0:0:0:0:
320,190,151026,2,0,L|454:183,1,116.150002215385,0|8,0:0|0:0,0:0:0:0:
343,295,151287,2,0,L|209:288,1,116.150002215385
391,331,151549,2,0,P|445:289|380:219,1,174.225003323078
316,214,151898,1,8,0:0:0:0:
156,214,152072,2,0,L|243:217,1,58.0750011076927
399,120,152247,5,4,0:0:0:0:
261,58,152421,2,0,L|257:189,1,116.150002215385,0|8,0:0|0:0,0:0:0:0:
345,117,152683,2,0,L|341:248,1,116.150002215385
121,331,152944,2,0,P|67:289|132:219,1,174.225003323078
196,214,153293,1,8,0:0:0:0:
356,214,153467,2,0,L|269:217,1,58.0750011076927
95,218,153642,5,4,0:0:0:0:
238,318,153816,2,0,L|374:318,1,116.150002215385,0|8,0:0|0:0,0:0:0:0:
190,240,154078,2,0,L|326:240,1,116.150002215385
141,200,154340,2,0,P|86:157|151:89,1,174.225003323078
338,84,154688,1,8,0:0:0:0:
185,82,154863,2,0,L|87:84,1,58.0750011076927
365,207,155037,6,0,L|509:207,2,116.150002215385,4|4|8,0:0|0:0|0:0,0:0:0:0:
85,328,155560,2,0,B|86:-4|86:-4|86:21|86:21|437:22|437:22|436:281|436:281|437:193|437:193|241:261|241:261|110:215|110:215|108:-5,1,1590.75001517057,2|0,0:1|0:0,0:0:0:0:
391,42,156433,1,8,0:0:0:0:
56,40,162363,6,0,B|56:216|56:216|56:39|56:39|56:38|56:38|56:214|56:214|56:37|56:37|56:37|56:37|56:213|56:213|56:36|56:36|56:35|56:35|56:211|56:211|56:34|56:34|56:34|56:34|56:210|56:210|56:33|56:33|56:32|56:32|56:208|56:208|56:31|56:31|56:31|56:31|56:207|56:207|56:30|56:30|56:29|56:29|56:205|56:205|56:28|56:28|56:28|56:28|56:204|56:204|56:27|56:27|56:26|56:26|56:202|56:202|56:25|56:25|56:25|56:25|56:201|56:201|56:24|56:24|56:23|56:23|56:199|56:199|56:22|56:22|56:22|56:22|56:198|56:198|56:21|56:21|56:20|56:20|56:196|56:196|56:19|56:19|56:19|56:19|56:195|56:195|56:18|56:18|56:17|56:17|298:275|298:275|321:98|321:98|358:269|358:269|369:87|369:87|403:255|403:255|426:360|426:360|412:115|412:115|409:-12|409:-12|401:165|401:165|399:115|399:115|374:290|374:290|357:114|357:114|326:281|326:281|294:101|294:101|272:206|272:206|305:233|305:233|272:252|272:252|226:321|226:321|209:240|209:240|188:108|188:108|145:323|145:323|131:138|131:138|128:116|128:116|105:260|105:260|97:72|97:72|89:208|90:208|91:220|91:220|92:203|92:203|99:24|99:24|106:141|106:141|104:84|104:84|119:-35|119:-35|142:146|142:146|146:95|146:95|160:-17|160:-17|209:219|209:219|361:72|361:72|477:155|477:155|477:332|477:332|478:155|478:155|419:-1|419:-1|407:133|407:133|359:155|359:155|358:331|358:331|359:153|359:153|407:132|407:132|419:-2|419:-2|478:154|478:154|477:330|477:330|478:153|478:153|419:-3|419:-3|407:131|407:131|359:151|359:151|358:327|358:327|359:150|359:150|277:85|276:84|261:197|261:197|215:243|215:243|203:139|203:139|203:-37|203:-37|202:140|202:140|261:-17|261:-17|273:117|273:117|319:139|319:139|319:-37|319:-37|318:141|318:141|271:119|271:119|259:-15|259:-15|200:141|200:141|200:-35|200:-35|199:142|199:142|258:-15|258:-15|270:119|270:119|317:141|317:141|317:-35|317:-35|316:143|316:143|236:235|236:235|172:206|172:206|166:44|166:44|166:220|166:220|165:43|165:43|105:199|105:199|93:65|93:65|46:43|46:43|46:219|46:219|46:41|46:41|93:63|93:63|105:197|105:197|164:42|164:42|164:218|164:218|164:40|164:40|104:196|104:196|92:62|92:62|45:40|45:40|45:216|45:216|44:39|44:39|91:61|91:61|103:195|103:195|182:256|182:256|195:190|195:190|195:13|195:13|194:189|194:189|253:345|253:345|265:211|265:211|315:196|315:196|314:19|314:19|315:195|315:195|266:211|266:211|254:345|254:345|195:189|195:189|195:188|195:188|194:11|194:11|195:188|195:188|254:344|254:344|266:210|266:210|315:194|315:194|315:194|315:194|314:17|314:17|315:193|315:193|210:234|210:234|128:203|128:203|55:212|55:212|38:221|38:221|33:161|33:161|32:337|32:337|33:160|33:160|113:-1|113:-1|178:160|178:160|177:336|177:336|178:158|178:158|113:-2|113:-2|33:159|33:159|32:160|32:160|31:336|31:336|32:159|32:159|112:-2|112:-2|177:158|177:158|178:159|178:159|177:335|177:335|178:157|178:157|337:260|337:260|482:183|482:183|483:7|483:7|482:185|482:185|402:24|402:24|337:184|337:184|336:185|336:185|337:9|337:9|336:186|336:186|402:26|402:26|482:187|482:187|483:188|483:188|484:12|484:12|483:189|483:189|403:28|403:28|337:188|337:188|337:189|337:189|338:13|338:13|337:191|337:191|161:165|161:165|94:268|94:268|52:235|52:235|53:59|53:59|52:237|52:237|-16:178|19:55|144:44|203:120|190:188|190:188|191:12|191:12|190:190|190:190|121:132|154:9|279:-5|339:70|328:139|328:139|327:315|327:315|327:138|327:138|259:196|293:319|418:332|478:256|465:187|465:187|464:363|464:363|465:185|465:185|375:226|274:206|204:142|175:62|175:62|174:238|174:238|175:61|175:61|260:220|260:220|343:68|343:68|344:244|344:244|343:67|343:67|260:220|260:220|176:61|176:61|175:237|175:237|176:60|176:60|261:219|261:219|343:67|343:67|342:243|342:243|343:65|343:65|192:164|192:164|28:44,1,33229.0003168964,0|4,0:0|0:0,0:0:0:0:
205,136,179020,5,0,0:0:0:0:
300,135,179194,1,0,0:0:0:0:
470,240,179456,5,0,0:0:0:0:
300,135,179717,1,0,0:0:0:0:
205,136,179891,1,0,0:0:0:0:
42,240,180154,5,4,0:0:0:0:
212,135,180415,1,0,0:0:0:0:
311,135,180589,1,0,0:0:0:0:
470,240,180851,5,0,0:0:0:0:
300,135,181112,1,0,0:0:0:0:
200,135,181286,1,0,0:0:0:0:
42,240,181549,5,4,0:0:0:0:
198,131,181810,1,0,0:0:0:0:
311,135,181984,1,0,0:0:0:0:
470,240,182246,5,0,0:0:0:0:
313,135,182507,1,0,0:0:0:0:
200,135,182683,1,0,0:0:0:0:
42,240,182944,5,4,0:0:0:0:
199,135,183205,1,0,0:0:0:0:
322,135,183379,1,0,0:0:0:0:
470,240,183642,5,0,0:0:0:0:
313,135,183903,1,0,0:0:0:0:
190,135,184077,1,0,0:0:0:0:
42,240,184340,5,4,0:0:0:0:
195,135,184601,1,0,0:0:0:0:
322,135,184775,1,0,0:0:0:0:
470,240,185037,5,0,0:0:0:0:
317,135,185298,1,0,0:0:0:0:
190,135,185472,1,0,0:0:0:0:
42,240,185735,5,4,0:0:0:0:
195,135,185996,1,0,0:0:0:0:
331,135,186170,1,0,0:0:0:0:
470,240,186433,5,0,0:0:0:0:
317,135,186694,1,0,0:0:0:0:
181,135,186868,1,0,0:0:0:0:
34,158,187130,5,4,0:0:0:0:
254,350,187392,1,0,0:0:0:0:
140,349,187566,1,0,0:0:0:0:
478,158,187828,5,4,0:0:0:0:
258,350,188090,1,0,0:0:0:0:
372,349,188264,1,0,0:0:0:0:
34,158,188526,5,4,0:0:0:0:
249,286,188787,1,0,0:0:0:0:
122,285,188961,1,0,0:0:0:0:
478,158,189223,5,4,0:0:0:0:
262,285,189484,1,0,0:0:0:0:
389,284,189658,1,0,0:0:0:0:
34,158,189921,5,4,0:0:0:0:
231,242,190183,1,0,0:0:0:0:
98,242,190357,1,0,0:0:0:0:
478,158,190619,5,4,0:0:0:0:
281,242,190881,1,0,0:0:0:0:
417,243,191055,1,0,0:0:0:0:
34,158,191316,5,4,0:0:0:0:
180,277,191578,1,0,0:0:0:0:
34,278,191752,1,0,0:0:0:0:
478,158,192014,5,4,0:0:0:0:
332,280,192276,1,0,0:0:0:0:
476,279,192450,1,0,0:0:0:0:
28,220,192712,5,4,0:0:0:0:
264,192,192973,1,0,0:0:0:0:
28,220,193148,1,0,0:0:0:0:
484,220,193409,5,4,0:0:0:0:
248,192,193670,1,0,0:0:0:0:
484,220,193845,1,0,0:0:0:0:
42,218,194107,5,4,0:0:0:0:
389,220,194368,1,0,0:0:0:0:
42,218,194543,1,0,0:0:0:0:
470,218,194805,5,4,0:0:0:0:
123,219,195066,1,0,0:0:0:0:
470,218,195241,1,0,0:0:0:0:
123,219,195502,5,4,0:0:0:0:
256,192,195677,12,0,200735,0:0:0:0:
65,246,201084,6,0,B|418:246|418:246|418:69|418:69|418:252|418:252|418:81|418:81|418:260|418:260|163:5,1,1414.00001348495,4|2,3:0|0:1,0:0:0:0:
331,167,202043,1,2,0:1:0:0:
487,83,202305,1,2,0:1:0:0:
167,142,202479,5,2,0:1:0:0:
367,141,202741,1,2,0:1:0:0:
48,363,203002,2,0,B|134:22|134:22|47:363|47:363|135:18|135:18|44:380,1,1414.00001348495
362,114,203874,6,0,B|94:246|94:246|94:69|94:69|94:252|94:252|94:81|94:81|93:311|93:311|431:24,1,1414.00001348495,4|2,3:0|0:1,0:0:0:0:
181,167,204833,1,2,0:1:0:0:
25,83,205095,1,2,0:1:0:0:
330,142,205270,5,2,0:1:0:0:
130,141,205532,1,2,0:1:0:0:
447,134,205793,2,0,B|447:312|447:312|447:136|447:136|94:135|94:135|93:313|93:313|94:121,1,1060.50001011372,2|2,0:1|0:1,0:0:0:0:
447,134,206491,1,0,0:0:0:0:
447,134,206578,1,0,0:0:0:0:
150,114,206665,6,0,B|418:246|418:246|418:69|418:69|418:252|418:252|418:81|418:81|419:311|419:311|81:24,1,1414.00001348495,4|2,0:3|0:1,0:0:0:0:
331,167,207624,1,2,0:1:0:0:
487,83,207886,1,2,0:1:0:0:
167,142,208060,5,2,0:1:0:0:
367,141,208322,1,2,0:1:0:0:
48,363,208584,2,0,B|134:22|134:22|47:363|47:363|135:18|135:18|44:380,1,1414.00001348495
362,114,209456,6,0,B|94:246|94:246|94:69|94:69|94:252|94:252|94:81|94:81|93:311|93:311|431:24,1,1414.00001348495,0|2,3:1|0:1,0:0:0:0:
181,167,210415,1,2,0:1:0:0:
25,83,210677,1,2,0:1:0:0:
345,142,210851,5,2,0:1:0:0:
145,141,211113,1,2,0:1:0:0:
496,371,211374,2,0,B|496:16|496:16|361:144|361:144|256:16|256:16|256:369|256:369|133:224|133:224|20:344,1,1414.00001348495,2|2,0:1|0:1,0:0:0:0:
20,343,212159,1,0,0:0:0:0:
286,347,212247,6,0,P|356:332|437:171,3,242.399992602539,4|0|0|0,3:3|0:0|0:0|0:0,0:0:0:0:
226,347,213642,6,0,P|156:332|75:171,3,242.399992602539
286,347,215037,6,0,B|373:350|442:278|439:194|439:194|441:281|370:349|286:347|286:347|286:347|286:347|372:350|442:279|440:195,1,727.199977807618
226,347,216433,6,0,B|139:350|70:278|73:194|73:194|71:281|142:349|226:347|226:347|226:347|226:347|140:350|70:279|72:195,1,727.199977807618
256,192,217828,12,0,223060,0:0:0:0:
369,217,223409,6,0,L|112:216,1,257.549996561337,4|4,0:3|0:0,0:0:0:0:
368,152,223758,2,0,L|368:68,1,58.0750011076927,10|0,0:0|0:0,0:0:0:0:
280,90,223933,2,0,L|348:90,1,58.0750011076927,2|4,0:0|0:0,0:0:0:0:
171,134,224107,2,0,L|112:134,1,58.0750011076927,2|4,0:0|0:0,0:0:0:0:
112,134,224281,2,0,L|170:134,1,58.0750011076927,2|4,0:0|0:0,0:0:0:0:
368,200,224456,2,0,L|233:200,1,116.150002215385,10|0,0:0|0:0,0:0:0:0:
326,168,224717,1,0,0:0:0:0:
251,200,224805,6,0,L|374:199,1,116.150002215385,4|4,0:0|0:0,0:0:0:0:
136,124,225154,1,10,0:0:0:0:
288,120,225328,2,0,L|357:121,1,58.0750011076927,2|4,0:0|0:0,0:0:0:0:
278,65,225502,2,0,L|203:64,1,58.0750011076927,2|4,0:0|0:0,0:0:0:0:
288,120,225677,2,0,L|357:121,1,58.0750011076927,2|4,0:0|0:0,0:0:0:0:
39,320,225851,2,0,L|39:186,1,116.150002215385,10|0,0:0|0:0,0:0:0:0:
103,201,226113,1,0,0:0:0:0:
169,204,226200,6,0,L|449:205,1,257.549996561337,4|4,0:0|0:0,0:0:0:0:
103,348,226549,2,0,L|103:226,1,116.150002215385,10|2,0:0|0:0,0:0:0:0:
169,232,226810,1,4,0:0:0:0:
347,332,226898,2,0,L|418:332,1,58.0750011076927,2|4,0:0|0:0,0:0:0:0:
347,276,227072,2,0,L|409:276,1,58.0750011076927,2|4,0:0|0:0,0:0:0:0:
176,168,227247,2,0,L|304:168,1,116.150002215385,10|2,0:0|0:0,0:0:0:0:
350,168,227508,1,2,0:0:0:0:
170,115,227595,6,0,L|26:115,1,116.150002215385,4|4,0:0|0:0,0:0:0:0:
187,39,227944,1,10,0:0:0:0:
432,120,228119,2,0,L|357:120,1,58.0750011076927,2|4,0:0|0:0,0:0:0:0:
305,119,228293,2,0,L|375:119,1,58.0750011076927,2|4,0:0|0:0,0:0:0:0:
432,120,228467,2,0,L|357:120,1,58.0750011076927,2|4,0:0|0:0,0:0:0:0:
144,276,228642,2,0,L|265:275,1,116.150002215385,8|2,0:0|0:0,0:0:0:0:
192,276,228903,1,0,0:0:0:0:
127,276,228991,6,0,L|434:277,1,257.549996561337,4|4,0:0|0:0,0:0:0:0:
128,72,229340,2,0,L|245:72,1,116.150002215385,10|2,0:0|0:0,0:0:0:0:
316,71,229601,1,4,0:0:0:0:
142,284,229688,2,0,L|143:206,1,58.0750011076927,2|4,0:0|0:0,0:0:0:0:
222,205,229863,2,0,L|223:127,1,58.0750011076927,2|4,0:0|0:0,0:0:0:0:
408,219,230037,2,0,L|287:221,1,116.150002215385,10|2,0:0|0:0,0:0:0:0:
362,178,230299,1,0,0:0:0:0:
291,220,230386,6,0,L|408:219,1,116.150002215385,4|4,0:0|0:0,0:0:0:0:
251,223,230735,1,8,0:0:0:0:
495,106,230909,2,0,L|494:187,1,58.0750011076927,2|4,0:0|0:0,0:0:0:0:
413,102,231084,2,0,L|412:183,1,58.0750011076927,2|4,0:0|0:0,0:0:0:0:
495,106,231258,2,0,L|494:187,1,58.0750011076927,2|4,0:0|0:0,0:0:0:0:
268,174,231433,2,0,L|146:174,1,116.150002215385,10|2,0:0|0:0,0:0:0:0:
223,174,231694,1,0,0:0:0:0:
297,172,231781,6,0,L|19:174,1,257.549996561337,4|4,0:0|0:0,0:0:0:0:
320,368,232130,2,0,L|320:233,1,116.150002215385,10|2,0:0|0:0,0:0:0:0:
253,252,232392,1,4,0:0:0:0:
396,162,232479,2,0,L|485:163,1,58.0750011076927,2|4,0:0|0:0,0:0:0:0:
396,162,232654,2,0,L|485:163,1,58.0750011076927,2|4,0:0|0:0,0:0:0:0:
252,159,232828,2,0,L|122:158,1,116.150002215385,8|0,0:0|0:0,0:0:0:0:
212,159,233090,1,0,0:0:0:0:
364,239,233177,6,0,L|494:238,1,116.150002215385,6|6,0:0|0:0,0:0:0:0:
404,239,233439,1,0,0:0:0:0:
165,244,233526,1,10,0:0:0:0:
414,325,233700,2,0,L|485:325,1,58.0750011076927,2|4,0:0|0:0,0:0:0:0:
396,324,233874,2,0,L|325:324,1,58.0750011076927,2|4,0:0|0:0,0:0:0:0:
414,325,234049,2,0,L|485:325,1,58.0750011076927,2|4,0:0|0:0,0:0:0:0:
253,327,234223,2,0,L|194:327,1,58.0750011076927,10|0,0:0|0:0,0:0:0:0:
194,327,234397,2,0,L|252:327,1,58.0750011076927,2|2,0:0|0:0,0:0:0:0:
327,325,234572,6,0,L|52:326,1,257.549996561337,4|4,0:0|0:0,0:0:0:0:
340,248,234921,2,0,L|468:248,1,116.150002215385,10|2,0:0|0:0,0:0:0:0:
386,248,235183,1,4,0:0:0:0:
176,160,235270,2,0,L|177:60,1,58.0750011076927,2|4,0:0|0:0,0:0:0:0:
255,122,235444,2,0,L|319:122,1,58.0750011076927,2|4,0:0|0:0,0:0:0:0:
137,61,235619,2,0,L|11:61,1,116.150002215385,10|2,0:0|0:0,0:0:0:0:
97,101,235880,1,2,0:0:0:0:
288,285,235967,6,0,L|414:285,1,116.150002215385,4|4,0:0|0:0,0:0:0:0:
242,258,236316,1,10,0:0:0:0:
483,165,236491,2,0,L|394:164,1,58.0750011076927,2|4,0:0|0:0,0:0:0:0:
348,165,236665,2,0,L|437:164,1,58.0750011076927,2|4,0:0|0:0,0:0:0:0:
483,165,236840,2,0,L|394:164,1,58.0750011076927,2|4,0:0|0:0,0:0:0:0:
158,289,237014,2,0,L|279:287,1,116.150002215385,10|2,0:0|0:0,0:0:0:0:
350,287,237276,1,2,0:0:0:0:
264,288,237363,6,0,L|-15:293,1,257.549996561337,4|4,0:0|0:0,0:0:0:0:
254,147,237712,2,0,L|381:147,1,116.150002215385,10|2,0:0|0:0,0:0:0:0:
441,147,237973,1,4,0:0:0:0:
198,219,238060,2,0,L|127:220,1,58.0750011076927,2|4,0:0|0:0,0:0:0:0:
205,220,238235,2,0,L|272:220,1,58.0750011076927,2|4,0:0|0:0,0:0:0:0:
58,327,238409,2,0,L|58:166,1,116.150002215385,10|2,0:0|0:0,0:0:0:0:
125,212,238671,1,2,0:0:0:0:
58,210,238758,6,0,L|226:212,1,116.150002215385,4|4,0:0|0:0,0:0:0:0:
336,212,239107,1,10,0:0:0:0:
58,117,239281,2,0,L|161:117,1,58.0750011076927,2|4,0:0|0:0,0:0:0:0:
188,117,239456,2,0,L|85:117,1,58.0750011076927,2|4,0:0|0:0,0:0:0:0:
58,117,239630,2,0,L|161:117,1,58.0750011076927,2|4,0:0|0:0,0:0:0:0:
346,214,239805,2,0,L|215:214,1,116.150002215385,10|2,0:0|0:0,0:0:0:0:
156,215,240066,1,2,0:0:0:0:
85,216,240154,6,0,L|424:217,1,257.549996561337,4|4,0:0|0:0,0:0:0:0:
277,80,240502,2,0,L|149:80,1,116.150002215385,10|2,0:0|0:0,0:0:0:0:
160,104,240764,1,4,0:0:0:0:
352,184,240851,2,0,L|422:186,1,58.0750011076927,2|4,0:0|0:0,0:0:0:0:
352,120,241026,2,0,L|416:118,1,58.0750011076927,2|4,0:0|0:0,0:0:0:0:
192,72,241200,2,0,L|314:73,1,116.150002215385,10|2,0:0|0:0,0:0:0:0:
376,73,241462,1,0,0:0:0:0:
187,240,241549,5,0,0:0:0:0:
324,239,241723,1,0,0:0:0:0:
184,176,241898,2,0,L|184:55,1,116.150002215385,10|2,0:0|0:0,0:0:0:0:
252,61,242159,1,4,0:0:0:0:
405,140,242247,2,0,L|486:138,1,58.0750011076927,2|4,0:0|0:0,0:0:0:0:
401,83,242421,2,0,L|335:83,1,58.0750011076927,2|4,0:0|0:0,0:0:0:0:
180,251,242595,2,0,L|57:253,1,116.150002215385,10|2,0:0|0:0,0:0:0:0:
133,255,242857,1,0,0:0:0:0:
425,256,242944,5,4,0:0:0:0:
269,252,243119,1,0,0:0:0:0:
427,177,243293,2,0,L|427:88,1,58.0750011076927,10|0,0:0|0:0,0:0:0:0:
350,112,243467,2,0,L|350:32,1,58.0750011076927,2|4,0:0|0:0,0:0:0:0:
270,69,243642,2,0,L|202:68,1,58.0750011076927,2|4,0:0|0:0,0:0:0:0:
307,135,243816,2,0,L|307:209,1,58.0750011076927,2|4,0:0|0:0,0:0:0:0:
128,248,243991,2,0,P|80:198|156:119,1,174.225003323078,10|2,0:0|0:0,0:0:0:0:
209,157,244340,6,0,L|325:155,1,116.150002215385,2|0,0:0|0:0,0:0:0:0:
154,271,244688,2,0,L|321:269,1,116.150002215385,8|0,0:0|0:0,0:0:0:0:
122,364,245037,2,0,L|115:256,1,58.0750011076927,2|0,0:0|0:0,0:0:0:0:
205,365,245212,2,0,L|198:257,1,58.0750011076927
409,358,245386,1,10,0:0:0:0:
106,226,245735,6,0,L|420:92,2,257.549996561337,4|4|10,0:0|0:0|0:0,0:0:0:0:
237,269,246258,2,0,L|327:268,1,58.0750011076927,2|0,0:0|0:0,0:0:0:0:
141,262,246433,2,0,L|141:141,1,116.150002215385,6|0,0:0|0:0,0:0:0:0:
209,147,246694,1,4,0:0:0:0:
384,180,246781,2,0,L|384:59,1,116.150002215385,10|0,0:0|0:0,0:0:0:0:
316,65,247042,1,4,0:0:0:0:
106,227,247130,6,0,L|449:226,2,257.549996561337,4|4|10,0:0|0:0|0:0,0:0:0:0:
364,181,247654,2,0,L|444:181,1,58.0750011076927,2|4,0:0|0:0,0:0:0:0:
364,125,247828,2,0,L|299:126,1,58.0750011076927,2|4,0:0|0:0,0:0:0:0:
364,181,248002,2,0,L|444:181,1,58.0750011076927,0|4,0:0|0:0,0:0:0:0:
155,282,248177,2,0,L|289:282,1,116.150002215385,10|2,0:0|0:0,0:0:0:0:
349,281,248438,1,2,0:0:0:0:
175,368,248526,6,0,L|489:234,2,257.549996561337,4|4|10,0:0|0:0|0:0,0:0:0:0:
304,258,249049,2,0,L|305:346,1,58.0750011076927,2|0,0:0|0:0,0:0:0:0:
132,160,249223,2,0,L|206:160,1,58.0750011076927,6|0,0:0|0:0,0:0:0:0:
270,161,249398,2,0,L|344:161,1,58.0750011076927,0|4,0:0|0:0,0:0:0:0:
134,207,249572,2,0,L|60:207,1,58.0750011076927,10|0,0:0|0:0,0:0:0:0:
75,207,249747,2,0,L|134:207,1,58.0750011076927,2|6,0:0|0:0,0:0:0:0:
392,120,249921,6,0,L|49:119,2,257.549996561337,4|4|10,0:0|0:0|0:0,0:0:0:0:
251,118,250444,2,0,L|252:29,1,58.0750011076927
410,215,250619,2,0,L|484:215,1,58.0750011076927
410,215,250793,2,0,L|484:215,1,58.0750011076927
294,278,250967,2,0,L|220:278,1,58.0750011076927,10|0,0:0|0:0,0:0:0:0:
410,215,251142,2,0,L|336:215,1,58.0750011076927,2|2,0:0|0:0,0:0:0:0:
168,227,251316,6,0,L|482:93,2,257.549996561337,4|4|10,0:0|0:0|0:0,0:0:0:0:
302,159,251840,2,0,L|302:252,1,58.0750011076927,2|0,0:0|0:0,0:0:0:0:
146,311,252013,2,0,L|78:312,1,58.0750011076927,2|0,0:0|0:0,0:0:0:0:
170,312,252188,2,0,L|238:313,1,58.0750011076927
69,210,252363,2,0,L|-5:210,1,58.0750011076927,10|0,0:0|0:0,0:0:0:0:
10,210,252538,2,0,L|68:210,1,58.0750011076927,2|2,0:0|0:0,0:0:0:0:
326,122,252712,6,0,L|-17:121,2,257.549996561337,4|4|10,0:0|0:0|0:0,0:0:0:0:
464,203,253235,2,0,L|465:121,1,58.0750011076927,2|0,0:0|0:0,0:0:0:0:
229,238,253409,2,0,L|162:236,1,58.0750011076927,2|4,0:0|0:0,0:0:0:0:
229,238,253584,2,0,L|162:236,1,58.0750011076927,0|4,0:0|0:0,0:0:0:0:
367,107,253758,2,0,L|368:181,1,58.0750011076927,10|4,0:0|0:0,0:0:0:0:
278,161,253933,2,0,L|211:159,1,58.0750011076927,2|6,0:0|0:0,0:0:0:0:
438,330,254107,6,0,L|124:196,2,257.549996561337,4|4|10,0:0|0:0|0:0,0:0:0:0:
303,352,254630,2,0,L|227:352,1,58.0750011076927,2|0,0:0|0:0,0:0:0:0:
86,280,254805,2,0,L|212:279,1,116.150002215385,6|0,0:0|0:0,0:0:0:0:
274,277,255066,1,4,0:0:0:0:
200,209,255154,2,0,L|70:211,1,116.150002215385,10|2,0:0|0:0,0:0:0:0:
155,213,255415,1,6,0:0:0:0:
242,211,255502,6,0,L|511:154,2,257.549996561337,4|4|10,0:0|0:0|0:0,0:0:0:0:
60,238,256026,2,0,L|59:141,1,58.0750011076927,2|0,0:0|0:0,0:0:0:0:
228,122,256200,2,0,L|338:123,1,58.0750011076927,2|4,0:0|0:0,0:0:0:0:
228,122,256374,2,0,L|338:123,1,58.0750011076927,0|4,0:0|0:0,0:0:0:0:
97,40,256549,2,0,L|207:41,1,58.0750011076927,10|4,0:0|0:0,0:0:0:0:
241,39,256723,2,0,L|351:40,1,58.0750011076927,2|6,0:0|0:0,0:0:0:0:
463,189,256898,6,0,L|149:55,2,257.549996561337,4|4|10,0:0|0:0|0:0,0:0:0:0:
322,203,257421,2,0,L|260:203,1,58.0750011076927,2|0,0:0|0:0,0:0:0:0:
433,334,257595,2,0,L|433:213,1,116.150002215385,6|0,0:0|0:0,0:0:0:0:
365,219,257856,1,4,0:0:0:0:
199,274,257944,2,0,L|74:274,1,116.150002215385,10|2,0:0|0:0,0:0:0:0:
167,256,258206,1,6,0:0:0:0:
359,171,258293,6,0,L|16:170,2,257.549996561337,4|4|10,0:0|0:0|0:0,0:0:0:0:
220,173,258816,2,0,L|219:84,1,58.0750011076927,2|0,0:0|0:0,0:0:0:0:
371,109,258991,2,0,L|481:110,1,58.0750011076927,2|4,0:0|0:0,0:0:0:0:
371,109,259165,2,0,L|481:110,1,58.0750011076927,0|4,0:0|0:0,0:0:0:0:
222,292,259340,2,0,L|332:293,1,58.0750011076927,10|4,0:0|0:0,0:0:0:0:
366,291,259514,2,0,L|476:292,1,58.0750011076927,2|6,0:0|0:0,0:0:0:0:
223,218,259688,6,0,L|537:84,2,257.549996561337,4|4|10,0:0|0:0|0:0,0:0:0:0:
97,144,260212,2,0,L|167:143,1,58.0750011076927,2|0,0:0|0:0,0:0:0:0:
416,112,260386,2,0,L|416:236,1,116.150002215385,6|0,0:0|0:0,0:0:0:0:
342,210,260648,1,4,0:0:0:0:
96,112,260735,2,0,L|96:236,1,116.150002215385,10|2,0:0|0:0,0:0:0:0:
170,210,260997,1,6,0:0:0:0:
359,171,261084,6,0,L|16:170,2,257.549996561337,4|4|10,0:0|0:0|0:0,0:0:0:0:
226,102,261607,2,0,L|131:102,1,58.0750011076927,2|0,0:0|0:0,0:0:0:0:
363,97,261781,2,0,L|458:97,1,58.0750011076927,2|4,0:0|0:0,0:0:0:0:
363,97,261956,2,0,L|458:97,1,58.0750011076927,0|4,0:0|0:0,0:0:0:0:
250,226,262130,2,0,L|155:226,1,58.0750011076927,10|4,0:0|0:0,0:0:0:0:
250,226,262305,2,0,L|155:226,1,58.0750011076927,2|6,0:0|0:0,0:0:0:0:
449,222,262479,5,4,0:0:0:0:
406,72,262654,2,0,L|288:72,1,116.150002215385,4|10,0:0|0:0,0:0:0:0:
214,72,262915,2,0,L|340:72,1,116.150002215385,0|4,0:0|0:0,0:0:0:0:
419,72,263177,2,0,L|419:261,1,174.225003323078
321,212,263526,2,0,L|225:212,2,58.0750011076927,10|2|2,0:0|0:0|0:0,0:0:0:0:
178,212,263874,5,0,0:0:0:0:
323,300,264049,2,0,L|439:300,1,116.150002215385,4|10,0:0|0:0,0:0:0:0:
364,300,264310,2,0,L|247:300,1,116.150002215385,0|4,0:0|0:0,0:0:0:0:
156,144,264572,2,0,L|156:333,1,174.225003323078
228,353,264921,1,10,0:0:0:0:
170,352,265008,1,2,0:0:0:0:
112,352,265095,1,2,0:0:0:0:
350,178,265270,5,0,0:0:0:0:
490,177,265444,2,0,L|330:177,1,116.150002215385,4|10,0:0|0:0,0:0:0:0:
297,236,265706,2,0,L|457:236,1,116.150002215385,0|4,0:0|0:0,0:0:0:0:
234,298,265967,2,0,P|180:239|250:186,1,174.225003323078
328,180,266316,2,0,L|433:181,2,58.0750011076927,10|2|2,0:0|0:0|0:0,0:0:0:0:
167,336,266665,6,0,L|166:205,1,116.150002215385,4|4,0:0|0:0,0:0:0:0:
412,142,267014,1,10,0:0:0:0:
117,127,267188,2,0,L|52:127,1,58.0750011076927,2|0,0:1|0:0,0:0:0:0:
285,98,267363,2,0,L|344:98,1,58.0750011076927,2|0,0:1|0:0,0:0:0:0:
117,62,267537,2,0,L|52:62,1,58.0750011076927,2|0,0:1|0:0,0:0:0:0:
126,88,267712,2,0,L|416:89,1,272.700001040268,2|6,0:1|0:0,0:0:0:0:
475,128,267973,1,4,0:0:0:0:
136,177,268060,6,0,L|64:176,1,58.0750011076927,4|0,0:0|0:0,0:0:0:0:
249,111,268235,2,0,L|319:110,1,58.0750011076927,4|0,0:0|0:0,0:0:0:0:
94,126,268409,2,0,L|94:292,1,116.150002215385,10|2,0:0|0:0,0:0:0:0:
167,241,268671,1,4,0:0:0:0:
384,351,268759,2,0,L|320:350,1,58.0750011076927,2|0,0:0|0:0,0:0:0:0:
170,350,268933,2,0,L|90:350,1,58.0750011076927,2|0,0:0|0:0,0:0:0:0:
418,126,269107,2,0,L|418:292,1,116.150002215385,10|2,0:0|0:0,0:0:0:0:
345,241,269369,1,6,0:0:0:0:
116,227,269456,6,0,L|239:227,1,116.150002215385,4|4,0:0|0:0,0:0:0:0:
388,228,269805,1,10,0:0:0:0:
155,330,269979,2,0,L|73:330,1,58.0750011076927,2|4,0:0|0:0,0:0:0:0:
160,258,270154,2,0,L|61:258,1,65.6499969947816,2|0,0:0|0:0,0:0:0:0:
299,185,270328,2,0,L|397:184,1,73.2250022346497,2|0,0:0|0:0,0:0:0:0:
171,110,270502,2,0,L|23:111,1,116.150002215385,10|2,0:0|0:0,0:0:0:0:
115,109,270764,1,6,0:0:0:0:
368,160,270851,6,0,L|378:89,1,58.0750011076927,4|0,0:0|0:0,0:0:0:0:
176,104,271026,2,0,L|168:31,1,58.0750011076927,4|0,0:0|0:0,0:0:0:0:
344,208,271200,2,0,L|489:210,1,116.150002215385,10|2,0:0|0:0,0:0:0:0:
390,209,271462,1,4,0:0:0:0:
104,120,271549,2,0,L|93:49,1,58.0750011076927,2|0,0:0|0:0,0:0:0:0:
185,123,271723,2,0,L|265:118,1,58.0750011076927,2|0,0:0|0:0,0:0:0:0:
444,164,271898,2,0,L|326:157,1,116.150002215385,10|2,0:0|0:0,0:0:0:0:
254,173,272159,1,6,0:0:0:0:
463,349,272247,6,0,L|463:228,1,116.150002215385,4|4,0:0|0:0,0:0:0:0:
322,205,272595,1,10,0:0:0:0:
47,241,272770,2,0,L|117:240,1,58.0750011076927,2|4,0:0|0:0,0:0:0:0:
258,113,272944,2,0,L|170:113,1,58.0750011076927,2|0,0:0|0:0,0:0:0:0:
258,113,273119,2,0,L|170:113,1,58.0750011076927,2|0,0:0|0:0,0:0:0:0:
39,58,273293,2,0,L|127:58,1,58.0750011076927,10|0,0:0|0:0,0:0:0:0:
39,58,273468,2,0,L|127:58,1,58.0750011076927,2|6,0:0|0:0,0:0:0:0:
300,274,273642,6,0,L|300:200,1,58.0750011076927,4|0,0:0|0:0,0:0:0:0:
118,273,273816,2,0,L|118:205,1,58.0750011076927,4|0,0:0|0:0,0:0:0:0:
360,143,273991,2,0,B|420:143|420:143|334:142,1,116.150002215385,10|2,0:0|0:0,0:0:0:0:
276,143,274252,1,4,0:0:0:0:
53,197,274340,2,0,L|53:133,1,58.0750011076927,2|0,0:0|0:0,0:0:0:0:
134,119,274514,2,0,L|193:118,1,58.0750011076927,2|0,0:0|0:0,0:0:0:0:
396,186,274688,2,0,L|397:65,1,116.150002215385,10|2,0:0|0:0,0:0:0:0:
323,68,274950,1,6,0:0:0:0:
135,67,275037,6,0,L|18:69,1,116.150002215385,4|4,0:0|0:0,0:0:0:0:
157,185,275386,1,10,0:0:0:0:
396,329,275560,2,0,L|478:329,1,58.0750011076927,2|4,0:0|0:0,0:0:0:0:
391,257,275735,2,0,L|490:257,1,65.6499969947816,2|0,0:0|0:0,0:0:0:0:
252,186,275909,2,0,L|155:185,1,73.2250022346497,2|0,0:0|0:0,0:0:0:0:
376,104,276084,2,0,L|516:104,1,116.150002215385,10|2,0:0|0:0,0:0:0:0:
426,105,276345,1,6,0:0:0:0:
156,357,276433,6,0,L|160:284,1,58.0750011076927,4|0,0:0|0:0,0:0:0:0:
245,272,276607,2,0,L|250:201,1,58.0750011076927,4|0,0:0|0:0,0:0:0:0:
47,282,276781,2,0,L|33:133,1,116.150002215385,10|2,0:0|0:0,0:0:0:0:
110,161,277043,1,4,0:0:0:0:
271,158,277130,2,0,L|340:157,1,58.0750011076927,2|0,0:0|0:0,0:0:0:0:
165,84,277305,2,0,L|95:83,1,58.0750011076927,2|0,0:0|0:0,0:0:0:0:
369,356,277479,2,0,L|383:207,1,116.150002215385,10|2,0:0|0:0,0:0:0:0:
306,235,277741,1,6,0:0:0:0:
152,229,277828,6,0,L|81:230,1,58.0750011076927,4|0,0:0|0:0,0:0:0:0:
311,66,278002,2,0,L|372:66,1,58.0750011076927,4|0,0:0|0:0,0:0:0:0:
115,121,278177,1,10,0:0:0:0:
392,208,278351,2,0,L|462:208,1,58.0750011076927,2|4,0:0|0:0,0:0:0:0:
258,285,278526,2,0,L|328:285,1,58.0750011076927,2|0,0:0|0:0,0:0:0:0:
258,285,278700,2,0,L|328:285,1,58.0750011076927,2|0,0:0|0:0,0:0:0:0:
485,285,278874,2,0,L|415:285,1,58.0750011076927,10|0,0:0|0:0,0:0:0:0:
485,285,279048,2,0,L|415:285,1,58.0750011076927,2|6,0:0|0:0,0:0:0:0:
200,337,279223,6,0,L|201:184,1,116.150002215385,4|4,0:0|0:0,0:0:0:0:
443,228,279572,2,0,L|442:75,1,116.150002215385,10|2,0:0|0:0,0:0:0:0:
371,110,279834,1,4,0:0:0:0:
199,150,279921,2,0,L|356:149,1,116.150002215385
51,224,280270,2,0,L|52:71,1,116.150002215385,10|2,0:0|0:0,0:0:0:0:
123,106,280532,1,4,0:0:0:0:
311,241,280619,6,0,L|442:241,2,116.150002215385,4|4|10,0:0|0:0|0:0,0:0:0:0:
54,335,281142,2,0,L|54:243,1,58.0750011076927,2|4,0:0|0:0,0:0:0:0:
226,195,281316,2,0,L|310:195,3,58.0750011076927,2|4|2|0,0:0|0:0|0:0|0:0,0:0:0:0:
54,276,281665,2,0,L|55:123,1,116.150002215385,10|2,0:0|0:0,0:0:0:0:
126,158,281927,1,4,0:0:0:0:
343,94,282014,6,0,L|222:94,1,116.150002215385,4|4,0:0|0:0,0:0:0:0:
374,167,282363,1,10,0:0:0:0:
231,262,282537,2,0,L|231:200,1,58.0750011076927,2|4,0:0|0:0,0:0:0:0:
437,176,282712,2,0,L|316:176,1,116.150002215385
468,249,283061,1,10,0:0:0:0:
325,344,283235,2,0,L|325:282,1,58.0750011076927,2|4,0:0|0:0,0:0:0:0:
159,231,283409,6,0,L|27:231,2,116.150002215385,4|4|10,0:0|0:0|0:0,0:0:0:0:
404,233,283933,2,0,L|475:233,1,58.0750011076927,2|4,0:0|0:0,0:0:0:0:
258,145,284107,2,0,L|187:145,1,58.0750011076927,2|0,0:0|0:0,0:0:0:0:
258,145,284281,2,0,L|187:145,1,58.0750011076927,2|0,0:0|0:0,0:0:0:0:
408,90,284456,2,0,L|239:90,1,116.150002215385,10|2,0:0|0:0,0:0:0:0:
365,90,284717,1,4,0:0:0:0:
70,137,284805,6,0,L|70:284,1,116.150002215385,6|4,0:0|0:0,0:0:0:0:
209,254,285154,1,10,0:0:0:0:
355,255,285328,2,0,L|355:324,1,58.0750011076927,0|4,0:0|0:0,0:0:0:0:
275,314,285502,2,0,L|437:316,1,116.150002215385,2|0,0:0|0:0,0:0:0:0:
237,314,285851,2,0,L|75:316,1,116.150002215385,10|0,0:0|0:0,0:0:0:0:
191,314,286113,1,4,0:0:0:0:
356,228,286200,6,0,L|481:229,1,116.150002215385,6|4,0:0|0:0,0:0:0:0:
324,229,286549,1,10,0:0:0:0:
472,228,286723,2,0,L|472:165,1,58.0750011076927,0|4,0:0|0:0,0:0:0:0:
392,115,286898,2,0,L|510:115,1,116.150002215385,2|0,0:0|0:0,0:0:0:0:
360,119,287247,1,10,0:0:0:0:
216,122,287421,2,0,L|216:43,1,58.0750011076927,0|4,0:0|0:0,0:0:0:0:
442,241,287595,5,6,0:0:0:0:
441,130,287770,1,4,0:0:0:0:
282,261,287944,2,0,L|166:262,1,116.150002215385,10|0,0:0|0:0,0:0:0:0:
238,262,288206,1,4,0:0:0:0:
421,302,288293,2,0,L|422:184,1,116.150002215385,2|0,0:0|0:0,0:0:0:0:
278,193,288642,1,10,0:0:0:0:
125,191,288816,2,0,L|59:190,1,58.0750011076927,0|4,0:0|0:0,0:0:0:0:
277,333,288991,6,4,L|394:334,1,116.150002215385,6|4,0:0|0:0,0:0:0:0:
246,256,289340,1,10,0:0:0:0:
392,250,289514,2,0,L|392:187,1,58.0750011076927,0|4,0:0|0:0,0:0:0:0:
304,150,289688,2,0,L|428:149,1,116.150002215385,2|0,0:0|0:0,0:0:0:0:
138,96,290037,1,10,0:0:0:0:
304,95,290212,2,0,L|384:94,1,58.0750011076927,0|4,0:0|0:0,0:0:0:0:
136,184,290386,6,4,L|122:322,1,116.150002215385,8|4,0:0|0:0,0:0:0:0:
282,250,290735,1,8,0:0:0:0:
126,363,290909,2,0,L|111:290,1,58.0750011076927
153,274,291084,2,0,L|153:186,1,58.0750011076927
194,176,291258,2,0,L|179:103,1,58.0750011076927
79,119,291433,1,8,0:0:0:0:
376,184,291781,6,4,L|390:322,1,116.150002215385,0|0,0:0|0:0,0:0:0:0:
230,250,292130,1,8,0:0:0:0:
386,363,292304,2,0,L|401:290,1,58.0750011076927
359,274,292479,2,0,L|359:186,1,58.0750011076927
318,176,292653,2,0,L|333:103,1,58.0750011076927
433,119,292828,1,8,0:0:0:0:
136,184,293177,6,4,L|265:185,1,116.150002215385,0|0,0:0|0:0,0:0:0:0:
403,218,293526,1,8,0:0:0:0:
245,356,293700,2,0,L|219:285,1,58.0750011076927
272,267,293875,2,0,L|272:179,1,58.0750011076927
323,176,294049,2,0,L|297:105,1,58.0750011076927
186,124,294224,1,8,0:0:0:0:
376,184,294572,6,4,L|247:185,1,116.150002215385,0|0,0:0|0:0,0:0:0:0:
109,218,294921,1,8,0:0:0:0:
267,356,295095,2,0,L|293:285,1,58.0750011076927
240,267,295270,2,0,L|240:179,1,58.0750011076927
189,176,295444,2,0,L|215:105,1,58.0750011076927
326,124,295619,1,8,0:0:0:0:
150,350,295967,6,4,L|150:229,1,116.150002215385,0|0,0:0|0:0,0:0:0:0:
286,233,296316,1,8,0:0:0:0:
116,221,296491,2,0,L|106:138,1,58.0750011076927
128,221,296665,2,0,L|118:138,1,58.0750011076927
144,221,296840,2,0,L|134:138,1,58.0750011076927
49,164,297014,1,8,0:0:0:0:
362,350,297363,6,4,L|362:229,1,116.150002215385,0|0,0:0|0:0,0:0:0:0:
226,233,297712,1,8,0:0:0:0:
396,221,297887,2,0,L|406:138,1,58.0750011076927
384,221,298061,2,0,L|394:138,1,58.0750011076927
368,221,298236,2,0,L|378:138,1,58.0750011076927
463,164,298410,1,8,0:0:0:0:
206,138,298758,6,4,L|200:257,1,116.150002215385,0|0,0:0|0:0,0:0:0:0:
334,252,299107,1,8,0:0:0:0:
204,352,299281,1,0,0:0:0:0:
189,333,299369,1,0,0:0:0:0:
183,310,299456,1,0,0:0:0:0:
183,286,299543,1,0,0:0:0:0:
189,263,299630,1,0,0:0:0:0:
200,243,299717,1,0,0:0:0:0:
294,241,299805,1,8,0:0:0:0:
302,139,300154,6,4,L|308:258,1,116.150002215385,0|0,0:0|0:0,0:0:0:0:
183,252,300503,1,8,0:0:0:0:
308,352,300677,1,0,0:0:0:0:
323,333,300765,1,0,0:0:0:0:
329,310,300852,1,0,0:0:0:0:
329,286,300939,1,0,0:0:0:0:
323,263,301026,1,0,0:0:0:0:
312,243,301113,1,0,0:0:0:0:
218,241,301201,1,8,0:0:0:0:
442,137,301549,6,4,L|449:266,1,116.150002215385,0|0,0:0|0:0,0:0:0:0:
322,254,301898,1,8,0:0:0:0:
175,57,302159,2,0,L|168:186,1,116.150002215385,2|2,0:0|0:0,0:0:0:0:
295,174,302508,1,2,0:0:0:0:
299,127,302595,1,8,0:0:0:0:
70,137,302944,6,4,L|63:266,1,116.150002215385,0|0,0:0|0:0,0:0:0:0:
190,254,303293,1,8,0:0:0:0:
347,252,303467,1,2,0:0:0:0:
407,251,303555,2,2,L|414:380,1,116.150002215385,0|0,0:0|0:0,0:0:0:0:
251,356,303903,1,2,0:0:0:0:
190,354,303991,1,8,0:0:0:0:
442,137,304340,6,4,L|449:266,1,116.150002215385,0|0,0:0|0:0,0:0:0:0:
322,254,304689,1,8,0:0:0:0:
158,252,304863,1,2,0:0:0:0:
88,251,304950,2,2,L|81:380,1,116.150002215385,0|0,0:0|0:0,0:0:0:0:
261,356,305299,1,2,0:0:0:0:
332,355,305386,1,8,0:0:0:0:
70,137,305735,6,4,L|63:266,1,116.150002215385,0|0,0:0|0:0,0:0:0:0:
190,254,306084,1,8,0:0:0:0:
355,252,306258,1,2,0:0:0:0:
425,251,306345,2,2,L|432:380,1,116.150002215385,0|0,0:0|0:0,0:0:0:0:
251,356,306694,1,2,0:0:0:0:
180,355,306781,1,8,0:0:0:0:
425,260,307130,6,4,L|309:260,1,116.150002215385,0|0,0:0|0:0,0:0:0:0:
441,183,307479,1,8,0:0:0:0:
278,123,307654,2,0,L|271:198,1,58.0750011076927,2|2,0:0|0:0,0:0:0:0:
110,189,307915,2,0,L|117:264,1,58.0750011076927,2|2,0:0|0:0,0:0:0:0:
193,242,308090,1,2,0:0:0:0:
350,289,308177,1,8,0:0:0:0:
60,259,308526,6,4,L|176:259,1,116.150002215385,0|0,0:0|0:0,0:0:0:0:
44,182,308875,1,8,0:0:0:0:
207,122,309050,2,0,L|214:197,1,58.0750011076927,2|2,0:0|0:0,0:0:0:0:
375,188,309311,2,2,L|368:263,1,58.0750011076927,0|0,0:0|0:0,0:0:0:0:
292,241,309486,1,2,0:0:0:0:
126,288,309573,1,8,0:0:0:0:
356,337,309921,6,4,L|491:337,1,116.150002215385,0|0,0:0|0:0,0:0:0:0:
327,279,310270,1,8,0:0:0:0:
171,296,310444,2,2,L|166:210,1,58.0750011076927,0|0,0:0|0:0,0:0:0:0:
325,186,310706,2,2,L|328:243,1,58.0750011076927,0|0,0:0|0:0,0:0:0:0:
408,219,310881,1,2,0:0:0:0:
233,168,310967,1,8,0:0:0:0:
447,92,311316,6,4,L|322:92,1,116.150002215385,0|0,0:0|0:0,0:0:0:0:
458,92,311665,1,8,0:0:0:0:
315,100,311840,2,2,L|319:169,1,58.0750011076927,0|0,0:0|0:0,0:0:0:0:
379,176,312014,2,2,L|375:245,1,58.0750011076927,0|0,0:0|0:0,0:0:0:0:
429,266,312188,1,2,0:0:0:0:
258,268,312363,2,0,L|123:257,1,116.150002215385,8|0,0:0|0:0,0:0:0:0:
429,266,312712,5,2,3:0:0:0:
256,192,313148,12,0,313169,0:0:0:0:
256,192,313409,12,0,313430,0:0:0:0:
256,192,313671,12,0,313700,0:0:0:0:
256,192,313933,12,0,313962,0:0:0:0:
256,192,314194,12,0,314223,0:0:0:0:
256,192,314456,12,0,314485,0:0:0:0:
256,192,314717,12,0,314761,0:0:0:0:
256,192,314979,12,0,315023,0:0:0:0:
256,192,315241,12,0,315284,0:0:0:0:
256,192,315502,12,0,315546,0:0:0:0:
256,192,315764,12,0,315808,0:0:0:0:
256,192,316026,12,0,316069,0:0:0:0:
256,192,316287,12,0,316331,0:0:0:0:
256,192,316549,12,0,316592,0:0:0:0:
256,192,316810,12,0,316854,0:0:0:0:
256,192,317072,12,0,317116,0:0:0:0:
256,192,317334,12,0,317377,0:0:0:0:
256,192,317595,12,0,317639,0:0:0:0:
256,192,317857,12,0,317901,0:0:0:0:
256,192,318119,12,0,318162,0:0:0:0:
256,192,318380,12,0,318424,0:0:0:0:
256,192,318642,12,0,333642,0:0:0:0:
