osu file format v14

[General]
AudioFilename: audio.mp3
AudioLeadIn: 0
PreviewTime: 130
Countdown: 0
SampleSet: Drum
StackLeniency: 0.7
Mode: 0
LetterboxInBreaks: 0
WidescreenStoryboard: 0

[Editor]
Bookmarks: 22534,25935,35537,59607
DistanceSpacing: 2.7
BeatDivisor: 4
GridSize: 4
TimelineZoom: 1.8

[Metadata]
Title:Nu Metal (Maschine & Drums)
TitleUnicode:Nu Metal (Maschine & Drums)
Artist:Noisia
ArtistUnicode:Noisia
Creator:R3K3M
Version:Death
Source:
Tags:Nosia DnB Drumstep Dubstep
BeatmapID:1187854
BeatmapSetID:561885

[Difficulty]
HPDrainRate:4.5
CircleSize:4
OverallDifficulty:9.3
ApproachRate:9.8
SliderMultiplier:2.2
SliderTickRate:2

[Events]
//Background and Video events
0,0,"716515.jpg",0,0
//Break Periods
//Storyboard Layer 0 (Background)
//Storyboard Layer 1 (Fail)
//Storyboard Layer 2 (Pass)
//Storyboard Layer 3 (Foreground)
//Storyboard Layer 4 (Overlay)
//Storyboard Sound Samples

[TimingPoints]
22447,-100,4,3,1,90,0,0
22458,348.837209302326,4,3,1,90,1,0
27680,-100,4,3,1,90,0,0
28029,-100,4,3,1,90,0,1
32912,-200,4,3,1,90,0,0
33523,-200,4,3,1,90,0,0
33610,-200,4,3,2,90,0,0
39191,-200,4,3,1,90,0,1
41982,-100,4,3,1,90,0,1
44773,-100,4,3,2,90,0,0
50354,-100,4,3,1,90,0,1
55587,-200,4,3,1,90,0,1
55936,-100,4,3,2,90,0,0
61517,-100,4,3,1,90,0,0
62215,-200,4,3,1,90,0,0
64658,-83.3333333333333,4,3,1,90,0,0
65704,-83.3333333333333,4,3,1,90,0,1
66314,-83.3333333333333,4,3,1,90,0,0
66402,-83.3333333333333,4,3,1,90,0,1
67099,-83.3333333333333,4,3,1,90,0,0

[Colours]
Combo1 : 234,81,36
Combo2 : 192,192,192
Combo3 : 118,65,58
Combo4 : 145,47,0

[HitObjects]
339,220,22458,5,2,0:0:0:0:
92,127,22632,2,0,L|155:217,1,110
203,289,22981,1,0,0:0:0:0:
392,44,23155,1,0,0:0:0:0:
222,76,23330,1,0,0:0:0:0:
340,171,23504,2,0,B|385:217|385:217|403:261,2,110
88,89,24027,1,0,0:0:0:0:
128,250,24202,2,0,L|65:340,1,110
265,157,24551,6,0,B|340:178|340:178|281:177,2,110,0|2|0,0:0|0:0|0:0,0:0:0:0:
227,86,25162,1,2,0:0:0:0:
186,153,25249,2,0,P|286:260|315:242,1,220,2|0,0:0|0:0,0:0:0:0:
464,120,25772,1,2,0:0:0:0:
227,86,25946,1,8,0:0:0:0:
330,294,26120,1,8,0:0:0:0:
227,86,26295,1,8,0:0:0:0:
227,86,26644,5,2,0:0:0:0:
31,35,26819,1,0,0:0:0:0:
321,47,26992,5,0,0:0:0:0:
62,148,27167,1,0,0:0:0:0:
394,106,27342,5,8,0:0:0:0:
64,281,27516,1,8,0:0:0:0:
179,27,27691,2,0,B|201:18|201:18|184:102,1,110,8|0,0:0|0:0,0:0:0:0:
148,264,28039,5,2,0:0:0:0:
179,308,28127,1,0,0:0:0:0:
227,334,28214,1,0,0:0:0:0:
281,337,28301,1,0,0:0:0:0:
331,316,28388,1,2,0:0:0:0:
384,284,28476,6,0,L|340:240,1,55,0|2,0:0|0:0,0:0:0:0:
168,96,28650,2,0,L|224:112,1,55,0|8,0:0|0:0,0:0:0:0:
452,180,28824,6,0,L|362:218,1,55,0|2,0:0|0:0,0:0:0:0:
212,328,28999,2,0,L|280:320,1,55,0|2,0:0|0:0,0:0:0:0:
512,300,29173,2,0,L|460:276,1,55
216,168,29348,5,0,0:0:0:0:
165,148,29435,5,2,0:0:0:0:
146,98,29522,1,0,0:0:0:0:
170,50,29609,1,2,0:0:0:0:
222,36,29696,1,2,0:0:0:0:
267,66,29784,1,2,0:0:0:0:
267,120,29871,1,0,0:0:0:0:
249,172,29958,1,0,0:0:0:0:
203,203,30045,1,0,0:0:0:0:
232,264,30133,5,10,0:0:0:0:
198,307,30220,1,2,0:0:0:0:
143,316,30307,1,2,0:0:0:0:
87,311,30394,1,0,0:0:0:0:
43,277,30481,1,0,0:0:0:0:
27,224,30569,1,0,0:0:0:0:
28,169,30656,2,2,P|60:118|78:108,1,55
123,56,30830,5,2,0:0:0:0:
166,22,30917,1,0,0:0:0:0:
216,3,31005,1,0,0:0:0:0:
270,8,31092,1,0,0:0:0:0:
313,41,31179,1,0,0:0:0:0:
332,92,31266,1,0,0:0:0:0:
322,145,31353,1,2,0:0:0:0:
286,187,31441,1,0,0:0:0:0:
210,155,31528,5,8,0:0:0:0:
155,167,31615,1,0,0:0:0:0:
105,145,31702,1,2,0:0:0:0:
79,97,31789,1,0,0:0:0:0:
92,46,31877,1,0,0:0:0:0:
141,23,31964,1,0,0:0:0:0:
195,29,32051,1,2,0:0:0:0:
232,70,32138,1,0,0:0:0:0:
183,130,32226,5,0,0:0:0:0:
200,181,32313,1,0,0:0:0:0:
244,213,32400,1,2,0:0:0:0:
298,222,32487,1,0,0:0:0:0:
343,193,32574,1,2,0:0:0:0:
369,144,32662,1,0,0:0:0:0:
358,91,32749,1,2,0:0:0:0:
319,53,32836,1,0,0:0:0:0:
267,33,32923,2,0,B|225:31|225:31|207:36|207:36|187:29|187:29|166:33|166:33|151:31|151:31|140:30|120:37|64:60,1,192.5,12|0,0:0|0:0,0:0:0:0:
80,53,33621,5,4,0:0:0:0:
61,155,34144,5,4,0:0:0:0:
373,182,34667,5,4,0:0:0:0:
388,58,35191,5,4,0:0:0:0:
388,58,35365,1,4,0:0:0:0:
87,303,35714,2,0,L|256:281,1,165,4|4,0:0|0:0,0:0:0:0:
326,249,36324,1,0,0:0:0:0:
359,172,36412,1,4,0:0:0:0:
388,58,36935,5,4,0:0:0:0:
109,272,37458,1,4,0:0:0:0:
388,58,37981,5,4,0:0:0:0:
109,272,38156,1,4,0:0:0:0:
388,58,38504,1,12,0:0:0:0:
56,127,39202,5,2,0:0:0:0:
46,152,39289,1,0,0:0:0:0:
46,180,39377,1,0,0:0:0:0:
54,205,39464,1,0,0:0:0:0:
72,227,39551,1,0,0:0:0:0:
95,241,39638,1,0,0:0:0:0:
121,247,39726,1,2,0:0:0:0:
149,243,39813,1,0,0:0:0:0:
173,231,39900,1,8,0:0:0:0:
192,220,40249,5,2,0:0:0:0:
208,223,40336,1,0,0:0:0:0:
223,229,40423,1,0,0:0:0:0:
237,237,40510,1,0,0:0:0:0:
250,247,40598,1,0,0:0:0:0:
261,259,40685,1,0,0:0:0:0:
271,273,40772,1,2,0:0:0:0:
278,288,40859,1,0,0:0:0:0:
283,304,40946,1,0,0:0:0:0:
280,328,41295,5,8,0:0:0:0:
231,343,41383,1,0,0:0:0:0:
180,334,41470,1,0,0:0:0:0:
139,303,41557,1,0,0:0:0:0:
118,255,41644,1,2,0:0:0:0:
122,204,41731,1,0,0:0:0:0:
139,164,41819,1,2,0:0:0:0:
171,133,41906,1,0,0:0:0:0:
204,108,41993,2,0,P|238:87|206:70,2,55,2|0|0,0:0|0:0|0:0,0:0:0:0:
188,213,42342,5,2,0:0:0:0:
184,231,42429,1,0,0:0:0:0:
175,251,42516,1,2,0:0:0:0:
134,286,42603,1,0,0:0:0:0:
80,293,42691,1,2,0:0:0:0:
31,271,42778,1,0,0:0:0:0:
1,225,42865,1,2,0:0:0:0:
0,171,42952,1,0,0:0:0:0:
37,130,43039,5,10,0:0:0:0:
51,138,43127,1,0,0:0:0:0:
66,144,43214,1,2,0:0:0:0:
81,150,43301,1,0,0:0:0:0:
96,156,43388,1,2,0:0:0:0:
148,217,43476,1,0,0:0:0:0:
227,232,43563,1,2,0:0:0:0:
298,194,43650,1,0,0:0:0:0:
329,119,43737,5,10,0:0:0:0:
305,42,43824,1,0,0:0:0:0:
238,15,43912,1,2,0:0:0:0:
164,15,43999,1,0,0:0:0:0:
152,89,44086,1,10,0:0:0:0:
213,139,44173,1,0,0:0:0:0:
287,114,44260,1,2,0:0:0:0:
281,37,44348,1,0,0:0:0:0:
205,56,44435,1,10,0:0:0:0:
162,120,44522,1,0,0:0:0:0:
158,196,44609,1,10,0:0:0:0:
200,261,44696,1,0,0:0:0:0:
270,290,44784,6,0,P|310:274|251:33,1,330,4|4,0:0|0:0,0:0:0:0:
222,21,45481,5,8,0:0:0:0:
336,162,45656,1,0,0:0:0:0:
295,65,45830,1,4,0:0:0:0:
341,167,46179,5,0,0:0:0:0:
150,335,46353,1,4,0:0:0:0:
341,167,46528,5,4,0:0:0:0:
86,235,46702,1,0,0:0:0:0:
314,54,46877,5,8,0:0:0:0:
93,261,47051,1,0,0:0:0:0:
340,124,47226,5,0,0:0:0:0:
127,156,47400,1,4,0:0:0:0:
127,156,47487,1,4,0:0:0:0:
127,156,47574,2,0,B|193:142|193:142|272:149|272:149|344:123,1,220,4|0,0:0|0:0,0:0:0:0:
429,76,48098,1,4,0:0:0:0:
202,216,48272,5,8,0:0:0:0:
266,73,48621,1,4,0:0:0:0:
3,260,49144,5,0,0:0:0:0:
266,73,49319,1,4,0:0:0:0:
40,148,49492,5,0,0:0:0:0:
314,319,49667,1,4,0:0:0:0:
314,319,50016,5,0,0:0:0:0:
314,319,50190,2,0,L|397:254,1,55
442,197,50365,1,2,0:0:0:0:
409,127,50452,1,0,0:0:0:0:
356,72,50539,1,0,0:0:0:0:
287,38,50627,1,0,0:0:0:0:
211,29,50714,1,0,0:0:0:0:
136,46,50801,1,0,0:0:0:0:
75,94,50888,1,2,0:0:0:0:
36,160,50976,1,0,0:0:0:0:
51,258,51063,5,8,0:0:0:0:
97,316,51150,1,0,0:0:0:0:
172,324,51237,1,2,0:0:0:0:
229,276,51324,1,0,0:0:0:0:
235,201,51412,1,0,0:0:0:0:
185,145,51499,1,0,0:0:0:0:
108,210,51586,5,2,0:0:0:0:
154,268,51673,1,0,0:0:0:0:
229,276,51760,1,0,0:0:0:0:
286,228,51848,1,0,0:0:0:0:
292,153,51935,1,2,0:0:0:0:
242,97,52022,1,0,0:0:0:0:
128,68,52109,5,2,0:0:0:0:
83,127,52196,1,0,0:0:0:0:
95,201,52284,1,0,0:0:0:0:
156,244,52371,1,0,0:0:0:0:
230,230,52458,1,8,0:0:0:0:
289,180,52545,1,0,0:0:0:0:
364,191,52633,1,0,0:0:0:0:
396,121,52720,1,0,0:0:0:0:
335,73,52807,5,0,0:0:0:0:
266,106,52894,1,0,0:0:0:0:
190,122,52981,2,0,P|140:100|104:72,1,55,6|2,0:0|0:0,0:0:0:0:
34,28,53156,5,2,0:0:0:0:
2,96,53243,1,0,0:0:0:0:
5,172,53330,1,0,0:0:0:0:
42,239,53417,1,0,0:0:0:0:
106,281,53505,1,0,0:0:0:0:
179,307,53592,5,0,0:0:0:0:
250,326,53679,1,2,0:0:0:0:
315,289,53766,1,0,0:0:0:0:
333,216,53853,1,10,0:0:0:0:
294,152,53941,1,0,0:0:0:0:
220,136,54028,1,0,0:0:0:0:
143,189,54115,5,0,0:0:0:0:
189,247,54202,1,0,0:0:0:0:
264,255,54289,1,0,0:0:0:0:
321,207,54377,1,2,0:0:0:0:
327,132,54464,1,0,0:0:0:0:
277,76,54551,1,0,0:0:0:0:
179,92,54638,5,0,0:0:0:0:
185,165,54726,1,0,0:0:0:0:
244,213,54813,1,0,0:0:0:0:
318,204,54900,1,2,0:0:0:0:
364,144,54987,1,0,0:0:0:0:
352,70,55074,5,2,0:0:0:0:
269,26,55162,1,0,0:0:0:0:
182,43,55248,2,8,B|150:67|150:67|134:97|134:97|135:118|135:118|151:130|151:130|166:168|166:168|158:219|220:259|220:259|223:308|223:308|240:295,1,330
270,374,55946,5,4,0:0:0:0:
380,136,56121,1,0,0:0:0:0:
346,277,56295,5,0,0:0:0:0:
256,48,56470,1,4,0:0:0:0:
380,116,56644,5,0,0:0:0:0:
293,352,56819,1,0,0:0:0:0:
261,133,56993,5,4,0:0:0:0:
188,330,57167,1,0,0:0:0:0:
157,89,57342,5,0,0:0:0:0:
84,286,57516,1,4,0:0:0:0:
84,286,57691,1,4,0:0:0:0:
318,236,57865,5,0,0:0:0:0:
172,112,58039,1,8,0:0:0:0:
140,292,58214,1,0,0:0:0:0:
320,88,58388,1,0,0:0:0:0:
232,328,58563,5,4,0:0:0:0:
232,328,58650,1,4,0:0:0:0:
232,328,58737,1,4,0:0:0:0:
65,211,58912,5,0,0:0:0:0:
298,146,59086,1,0,0:0:0:0:
51,132,59260,5,4,0:0:0:0:
316,223,59435,1,8,0:0:0:0:
316,223,59609,1,0,0:0:0:0:
50,248,59784,5,4,0:0:0:0:
392,155,59958,1,0,0:0:0:0:
392,155,60133,1,0,0:0:0:0:
51,132,60307,5,4,0:0:0:0:
334,91,60481,1,0,0:0:0:0:
39,340,60656,5,0,0:0:0:0:
374,313,60830,2,0,L|284:319,7,55,8|0|0|0|0|0|0|0,0:0|0:0|0:0|0:0|0:0|0:0|0:0|0:0,0:0:0:0:
412,288,61527,5,2,0:0:0:0:
443,266,61614,1,0,0:0:0:0:
456,231,61701,1,0,0:0:0:0:
445,194,61788,1,0,0:0:0:0:
415,171,61875,1,0,0:0:0:0:
377,170,61963,1,0,0:0:0:0:
346,192,62050,1,0,0:0:0:0:
334,227,62137,1,0,0:0:0:0:
328,256,62226,6,0,P|288:266|246:269,1,82.5,8|0,0:0|0:0,0:0:0:0:
412,288,62574,1,2,0:0:0:0:
445,260,62661,1,0,0:0:0:0:
463,220,62748,1,0,0:0:0:0:
460,177,62835,1,0,0:0:0:0:
436,140,62922,1,0,0:0:0:0:
399,118,63010,1,0,0:0:0:0:
355,117,63097,1,0,0:0:0:0:
316,136,63184,1,0,0:0:0:0:
304,176,63271,6,0,B|264:186|264:186|231:227,1,82.5,8|0,0:0|0:0,0:0:0:0:
248,300,63620,1,2,0:0:0:0:
322,326,63707,1,0,0:0:0:0:
398,308,63794,1,0,0:0:0:0:
454,253,63881,1,0,0:0:0:0:
471,176,63968,1,0,0:0:0:0:
444,102,64056,1,0,0:0:0:0:
381,54,64143,1,0,0:0:0:0:
312,68,64231,1,0,0:0:0:0:
261,121,64318,6,0,B|248:142|248:142|246:159|246:159|262:154|262:154|276:157|276:157|289:155|289:155|311:155,1,82.5,8|0,0:3|0:0,0:0:0:0:
372,136,64667,5,2,0:0:0:0:
391,198,64754,1,0,0:0:0:0:
378,262,64841,1,0,0:0:0:0:
335,311,64928,1,0,0:0:0:0:
273,332,65015,1,2,0:0:0:0:
209,320,65103,1,0,0:0:0:0:
159,278,65190,1,0,0:0:0:0:
136,217,65277,1,0,0:0:0:0:
132,152,65365,2,0,B|80:58|80:58|64:134,1,131.99999597168,8|0,0:0|0:0,0:0:0:0:
44,208,65713,5,2,0:0:0:0:
51,286,65800,1,0,0:0:0:0:
29,361,65887,1,0,0:0:0:0:
100,344,65974,1,0,0:0:0:0:
172,312,66061,1,8,0:0:0:0:
249,295,66149,1,0,0:0:0:0:
328,295,66236,1,0,0:0:0:0:
406,312,66323,1,0,0:0:0:0:
477,347,66411,2,0,B|496:307|496:307|444:184,1,131.99999597168
89,67,66759,5,8,0:0:0:0:
256,192,67284,12,0,74086,0:0:0:0:
