osu file format v14

[General]
AudioFilename: audio.mp3
AudioLeadIn: 0
PreviewTime: 225257
Countdown: 0
SampleSet: Normal
StackLeniency: 0.7
Mode: 0
LetterboxInBreaks: 0
WidescreenStoryboard: 0

[Editor]
Bookmarks: 28409,56784,70971,99346,127721,156092,170280,184472,198659,205749,212843,219936,227030,234124,241218,248311,253632
DistanceSpacing: 1
BeatDivisor: 4
GridSize: 16
TimelineZoom: 1.3

[Metadata]
Title:Groundhog (Beat Juggle)
TitleUnicode:Groundhog (Beat Juggle)
Artist:Noisia
ArtistUnicode:Noisia
Creator:Arphimigon
Version:Rookie
Source:DJ Hero
Tags:the scratch perverts progressive difficulty
BeatmapID:1015267
BeatmapSetID:475154

[Difficulty]
HPDrainRate:2
CircleSize:2
OverallDifficulty:4
ApproachRate:5
SliderMultiplier:1.4
SliderTickRate:2

[Events]
//Background and Video events
0,0,"bg.png",0,0
//Break Periods
2,56980,69527
2,99099,126277
2,184468,197335
//Storyboard Layer 0 (Background)
//Storyboard Layer 1 (Fail)
//Storyboard Layer 2 (Pass)
//Storyboard Layer 3 (Foreground)
//Storyboard Sound Samples

[TimingPoints]
30,443.360673908224,4,1,3,55,1,0
28405,-133.333333333333,4,1,3,55,0,0
70967,-117.647058823529,4,1,3,55,0,0
127717,-100,4,1,3,55,0,0
198655,-76.9230769230769,4,1,3,55,0,0
241218,-66.6666666666667,4,1,3,65,0,0

[Colours]
Combo1 : 121,121,121
Combo2 : 255,128,0
Combo3 : 0,0,255
Combo4 : 255,0,255

[HitObjects]
46,298,28405,6,0,L|46:192,1,105.000004005432,4|8,0:3|0:3,0:0:0:0:
151,192,29291,2,0,L|151:298,1,105.000004005432,0|0,0:0|0:0,0:0:0:0:
256,298,30178,2,0,L|256:192,2,105.000004005432,4|8|8,0:3|0:3|0:3,0:0:0:0:
361,298,31508,1,8,0:3:0:0:
361,193,31951,6,0,L|361:87,1,105.000004005432,4|8,0:3|0:3,0:0:0:0:
256,87,32838,2,0,L|256:193,1,105.000004005432
150,193,33725,2,0,L|150:84,2,105.000004005432,4|8|8,0:3|0:3|0:3,0:0:0:0:
46,193,35054,1,8,0:3:0:0:
46,298,35498,6,0,L|152:298,1,105.000004005432,4|8,0:3|0:3,0:0:0:0:
256,298,36385,2,0,L|362:298,1,105.000004005432,0|0,0:0|0:0,0:0:0:0:
466,298,37272,2,0,L|466:192,2,105.000004005432,4|8|8,0:3|0:3|0:3,0:0:0:0:
361,298,38602,1,8,0:3:0:0:
361,193,39045,22,0,L|361:87,1,105.000004005432,4|8,0:3|0:3,0:0:0:0:
256,87,39932,2,0,L|256:193,1,105.000004005432,0|0,0:0|0:0,0:0:0:0:
150,193,40819,6,0,L|150:32,2,157.500006008148,8|8|8,0:3|0:3|0:3,0:0:0:0:
150,297,42592,6,0,L|255:297,1,105.000004005432,4|8,0:3|0:3,0:0:0:0:
360,297,43479,2,0,L|465:297,1,105.000004005432,0|0,0:0|0:0,0:0:0:0:
465,192,44366,2,0,L|360:192,2,105.000004005432,4|8|8,0:3|0:3|0:3,0:0:0:0:
465,87,45696,1,8,0:3:0:0:
360,87,46139,6,0,L|255:87,1,105.000004005432,4|8,0:3|0:3,0:0:0:0:
150,87,47026,2,0,L|45:87,1,105.000004005432,0|0,0:0|0:0,0:0:0:0:
45,192,47913,2,0,L|150:192,2,105.000004005432,4|0|8,0:3|0:0|0:3,0:0:0:0:
45,297,49243,1,0,0:0:0:0:
150,297,49686,6,0,L|255:297,1,105.000004005432,4|8,0:3|0:3,0:0:0:0:
256,192,50573,2,0,L|361:192,1,105.000004005432,0|0,0:0|0:0,0:0:0:0:
362,87,51459,2,0,L|467:87,2,105.000004005432,0|0|8,0:0|0:0|0:3,0:0:0:0:
256,87,52789,1,0,0:0:0:0:
150,87,53233,6,0,L|45:87,1,105.000004005432,4|8,0:3|0:3,0:0:0:0:
45,192,54120,2,0,L|150:192,1,105.000004005432,0|0,0:0|0:0,0:0:0:0:
150,297,55006,6,0,L|-8:297,2,157.500006008148,8|8|8,0:3|0:3|0:3,0:0:0:0:
255,297,56780,5,4,0:3:0:0:
48,312,70967,6,0,L|47:191,1,119.000002269745,0|8,0:0|0:3,0:0:0:0:
48,104,71743,1,8,0:3:0:0:
196,104,72297,1,4,0:3:0:0:
196,223,72741,2,0,L|315:223,1,119.000002269745,8|4,0:3|0:3,0:0:0:0:
315,104,73627,2,0,L|196:104,1,119.000002269745,4|4,0:3|0:3,0:0:0:0:
196,223,74514,6,0,B|196:283|196:283|18:283,1,238.00000453949,4|4,0:3|0:3,0:0:0:0:
18,164,75844,1,4,0:3:0:0:
18,43,76288,2,0,L|78:43,1,59.5000011348725,8|4,0:3|0:3,0:0:0:0:
137,43,76731,2,0,L|197:43,1,59.5000011348725,8|4,0:3|0:3,0:0:0:0:
256,43,77174,2,0,L|376:42,1,119.000002269745,8|4,0:3|0:3,0:0:0:0:
494,43,78061,6,0,L|494:162,1,119.000002269745,4|8,0:3|0:3,0:0:0:0:
494,251,78837,1,8,0:3:0:0:
345,251,79391,1,4,0:3:0:0:
345,369,79834,2,0,L|226:368,1,119.000002269745,8|4,0:3|0:3,0:0:0:0:
107,369,80721,2,0,L|107:250,1,119.000002269745,4|4,0:3|0:3,0:0:0:0:
107,131,81608,22,0,L|107:71,1,59.5000011348725,6|0,0:3|0:0,0:0:0:0:
107,12,82051,2,0,L|168:12,1,59.5000011348725,10|0,0:3|0:0,0:0:0:0:
226,13,82495,2,0,L|285:13,2,59.5000011348725,6|0|10,0:3|0:0|0:3,0:0:0:0:
245,130,83381,2,0,L|185:130,2,59.5000011348725,6|0|10,0:3|0:0|0:3,0:0:0:0:
346,192,84268,2,0,L|346:311,1,119.000002269745,6|10,0:3|0:3,0:0:0:0:
464,312,85155,6,0,L|465:191,1,119.000002269745,4|8,0:3|0:3,0:0:0:0:
464,104,85931,1,8,0:3:0:0:
316,104,86485,1,4,0:3:0:0:
316,223,86929,2,0,L|197:223,1,119.000002269745,8|4,0:3|0:3,0:0:0:0:
197,104,87815,2,0,L|316:104,1,119.000002269745,4|4,0:3|0:3,0:0:0:0:
316,223,88702,6,0,B|316:283|316:283|494:283,1,238.00000453949,4|4,0:3|0:3,0:0:0:0:
494,164,90032,1,4,0:3:0:0:
494,43,90476,2,0,L|434:43,1,59.5000011348725,8|4,0:3|0:3,0:0:0:0:
375,43,90919,2,0,L|315:43,1,59.5000011348725,8|4,0:3|0:3,0:0:0:0:
256,43,91362,2,0,L|136:42,1,119.000002269745,8|4,0:3|0:3,0:0:0:0:
18,43,92249,22,0,L|18:162,1,119.000002269745,4|8,0:3|0:3,0:0:0:0:
18,251,93025,1,8,0:3:0:0:
167,251,93579,1,4,0:3:0:0:
167,369,94022,2,0,L|286:368,1,119.000002269745,8|4,0:3|0:3,0:0:0:0:
405,369,94909,2,0,L|405:250,1,119.000002269745,4|4,0:3|0:3,0:0:0:0:
405,131,95796,6,0,L|405:71,1,59.5000011348725,6|0,0:3|0:0,0:0:0:0:
346,72,96239,2,0,L|285:72,1,59.5000011348725,10|0,0:3|0:0,0:0:0:0:
227,72,96683,2,0,L|168:72,2,59.5000011348725,6|0|10,0:3|0:0|0:3,0:0:0:0:
227,192,97569,2,0,L|287:192,2,59.5000011348725,6|0|10,0:3|0:0|0:3,0:0:0:0:
194,307,98456,1,6,0:3:0:0:
76,307,98899,1,10,0:3:0:0:
464,331,127717,6,0,L|463:191,1,140,4|8,0:3|0:3,0:0:0:0:
464,51,128604,2,0,L|322:51,1,140,4|8,0:3|0:3,0:0:0:0:
183,51,129491,2,0,L|183:190,1,140,4|8,0:3|0:3,0:0:0:0:
183,331,130378,1,4,0:3:0:0:
464,331,131264,22,0,L|463:191,1,140,4|8,0:3|0:3,0:0:0:0:
322,192,132151,2,0,L|321:52,1,140,4|8,0:3|0:3,0:0:0:0:
191,52,133038,2,0,L|191:192,2,140,4|8|4,0:3|0:3|0:3,0:0:0:0:
48,331,134811,6,0,L|49:191,1,140,4|8,0:3|0:3,0:0:0:0:
48,51,135698,2,0,L|190:51,1,140,4|8,0:3|0:3,0:0:0:0:
329,51,136585,2,0,L|329:190,1,140,4|8,0:3|0:3,0:0:0:0:
329,331,137472,1,4,0:3:0:0:
48,331,138358,5,4,0:3:0:0:
48,191,138801,1,8,0:3:0:0:
188,192,139245,1,4,0:3:0:0:
188,332,139688,1,8,0:3:0:0:
324,332,140131,1,4,0:3:0:0:
324,192,140574,1,8,0:3:0:0:
464,191,141018,1,4,0:3:0:0:
256,2,141905,22,0,L|114:2,1,140,0|8,0:0|0:3,0:0:0:0:
10,94,142792,2,0,L|10:236,1,140,0|8,0:0|0:3,0:0:0:0:
94,346,143678,2,0,L|236:346,1,140,4|8,0:3|0:3,0:0:0:0:
340,254,144565,1,4,0:3:0:0:
256,2,145452,6,0,L|398:2,1,140,4|8,0:3|0:3,0:0:0:0:
502,94,146339,2,0,L|502:236,1,140,4|8,0:3|0:3,0:0:0:0:
418,346,147225,2,0,L|276:346,2,140,4|8|4,0:3|0:3|0:3,0:0:0:0:
184,192,148999,6,0,L|184:339,1,140,4|8,0:3|0:3,0:0:0:0:
328,332,149885,2,0,L|328:192,1,140,4|8,0:3|0:3,0:0:0:0:
326,51,150772,2,0,L|186:51,1,140,4|0,0:3|0:0,0:0:0:0:
45,51,151659,1,4,0:3:0:0:
48,331,152546,37,4,0:3:0:0:
48,191,152989,1,8,0:3:0:0:
188,192,153433,1,4,0:3:0:0:
188,332,153876,1,8,0:3:0:0:
326,332,154319,1,4,0:3:0:0:
324,192,154762,1,8,0:3:0:0:
464,191,155206,1,4,0:3:0:0:
326,332,156092,6,0,L|186:332,1,140,4|8,0:3|0:3,0:0:0:0:
186,192,156979,2,0,L|327:192,1,140,4|8,0:3|0:3,0:0:0:0:
326,53,157866,2,0,L|186:53,1,140,4|8,0:3|0:3,0:0:0:0:
46,53,158753,1,4,0:3:0:0:
466,53,159639,22,0,L|466:193,1,140,4|8,0:3|0:3,0:0:0:0:
326,192,160526,2,0,L|186:192,1,140,4|8,0:3|0:3,0:0:0:0:
46,193,161413,2,0,L|46:53,2,140,4|8|4,0:3|0:3|0:3,0:0:0:0:
326,52,163186,6,0,L|186:52,1,140,4|8,0:3|0:3,0:0:0:0:
186,192,164073,2,0,L|327:192,1,140,4|8,0:3|0:3,0:0:0:0:
326,331,164960,2,0,L|186:331,1,140,4|8,0:3|0:3,0:0:0:0:
46,331,165847,1,4,0:3:0:0:
466,331,166733,6,0,L|466:191,1,140,4|8,0:3|0:3,0:0:0:0:
326,192,167620,2,0,L|186:192,1,140,4|8,0:3|0:3,0:0:0:0:
46,191,168507,2,0,L|46:331,2,140,4|8|4,0:3|0:3|0:3,0:0:0:0:
303,21,170280,22,0,L|349:21,2,46.6666666666667,4|0|0,0:3|0:0|0:0,0:0:0:0:
256,21,170723,1,8,0:3:0:0:
256,161,171167,2,0,L|400:161,1,140,4|8,0:3|0:3,0:0:0:0:
396,300,172053,2,0,L|396:346,2,46.6666666666667,4|0|0,0:3|0:0|0:0,0:0:0:0:
396,253,172497,1,8,0:3:0:0:
255,253,172940,1,4,0:3:0:0:
209,21,173827,6,0,L|162:21,2,46.6666666666667,4|0|0,0:3|0:0|0:0,0:0:0:0:
256,21,174270,1,8,0:3:0:0:
256,161,174714,2,0,L|112:161,1,140,4|8,0:3|0:3,0:0:0:0:
116,300,175600,2,0,L|116:346,2,46.6666666666667,4|0|0,0:3|0:0|0:0,0:0:0:0:
116,253,176044,1,0,0:0:0:0:
257,253,176487,1,4,0:3:0:0:
474,77,177374,6,0,L|474:26,2,46.6666666666667,4|0|0,0:3|0:0|0:0,0:0:0:0:
474,124,177817,1,8,0:3:0:0:
350,189,178260,2,0,L|350:329,1,140,4|8,0:3|0:3,0:0:0:0:
209,329,179147,2,0,L|158:329,2,46.6666666666667,4|0|0,0:3|0:0|0:0,0:0:0:0:
256,329,179590,1,8,0:3:0:0:
256,188,180034,1,4,0:3:0:0:
38,77,180921,22,0,L|38:26,2,46.6666666666667,4|0|0,0:3|0:0|0:0,0:0:0:0:
38,124,181364,1,8,0:3:0:0:
162,189,181807,2,0,L|162:329,1,140,4|8,0:3|0:3,0:0:0:0:
303,329,182694,2,0,L|354:329,2,46.6666666666667,4|0|0,0:3|0:0|0:0,0:0:0:0:
256,329,183137,1,8,0:3:0:0:
256,188,183581,1,4,0:3:0:0:
255,192,198655,6,0,L|345:192,1,90.9999958343508,4|4,0:3|0:3,0:0:0:0:
343,283,199098,2,0,L|253:283,1,90.9999958343508,4|8,0:3|0:3,0:0:0:0:
163,281,199542,2,0,L|163:191,1,90.9999958343508,4|4,0:3|0:3,0:0:0:0:
164,101,199985,2,0,L|254:101,1,90.9999958343508,4|8,0:3|0:3,0:0:0:0:
348,101,200429,1,8,0:3:0:0:
348,283,200872,5,4,0:3:0:0:
160,283,201315,1,8,0:3:0:0:
163,98,201759,2,0,L|262:99,1,90.9999958343508,8|8,0:3|0:3,0:0:0:0:
256,192,202202,38,0,L|166:192,1,90.9999958343508,4|4,0:3|0:3,0:0:0:0:
167,283,202645,2,0,L|257:283,1,90.9999958343508,4|8,0:3|0:3,0:0:0:0:
347,283,203089,1,4,0:3:0:0:
345,101,203532,2,0,L|255:101,1,90.9999958343508,4|8,0:3|0:3,0:0:0:0:
162,101,203976,1,4,0:3:0:0:
162,283,204419,5,4,0:3:0:0:
350,283,204862,1,8,0:3:0:0:
347,98,205306,1,8,0:3:0:0:
162,100,205749,22,0,L|162:10,1,90.9999958343508,4|4,0:3|0:3,0:0:0:0:
256,10,206192,2,0,L|256:103,1,90.9999958343508,4|8,0:3|0:3,0:0:0:0:
350,100,206636,2,0,L|350:10,1,90.9999958343508,4|4,0:3|0:3,0:0:0:0:
444,10,207079,2,0,L|444:101,1,90.9999958343508,4|8,0:3|0:3,0:0:0:0:
444,192,207522,5,4,0:3:0:0:
256,192,207966,2,0,L|165:192,1,90.9999958343508,4|8,0:3|0:3,0:0:0:0:
165,283,208409,1,8,0:3:0:0:
347,283,208852,1,8,0:3:0:0:
350,100,209296,6,0,L|350:10,1,90.9999958343508,4|4,0:3|0:3,0:0:0:0:
256,10,209739,2,0,L|256:103,1,90.9999958343508,4|8,0:3|0:3,0:0:0:0:
162,101,210182,1,4,0:3:0:0:
162,283,210626,2,0,L|162:374,1,90.9999958343508,4|8,0:3|0:3,0:0:0:0:
256,374,211069,37,4,0:3:0:0:
256,192,211513,2,0,L|361:192,1,90.9999958343508,4|8,0:3|0:3,0:0:0:0:
444,192,211956,1,8,0:3:0:0:
444,10,212399,1,8,0:3:0:0:
256,10,212843,38,0,L|256:192,1,181.999991668702,4|4,0:3|0:3,0:0:0:0:
256,374,213729,2,0,L|256:192,1,181.999991668702,4|4,0:3|0:3,0:0:0:0:
438,192,214616,1,4,0:3:0:0:
256,192,215059,1,4,0:3:0:0:
74,192,215503,1,4,0:3:0:0:
256,192,215946,1,4,0:3:0:0:
127,63,216390,6,0,L|256:192,1,181.999991668702,4|4,0:3|0:3,0:0:0:0:
384,320,217276,2,0,L|256:192,1,181.999991668702,4|4,0:3|0:3,0:0:0:0:
384,63,218163,1,4,0:3:0:0:
256,192,218606,1,4,0:3:0:0:
127,320,219050,1,4,0:3:0:0:
256,192,219493,1,4,0:3:0:0:
256,10,219936,5,4,0:3:0:0:
437,10,220379,1,4,0:3:0:0:
438,192,220823,1,4,0:3:0:0:
438,373,221266,1,4,0:3:0:0:
256,374,221710,1,4,0:3:0:0:
75,374,222153,1,4,0:3:0:0:
74,192,222597,1,4,0:3:0:0:
74,11,223040,1,4,0:3:0:0:
256,10,223483,38,0,L|256:192,1,181.999991668702,8|0,0:3|0:0,0:0:0:0:
256,374,224370,2,0,L|256:192,1,181.999991668702,0|0,0:0|0:0,0:0:0:0:
74,192,225257,38,0,L|448:192,1,363.999983337403,8|0,0:3|0:0,0:0:0:0:
256,10,227030,21,4,0:3:0:0:
256,192,227474,2,0,L|256:291,1,90.9999958343508,2|0,0:3|0:0,0:0:0:0:
256,374,227917,2,0,L|117:374,2,136.499993751526,8|8|8,0:3|0:3|0:3,0:0:0:0:
348,374,228804,37,4,0:3:0:0:
348,192,229247,2,0,L|348:101,1,90.9999958343508,2|0,0:3|0:0,0:0:0:0:
348,9,229690,2,0,L|481:9,1,90.9999958343508,8|8,0:3|0:3,0:0:0:0:
437,101,230134,1,8,0:3:0:0:
256,10,230577,5,4,0:3:0:0:
256,192,231021,2,0,L|256:291,1,90.9999958343508,2|0,0:3|0:0,0:0:0:0:
256,374,231464,2,0,L|395:374,2,136.499993751526,8|8|8,0:3|0:3|0:3,0:0:0:0:
164,374,232351,21,4,0:3:0:0:
164,192,232794,2,0,L|164:101,1,90.9999958343508,2|0,0:3|0:0,0:0:0:0:
164,9,233237,2,0,L|31:9,1,90.9999958343508,8|8,0:3|0:3,0:0:0:0:
75,101,233681,1,8,0:3:0:0:
256,10,234124,5,4,0:3:0:0:
438,10,234568,2,0,L|438:109,1,90.9999958343508,2|0,0:3|0:0,0:0:0:0:
438,192,235011,2,0,L|438:331,2,136.499993751526,8|8|8,0:3|0:3|0:3,0:0:0:0:
346,192,235898,5,4,0:3:0:0:
165,192,236341,2,0,L|165:290,1,90.9999958343508,2|0,0:3|0:0,0:0:0:0:
73,283,236784,2,0,L|73:192,1,90.9999958343508,8|8,0:3|0:3,0:0:0:0:
117,111,237228,1,8,0:3:0:0:
256,10,237671,21,4,0:3:0:0:
256,192,238115,2,0,L|256:283,1,90.9999958343508,2|0,0:3|0:0,0:0:0:0:
164,283,238558,2,0,L|25:283,2,136.499993751526,8|8|8,0:3|0:3|0:3,0:0:0:0:
166,192,239445,5,4,0:3:0:0:
346,192,239888,1,2,0:3:0:0:
346,373,240331,1,4,0:3:0:0:
166,373,240774,1,2,0:3:0:0:
166,192,241218,5,4,0:3:0:0:
256,16,241661,1,8,0:3:0:0:
346,192,242104,2,0,L|454:192,2,105.000004005432,4|4|8,0:3|0:3|0:3,0:0:0:0:
256,368,242991,21,4,0:3:0:0:
166,192,243434,1,8,0:3:0:0:
256,16,243877,2,0,L|256:121,2,105.000004005432,4|4|8,0:3|0:3|0:3,0:0:0:0:
346,192,244765,5,4,0:3:0:0:
256,368,245208,1,8,0:3:0:0:
166,192,245651,2,0,L|58:192,2,105.000004005432,4|4|8,0:3|0:3|0:3,0:0:0:0:
256,16,246538,5,4,0:3:0:0:
346,192,246981,1,8,0:3:0:0:
256,368,247424,2,0,L|256:263,2,105.000004005432,4|4|8,0:3|0:3|0:3,0:0:0:0:
48,368,248311,21,4,0:3:0:0:
148,199,248755,1,8,0:3:0:0:
256,16,249198,1,4,0:3:0:0:
464,368,250085,5,4,0:3:0:0:
364,199,250529,1,8,0:3:0:0:
256,16,250972,1,4,0:3:0:0:
45,382,251858,5,4,0:3:0:0:
148,199,252302,1,8,0:3:0:0:
256,378,252745,1,4,0:3:0:0:
364,199,253188,1,8,0:3:0:0:
467,382,253632,22,0,L|467:274,1,105.000004005432,4|8,0:3|0:3,0:0:0:0:
467,171,254075,2,0,L|467:63,1,105.000004005432,4|8,0:3|0:3,0:0:0:0:
361,66,254519,2,0,L|256:66,1,105.000004005432,4|8,0:3|0:3,0:0:0:0:
150,66,254962,2,0,L|150:171,1,105.000004005432,8|4,0:3|0:3,0:0:0:0:
256,192,255405,37,2,0:3:0:0:
