osu file format v14

[General]
AudioFilename: audio.mp3
AudioLeadIn: 0
PreviewTime: 225257
Countdown: 0
SampleSet: Normal
StackLeniency: 0.5
Mode: 0
LetterboxInBreaks: 0
WidescreenStoryboard: 0

[Editor]
Bookmarks: 28409,56784,70971,99346,127721,141905,156092,170280,184472,198659,205749,212843,219936,227030,234124,241218,248311,253632
DistanceSpacing: 1
BeatDivisor: 8
GridSize: 8
TimelineZoom: 3.999998

[Metadata]
Title:Groundhog (Beat Juggle)
TitleUnicode:Groundhog (Beat Juggle)
Artist:Noisia
ArtistUnicode:Noisia
Creator:Arphimigon
Version:Rhythm Master
Source:DJ Hero
Tags:the scratch perverts progressive difficulty
BeatmapID:1015266
BeatmapSetID:475154

[Difficulty]
HPDrainRate:5
CircleSize:3.5
OverallDifficulty:9
ApproachRate:9
SliderMultiplier:3
SliderTickRate:4

[Events]
//Background and Video events
0,0,"bg.png",0,0
//Break Periods
2,56980,66745
2,99763,111756
2,184668,197093
//Storyboard Layer 0 (Background)
//Storyboard Layer 1 (Fail)
//Storyboard Layer 2 (Pass)
//Storyboard Layer 3 (Foreground)
//Storyboard Sound Samples

[TimingPoints]
30,443.360673908224,4,1,3,55,1,0
28405,-133.333333333333,4,1,3,55,0,0
31508,-153.846153846154,4,1,3,55,0,0
31841,-153.846153846154,4,1,3,25,0,0
31951,-133.333333333333,4,1,3,55,0,0
35055,-153.846153846154,4,1,3,55,0,0
35388,-153.846153846154,4,1,3,25,0,0
35498,-133.333333333333,4,1,3,55,0,0
38602,-153.846153846154,4,1,3,55,0,0
38934,-153.846153846154,4,1,3,25,0,0
39045,-133.333333333333,4,1,3,55,0,0
42149,-153.846153846154,4,1,3,55,0,0
42481,-153.846153846154,4,1,3,25,0,0
42592,-133.333333333333,4,1,3,55,0,0
45696,-153.846153846154,4,1,3,55,0,0
46028,-153.846153846154,4,1,3,25,0,0
46139,-133.333333333333,4,1,3,55,0,0
49243,-153.846153846154,4,1,3,55,0,0
49575,-153.846153846154,4,1,3,25,0,0
49686,-133.333333333333,4,1,3,55,0,0
52789,-153.846153846154,4,1,3,55,0,0
53122,-153.846153846154,4,1,3,25,0,0
53233,-133.333333333333,4,1,3,55,0,0
56336,-153.846153846154,4,1,3,55,0,0
56669,-153.846153846154,4,1,3,25,0,0
56780,-270.27027027027,4,1,3,30,0,0
70971,-117.647058823529,4,1,3,55,0,0
99564,-117.647058823529,4,1,3,25,0,0
113530,-250,4,1,3,45,0,0
127717,-66.6666666666667,4,1,3,55,0,0
128161,-100,4,1,3,55,0,0
128604,-66.6666666666667,4,1,3,55,0,0
129044,-100,4,1,3,55,0,0
129491,-66.6666666666667,4,1,3,55,0,0
129931,-100,4,1,3,55,0,0
130378,-133.333333333333,4,1,3,55,0,0
131264,-66.6666666666667,4,1,3,55,0,0
131704,-100,4,1,3,55,0,0
132151,-66.6666666666667,4,1,3,55,0,0
132591,-100,4,1,3,55,0,0
133038,-66.6666666666667,4,1,3,55,0,0
133478,-100,4,1,3,55,0,0
133924,-133.333333333333,4,1,3,55,0,0
134368,-133.333333333333,4,1,3,25,0,0
134811,-66.6666666666667,4,1,3,55,0,0
135255,-100,4,1,3,55,0,0
135698,-66.6666666666667,4,1,3,55,0,0
136138,-100,4,1,3,55,0,0
136585,-66.6666666666667,4,1,3,55,0,0
137025,-100,4,1,3,55,0,0
137471,-133.333333333333,4,1,3,55,0,0
138358,-100,4,1,3,55,0,0
138469,-100,4,1,3,25,0,0
138580,-100,4,1,3,55,0,0
138801,-90.9090909090909,4,1,3,55,0,0
138912,-100,4,1,3,25,0,0
139023,-100,4,1,3,55,0,0
139245,-83.3333333333333,4,1,3,55,0,0
139356,-100,4,1,3,25,0,0
139467,-100,4,1,3,55,0,0
139688,-76.9230769230769,4,1,3,55,0,0
139799,-100,4,1,3,25,0,0
139910,-100,4,1,3,55,0,0
140131,-71.4285714285714,4,1,3,55,0,0
140242,-100,4,1,3,25,0,0
140353,-100,4,1,3,55,0,0
140575,-66.6666666666667,4,1,3,55,0,0
140686,-100,4,1,3,25,0,0
140797,-100,4,1,3,55,0,0
141018,-62.5,4,1,3,55,0,0
141129,-62.5,4,1,3,25,0,0
141240,-93.4579439252336,4,1,3,55,0,0
141905,-66.6666666666667,4,1,3,55,0,0
142348,-100,4,1,3,55,0,0
142792,-66.6666666666667,4,1,3,55,0,0
143232,-100,4,1,3,55,0,0
143678,-66.6666666666667,4,1,3,55,0,0
144122,-100,4,1,3,55,0,0
144565,-133.333333333333,4,1,3,55,0,0
145452,-66.6666666666667,4,1,3,55,0,0
145895,-100,4,1,3,55,0,0
146339,-66.6666666666667,4,1,3,55,0,0
146782,-100,4,1,3,55,0,0
147225,-66.6666666666667,4,1,3,55,0,0
147666,-100,4,1,3,55,0,0
148112,-133.333333333333,4,1,3,55,0,0
148555,-133.333333333333,4,1,3,25,0,0
148999,-66.6666666666667,4,1,3,55,0,0
149442,-100,4,1,3,55,0,0
149885,-66.6666666666667,4,1,3,55,0,0
150329,-100,4,1,3,55,0,0
150772,-66.6666666666667,4,1,3,55,0,0
151215,-100,4,1,3,55,0,0
151659,-133.333333333333,4,1,3,55,0,0
152546,-100,4,1,3,55,0,0
152656,-100,4,1,3,25,0,0
152767,-100,4,1,3,55,0,0
152989,-90.9090909090909,4,1,3,55,0,0
153100,-100,4,1,3,25,0,0
153211,-100,4,1,3,55,0,0
153432,-83.3333333333333,4,1,3,55,0,0
153543,-100,4,1,3,25,0,0
153654,-100,4,1,3,55,0,0
153876,-76.9230769230769,4,1,3,55,0,0
153986,-100,4,1,3,25,0,0
154097,-100,4,1,3,55,0,0
154319,-71.4285714285714,4,1,3,55,0,0
154430,-100,4,1,3,25,0,0
154541,-100,4,1,3,55,0,0
154762,-66.6666666666667,4,1,3,55,0,0
154873,-100,4,1,3,25,0,0
154984,-100,4,1,3,55,0,0
155206,-62.5,4,1,3,55,0,0
155317,-100,4,1,3,25,0,0
155428,-100,4,1,3,55,0,0
155649,-58.8235294117647,4,1,3,55,0,0
156092,-100,3,1,3,55,0,0
158753,-133.333333333333,3,1,3,55,0,0
159639,-100,3,1,3,55,0,0
165846,-133.333333333333,3,1,3,55,0,0
166733,-100,3,1,3,55,0,0
173236,-133.333333333333,3,1,3,55,0,0
173827,-100,4,1,3,55,0,0
176783,-133.333333333333,4,1,3,55,0,0
177374,-100,4,1,3,55,0,0
180329,-133.333333333333,4,1,3,55,0,0
180921,-100,4,1,3,55,0,0
183581,-133.333333333333,4,1,3,30,0,0
184024,-200,4,1,3,20,0,0
184468,-250,4,1,3,30,0,0
198655,-76.9230769230769,4,1,3,55,0,0
212787,-76.9230769230769,4,1,3,25,0,0
212843,-76.9230769230769,4,1,3,55,0,0
215724,-66.6666666666667,4,1,3,55,0,0
215946,-58.8235294117647,4,1,3,55,0,0
216168,-52.6315789473684,4,1,3,55,0,0
216390,-76.9230769230769,4,1,3,55,0,0
219161,-76.9230769230769,4,1,3,25,0,0
219271,-66.6666666666667,4,1,3,55,0,0
219382,-66.6666666666667,4,1,3,25,0,0
219493,-58.8235294117647,4,1,3,55,0,0
219604,-58.8235294117647,4,1,3,25,0,0
219715,-52.6315789473684,4,1,3,55,0,0
219826,-52.6315789473684,4,1,3,25,0,0
219936,-66.6666666666667,4,1,3,55,0,0
220047,-66.6666666666667,4,1,3,25,0,0
220158,-66.6666666666667,4,1,3,55,0,0
220269,-66.6666666666667,4,1,3,25,0,0
220380,-66.6666666666667,4,1,3,55,0,0
220491,-66.6666666666667,4,1,3,25,0,0
220602,-66.6666666666667,4,1,3,55,0,0
220712,-66.6666666666667,4,1,3,25,0,0
220823,-62.5,4,1,3,55,0,0
220934,-62.5,4,1,3,25,0,0
221045,-62.5,4,1,3,55,0,0
221156,-62.5,4,1,3,25,0,0
221266,-62.5,4,1,3,55,0,0
221377,-62.5,4,1,3,25,0,0
221488,-62.5,4,1,3,55,0,0
221599,-62.5,4,1,3,25,0,0
221710,-58.8235294117647,4,1,3,55,0,0
221821,-58.8235294117647,4,1,3,25,0,0
221932,-58.8235294117647,4,1,3,55,0,0
222043,-58.8235294117647,4,1,3,25,0,0
222153,-58.8235294117647,4,1,3,55,0,0
222264,-58.8235294117647,4,1,3,25,0,0
222375,-58.8235294117647,4,1,3,55,0,0
222486,-58.8235294117647,4,1,3,25,0,0
222597,-55.5555555555556,4,1,3,55,0,0
222707,-55.5555555555556,4,1,3,25,0,0
222818,-55.5555555555556,4,1,3,55,0,0
222928,-55.5555555555556,4,1,3,25,0,0
223040,-55.5555555555556,4,1,3,55,0,0
223150,-55.5555555555556,4,1,3,25,0,0
223262,-55.5555555555556,4,1,3,55,0,0
223372,-55.5555555555556,4,1,3,25,0,0
225257,-100,4,1,3,55,0,0
226808,-100,4,1,3,25,0,0
227030,-71.4285714285714,4,1,3,55,0,0
239888,-66.6666666666667,4,1,3,55,0,0
240331,-62.5,4,1,3,55,0,0
240774,-58.8235294117647,4,1,3,55,0,0
241218,-66.6666666666667,4,1,3,65,0,0
249309,-66.6666666666667,4,1,3,25,0,0
249364,-66.6666666666667,4,1,3,65,0,0
249448,-66.6666666666667,4,1,3,25,0,0
249503,-66.6666666666667,4,1,3,65,0,0
249586,-66.6666666666667,4,1,3,25,0,0
249642,-66.6666666666667,4,1,3,65,0,0
250972,-64.5161290322581,4,1,3,65,0,0
251027,-64.5161290322581,4,1,3,25,0,0
251082,-64.5161290322581,4,1,3,65,0,0
251138,-64.5161290322581,4,1,3,25,0,0
251193,-64.5161290322581,4,1,3,65,0,0
251249,-64.5161290322581,4,1,3,25,0,0
251304,-64.5161290322581,4,1,3,65,0,0
251360,-64.5161290322581,4,1,3,25,0,0
251415,-66.6666666666667,4,1,3,65,0,0
255405,-33.3333333333333,4,1,3,65,0,0
255516,-33.3333333333333,4,1,3,5,0,0

[Colours]
Combo1 : 121,121,121
Combo2 : 255,128,0
Combo3 : 0,0,255
Combo4 : 255,0,255

[HitObjects]
147,79,28405,5,4,0:3:0:0:
90,239,28626,2,0,L|90:312,1,56.2500021457673,8|0,0:3|0:0,0:0:0:0:
176,200,28848,2,0,L|176:273,2,56.2500021457673,8|0|4,0:3|0:0|0:3,0:0:0:0:
256,369,29291,2,0,L|256:296,1,56.2500021457673
256,209,29513,2,0,L|376:208,1,112.500004291535,8|0,0:3|0:0,0:0:0:0:
368,320,29846,2,0,L|368:207,1,112.500004291535,4|0,0:3|0:0,0:0:0:0:
429,134,30178,5,4,0:3:0:0:
306,41,30400,2,0,L|242:41,1,56.2500021457673,8|0,0:3|0:0,0:0:0:0:
271,124,30621,2,0,L|207:124,2,56.2500021457673,8|0|4,0:3|0:0|0:3,0:0:0:0:
131,254,31065,1,8,0:3:0:0:
131,254,31176,1,0,0:0:0:0:
131,254,31286,2,0,L|131:334,1,56.2500021457673,4|0,0:3|0:0,0:0:0:0:
33,258,31508,6,0,L|33:87,1,146.249993305207,8|0,0:3|0:0,0:0:0:0:
96,23,31951,21,4,0:3:0:0:
199,103,32173,2,0,L|261:103,1,56.2500021457673,8|0,0:3|0:0,0:0:0:0:
289,21,32395,2,0,L|351:21,1,56.2500021457673,8|0,0:3|0:0,0:0:0:0:
328,160,32617,2,0,L|390:160,1,56.2500021457673,4|0,0:3|0:0,0:0:0:0:
415,83,32838,2,0,L|477:83,1,56.2500021457673
494,183,33060,2,0,L|494:303,1,112.500004291535,8|0,0:3|0:0,0:0:0:0:
396,358,33392,2,0,L|396:246,1,112.500004291535,4|0,0:3|0:0,0:0:0:0:
304,215,33725,5,4,0:3:0:0:
164,27,33947,2,0,L|164:90,1,56.2500021457673
249,54,34168,2,0,L|249:110,2,56.2500021457673,8|0|4,0:3|0:0|0:3,0:0:0:0:
252,200,34612,1,8,0:3:0:0:
252,200,34722,1,0,0:0:0:0:
252,200,34833,2,0,L|251:256,1,56.2500021457673,4|0,0:3|0:0,0:0:0:0:
333,321,35055,6,0,L|333:174,1,146.249993305207,8|0,0:3|0:0,0:0:0:0:
367,63,35498,21,4,0:3:0:0:
419,214,35720,2,0,L|419:287,1,56.2500021457673,8|0,0:3|0:0,0:0:0:0:
333,175,35942,2,0,L|333:248,2,56.2500021457673,8|0|4,0:3|0:0|0:3,0:0:0:0:
256,359,36385,2,0,L|256:286,1,56.2500021457673
256,208,36607,2,0,L|136:208,1,112.500004291535,8|0,0:3|0:0,0:0:0:0:
143,320,36939,2,0,L|143:207,1,112.500004291535,4|0,0:3|0:0,0:0:0:0:
83,134,37271,5,4,0:3:0:0:
206,41,37493,2,0,L|270:41,1,56.2500021457673,8|0,0:3|0:0,0:0:0:0:
262,145,37715,2,0,L|326:145,1,56.2500021457673,8|0,0:3|0:0,0:0:0:0:
381,254,37937,1,8,0:3:0:0:
381,254,38047,1,0,0:0:0:0:
381,254,38159,1,8,0:3:0:0:
381,254,38269,1,0,0:0:0:0:
381,254,38380,2,0,L|381:334,1,56.2500021457673,4|0,0:3|0:0,0:0:0:0:
479,259,38602,6,0,L|479:85,1,146.249993305207,8|0,0:3|0:0,0:0:0:0:
416,23,39044,21,4,0:3:0:0:
313,103,39267,2,0,L|251:103,1,56.2500021457673,8|0,0:3|0:0,0:0:0:0:
223,21,39488,2,0,L|161:21,2,56.2500021457673,8|0|4,0:3|0:0|0:3,0:0:0:0:
126,134,39932,2,0,L|64:134,1,56.2500021457673
24,216,40154,2,0,L|160:216,1,112.500004291535,8|0,0:3|0:0,0:0:0:0:
167,304,40486,2,0,L|303:304,1,112.500004291535,4|0,0:3|0:0,0:0:0:0:
355,247,40819,6,0,L|355:134,1,112.500004291535,8|0,0:3|0:0,0:0:0:0:
256,79,41151,2,0,L|256:192,1,112.500004291535,4|0,0:3|0:0,0:0:0:0:
157,249,41484,2,0,L|157:137,1,112.500004291535,8|0,0:3|0:0,0:0:0:0:
256,192,41816,2,0,L|256:304,1,112.500004291535,4|0,0:3|0:0,0:0:0:0:
124,355,42149,6,0,L|124:192,1,146.249993305207,8|0,0:3|0:0,0:0:0:0:
122,95,42592,21,4,0:3:0:0:
242,150,42814,2,0,L|302:150,1,56.2500021457673,8|0,0:3|0:0,0:0:0:0:
301,57,43035,2,0,L|361:57,2,56.2500021457673,8|0|4,0:3|0:0|0:3,0:0:0:0:
141,58,43479,2,0,L|81:58,1,56.2500021457673
42,149,43701,2,0,L|154:149,1,112.500004291535,8|0,0:3|0:0,0:0:0:0:
210,253,44033,2,0,L|98:253,1,112.500004291535,4|0,0:3|0:0,0:0:0:0:
155,149,44366,5,4,0:3:0:0:
334,150,44587,2,0,L|395:150,1,56.2500021457673,8|0,0:3|0:0,0:0:0:0:
348,247,44809,2,0,L|287:247,2,56.2500021457673,8|0|4,0:3|0:0|0:3,0:0:0:0:
155,345,45252,1,8,0:3:0:0:
155,345,45363,1,0,0:0:0:0:
155,345,45474,2,0,L|155:274,1,56.2500021457673,4|0,0:3|0:0,0:0:0:0:
240,340,45696,6,0,L|240:170,1,146.249993305207,8|0,0:3|0:0,0:0:0:0:
240,87,46139,21,4,0:3:0:0:
109,118,46361,2,0,L|51:118,1,56.2500021457673,0|0,0:0|0:0,0:0:0:0:
110,25,46582,2,0,L|168:25,1,56.2500021457673,8|0,0:3|0:0,0:0:0:0:
296,87,46804,2,0,L|240:87,1,56.2500021457673,4|0,0:3|0:0,0:0:0:0:
139,195,47026,2,0,L|197:195,1,56.2500021457673
312,192,47247,2,0,L|312:304,1,112.500004291535,8|0,0:3|0:0,0:0:0:0:
199,304,47580,2,0,L|311:304,1,112.500004291535,4|0,0:3|0:0,0:0:0:0:
400,192,47912,5,4,0:3:0:0:
256,86,48134,2,0,L|256:28,1,56.2500021457673,0|0,0:0|0:0,0:0:0:0:
162,110,48356,2,0,L|162:168,2,56.2500021457673,0|0|0,0:0|0:0|0:0,0:0:0:0:
162,284,48799,1,8,0:3:0:0:
162,284,48910,1,0,0:0:0:0:
162,284,49021,2,0,L|225:284,1,56.2500021457673,0|0,0:0|0:0,0:0:0:0:
242,192,49243,6,0,L|387:192,1,146.249993305207,0|0,0:0|0:0,0:0:0:0:
390,95,49686,21,4,0:3:0:0:
270,150,49908,2,0,L|210:150,1,56.2500021457673,0|0,0:0|0:0,0:0:0:0:
211,57,50129,2,0,L|151:57,2,56.2500021457673,8|0|4,0:3|0:0|0:3,0:0:0:0:
371,58,50573,2,0,L|431:58,1,56.2500021457673
480,160,50794,2,0,L|480:272,1,112.500004291535,8|0,0:3|0:0,0:0:0:0:
392,344,51127,2,0,L|392:232,1,112.500004291535,4|0,0:3|0:0,0:0:0:0:
341,151,51460,5,0,0:0:0:0:
233,258,51681,2,0,L|172:258,1,56.2500021457673
176,346,51903,2,0,L|237:346,1,56.2500021457673
411,347,52124,1,8,0:3:0:0:
411,347,52235,1,0,0:0:0:0:
411,347,52346,1,8,0:3:0:0:
411,347,52457,1,0,0:0:0:0:
411,347,52568,2,0,L|411:276,1,56.2500021457673
316,347,52790,6,0,L|316:177,1,146.249993305207
272,87,53233,21,4,0:3:0:0:
408,152,53455,2,0,L|466:152,1,56.2500021457673
416,56,53676,2,0,L|358:56,2,56.2500021457673,8|0|4,0:3|0:0|0:3,0:0:0:0:
256,192,54120,2,0,L|312:192,1,56.2500021457673
368,304,54341,2,0,L|256:304,1,112.500004291535,8|0,0:3|0:0,0:0:0:0:
256,192,54674,2,0,L|256:304,1,112.500004291535,4|0,0:3|0:0,0:0:0:0:
144,192,55006,6,0,L|256:192,1,112.500004291535,8|0,0:3|0:0,0:0:0:0:
256,80,55339,2,0,L|256:192,1,112.500004291535,4|0,0:3|0:0,0:0:0:0:
368,192,55671,2,0,L|256:192,1,112.500004291535,8|0,0:3|0:0,0:0:0:0:
256,304,56004,2,0,L|256:192,1,112.500004291535,4|0,0:3|0:0,0:0:0:0:
142,80,56336,6,0,L|142:234,1,146.249993305207,8|0,0:3|0:0,0:0:0:0:
144,352,56780,5,0,0:0:0:0:
256,48,67420,53,0,0:0:0:0:
256,336,68307,1,0,0:0:0:0:
112,192,69194,1,0,0:0:0:0:
400,192,69637,1,0,0:0:0:0:
112,192,70080,1,0,0:0:0:0:
376,40,70524,1,0,0:0:0:0:
136,40,70746,1,0,0:0:0:0:
256,192,70967,5,0,0:0:0:0:
72,191,71189,2,0,L|16:191,3,42.5000008106232,0|0|0|8,0:0|0:0|0:0|0:3,0:0:0:0:
256,192,71632,1,0,0:0:0:0:
363,127,71743,2,0,L|512:127,2,127.50000243187,8|8|0,0:3|0:3|0:0,0:0:0:0:
363,257,72297,2,0,L|490:257,1,127.50000243187,4|0,0:3|0:0,0:0:0:0:
256,59,72741,5,8,0:3:0:0:
256,325,72962,1,0,0:0:0:0:
256,260,73073,1,0,0:0:0:0:
256,194,73184,2,0,L|256:128,2,63.7500012159348,4|0|0,0:3|0:0|0:0,0:0:0:0:
131,337,73627,1,8,0:3:0:0:
131,271,73738,2,0,L|131:205,2,63.7500012159348,4|0|0,0:3|0:0|0:0,0:0:0:0:
131,337,74071,1,4,0:3:0:0:
381,337,74292,1,0,0:0:0:0:
255,117,74514,37,4,0:3:0:0:
131,337,74736,2,0,B|193:349|193:349|256:338|256:338|319:349|319:349|381:337,1,255.000004863739,8|0,0:3|0:0,0:0:0:0:
464,58,75401,5,4,0:3:0:0:
463,313,75622,1,4,0:3:0:0:
463,249,75733,1,0,0:0:0:0:
463,185,75844,2,0,L|464:55,1,127.50000243187,4|0,0:3|0:0,0:0:0:0:
256,22,76288,38,0,L|212:22,2,42.5000008106232,8|0|0,0:3|0:0|0:0,0:0:0:0:
187,45,76509,2,0,L|143:45,2,42.5000008106232,4|0|0,0:3|0:0|0:0,0:0:0:0:
120,15,76731,2,0,L|38:15,2,63.7500012159348,8|0|4,0:3|0:0|0:3,0:0:0:0:
192,192,77174,2,0,L|255:192,2,63.7500012159348,8|0|8,0:3|0:0|0:3,0:0:0:0:
56,369,77618,2,0,L|184:369,1,127.50000243187,4|8,0:3|0:3,0:0:0:0:
411,350,78061,5,4,0:3:0:0:
482,192,78283,2,0,L|439:192,3,42.5000008106232,0|0|0|8,0:0|0:0|0:0|0:3,0:0:0:0:
324,70,78726,1,0,0:0:0:0:
200,145,78837,2,0,L|200:15,2,127.50000243187,8|8|0,0:3|0:3|0:0,0:0:0:0:
75,145,79391,2,0,L|75:17,1,127.50000243187,4|0,0:3|0:0,0:0:0:0:
27,314,79834,5,8,0:3:0:0:
296,314,80056,1,0,0:0:0:0:
359,314,80167,1,0,0:0:0:0:
422,314,80278,2,0,L|494:314,2,63.7500012159348,4|0|0,0:3|0:0|0:0,0:0:0:0:
256,192,80721,1,0,0:0:0:0:
193,192,80832,2,0,L|121:192,2,63.7500012159348,4|0|0,0:3|0:0|0:0,0:0:0:0:
256,192,81165,1,0,0:0:0:0:
256,16,81386,1,6,0:3:0:0:
76,110,81608,21,0,0:0:0:0:
76,110,81830,1,0,0:0:0:0:
144,343,82051,1,10,0:3:0:0:
144,343,82273,1,0,0:0:0:0:
256,185,82495,1,6,0:3:0:0:
256,185,82716,1,0,0:0:0:0:
368,343,82938,1,10,0:3:0:0:
368,343,83160,1,0,0:0:0:0:
436,110,83381,5,6,0:3:0:0:
436,110,83603,1,0,0:0:0:0:
256,308,83825,1,10,0:3:0:0:
256,124,84046,2,0,L|256:53,1,63.7500012159348,0|0,0:0|0:0,0:0:0:0:
155,23,84268,6,0,L|155:191,1,127.50000243187,6|0,0:3|0:0,0:0:0:0:
357,23,84711,2,0,L|357:191,1,127.50000243187,10|0,0:3|0:0,0:0:0:0:
256,349,85155,21,4,0:3:0:0:
90,238,85376,2,0,L|45:238,3,42.5000008106232,0|0|0|8,0:0|0:0|0:0|0:3,0:0:0:0:
204,52,85820,1,0,0:0:0:0:
351,118,85931,2,0,L|481:118,2,127.50000243187,8|8|0,0:3|0:3|0:0,0:0:0:0:
351,266,86485,2,0,L|478:266,1,127.50000243187,4|0,0:3|0:0,0:0:0:0:
96,192,86928,5,8,0:3:0:0:
416,192,87150,1,0,0:0:0:0:
352,192,87261,1,0,0:0:0:0:
288,192,87372,2,0,L|222:192,2,63.7500012159348,4|0|0,0:3|0:0|0:0,0:0:0:0:
256,49,87815,1,8,0:3:0:0:
190,49,87926,2,0,L|124:49,2,63.7500012159348,4|0|0,0:3|0:0|0:0,0:0:0:0:
256,49,88259,1,4,0:3:0:0:
256,335,88480,1,0,0:0:0:0:
373,97,88702,5,4,0:3:0:0:
139,97,88923,2,0,B|204:94|204:94|256:59|256:59|308:94|308:94|373:97,1,255.000004863739,8|0,0:3|0:0,0:0:0:0:
256,194,89588,37,4,0:3:0:0:
0,192,89810,1,4,0:3:0:0:
64,192,89921,1,0,0:0:0:0:
128,192,90032,2,0,L|255:192,1,127.50000243187,4|0,0:3|0:0,0:0:0:0:
430,29,90475,6,0,L|430:72,2,42.5000008106232,8|0|0,0:3|0:0|0:0,0:0:0:0:
463,107,90697,2,0,L|463:150,2,42.5000008106232,4|0|0,0:3|0:0|0:0,0:0:0:0:
426,174,90918,2,0,L|426:242,2,63.7500012159348,8|0|4,0:3|0:0|0:3,0:0:0:0:
256,43,91362,2,0,L|256:111,2,63.7500012159348,8|0|8,0:3|0:0|0:3,0:0:0:0:
86,174,91805,2,0,L|86:301,1,127.50000243187,4|8,0:3|0:3,0:0:0:0:
426,301,92249,21,4,0:3:0:0:
256,192,92470,2,0,L|256:141,3,42.5000008106232,0|0|0|8,0:0|0:0|0:0|0:3,0:0:0:0:
104,352,92914,1,0,0:0:0:0:
256,320,93024,2,0,L|408:320,2,127.50000243187,8|8|0,0:3|0:3|0:0,0:0:0:0:
256,192,93579,2,0,L|383:192,1,127.50000243187,4|0,0:3|0:0,0:0:0:0:
256,16,94022,5,8,0:3:0:0:
64,192,94244,1,0,0:0:0:0:
128,192,94354,1,0,0:0:0:0:
192,192,94465,2,0,L|256:192,2,63.7500012159348,4|0|0,0:3|0:0|0:0,0:0:0:0:
256,296,94909,1,8,0:3:0:0:
322,296,95020,2,0,L|388:296,2,63.7500012159348,4|0|0,0:3|0:0|0:0,0:0:0:0:
256,296,95353,1,4,0:3:0:0:
336,80,95574,1,0,0:0:0:0:
48,80,95795,6,0,L|48:168,1,63.7500012159348,6|0,0:3|0:0,0:0:0:0:
128,48,96017,1,0,0:0:0:0:
192,48,96128,1,0,0:0:0:0:
256,48,96239,2,0,L|384:48,1,127.50000243187,10|0,0:3|0:0,0:0:0:0:
464,304,96682,2,0,L|464:216,2,63.7500012159348,6|0|0,0:3|0:0|0:0,0:0:0:0:
256,336,97052,1,0,0:0:0:0:
256,336,97126,2,0,L|128:336,1,127.50000243187,10|0,0:3|0:0,0:0:0:0:
256,48,97569,21,6,0:3:0:0:
256,336,97791,1,0,0:0:0:0:
256,272,97901,1,0,0:0:0:0:
256,208,98012,2,0,L|256:120,1,63.7500012159348,10|0,0:3|0:0,0:0:0:0:
168,192,98234,2,0,L|168:280,1,63.7500012159348,0|0,0:0|0:0,0:0:0:0:
344,255,98456,6,0,L|344:104,1,127.50000243187,6|0,0:3|0:0,0:0:0:0:
168,255,98899,2,0,L|168:104,1,127.50000243187,10|0,0:3|0:0,0:0:0:0:
274,359,99342,22,0,B|274:315|274:315|233:315|233:315|233:365,1,127.50000243187,6|0,0:3|0:0,0:0:0:0:
15,333,113530,54,0,B|14:91|14:91|133:91,1,360
256,91,115303,2,0,B|256:333|256:333|137:332,1,360
131,91,117077,2,0,B|373:90|373:90|373:209,1,360
373,332,118850,2,0,B|131:332|131:332|132:213,1,360
133,17,120624,2,0,B|375:16|375:16|375:135,1,360
375,258,122397,2,0,B|133:258|133:258|134:139,1,360
455,59,124170,2,0,L|454:322,1,240
256,232,125944,2,0,L|256:355,1,120
256,150,126831,2,0,L|256:10,1,120
40,48,127717,6,0,L|40:280,1,225.000008583069,4|0,0:3|0:0,0:0:0:0:
256,112,128161,2,0,L|256:-8,1,112.5,8|0,0:3|0:0,0:0:0:0:
437,160,128493,1,0,0:0:0:0:
472,48,128604,2,0,L|472:280,1,225.000008583069,4|0,0:3|0:0,0:0:0:0:
256,272,129047,2,0,L|256:392,1,112.5,8|0,0:3|0:0,0:0:0:0:
47,248,129380,1,0,0:0:0:0:
144,192,129491,6,0,L|369:192,1,225.000008583069,4|0,0:3|0:0,0:0:0:0:
256,112,129934,2,0,L|256:-8,1,112.5,8|0,0:3|0:0,0:0:0:0:
47,136,130267,1,0,0:0:0:0:
144,192,130378,6,0,L|369:192,1,225.000008583069,4|0,0:3|0:0,0:0:0:0:
40,336,131264,22,0,L|40:104,1,225.000008583069,4|0,0:3|0:0,0:0:0:0:
256,272,131708,2,0,L|256:392,1,112.5,8|0,0:3|0:0,0:0:0:0:
437,224,132040,1,0,0:0:0:0:
472,336,132151,2,0,L|472:104,1,225.000008583069,4|0,0:3|0:0,0:0:0:0:
256,112,132594,2,0,L|256:-8,1,112.5,8|0,0:3|0:0,0:0:0:0:
47,136,132927,1,0,0:0:0:0:
144,192,133038,6,0,L|369:192,1,225.000008583069,4|0,0:3|0:0,0:0:0:0:
256,360,133481,1,8,0:3:0:0:
256,24,133703,2,0,L|256:107,1,75
144,192,133924,6,0,L|369:192,1,225.000008583069,4|0,0:3|0:0,0:0:0:0:
48,126,134811,22,0,L|48:352,1,225.000008583069,4|0,0:3|0:0,0:0:0:0:
312,64,135255,2,0,L|199:64,1,112.5,8|0,0:3|0:0,0:0:0:0:
429,238,135587,1,0,0:0:0:0:
464,126,135698,6,0,L|464:352,1,225.000008583069,4|0,0:3|0:0,0:0:0:0:
200,152,136141,2,0,L|312:152,1,112.5,8|0,0:3|0:0,0:0:0:0:
83,238,136474,1,0,0:0:0:0:
48,126,136585,6,0,L|48:352,1,225.000008583069,4|0,0:3|0:0,0:0:0:0:
312,240,137028,2,0,L|199:240,1,112.5,8|0,0:3|0:0,0:0:0:0:
429,238,137360,1,0,0:0:0:0:
464,126,137471,22,0,L|464:352,1,225.000008583069,4|0,0:3|0:0,0:0:0:0:
96,56,138358,6,0,L|184:56,1,75,4|0,0:3|0:0,0:0:0:0:
416,144,138580,5,0,0:0:0:0:
416,144,138691,1,0,0:0:0:0:
416,144,138801,2,0,L|304:144,1,82.5000025177003,8|0,0:3|0:0,0:0:0:0:
96,240,139023,21,0,0:0:0:0:
96,240,139134,1,0,0:0:0:0:
96,240,139245,2,0,L|220:240,1,89.9999972534181,4|0,0:3|0:0,0:0:0:0:
408,336,139466,5,0,0:0:0:0:
408,336,139577,1,0,0:0:0:0:
408,336,139688,2,0,L|272:336,1,97.4999955368044,8|0,0:3|0:0,0:0:0:0:
104,336,139910,5,0,0:0:0:0:
104,336,140021,1,0,0:0:0:0:
104,336,140131,2,0,L|216:336,1,104.999996795654,4|0,0:3|0:0,0:0:0:0:
416,240,140353,21,0,0:0:0:0:
416,240,140464,1,0,0:0:0:0:
416,240,140575,2,0,L|288:240,1,112.500004291535,8|0,0:3|0:0,0:0:0:0:
96,144,140797,5,0,0:0:0:0:
96,144,140908,1,0,0:0:0:0:
96,144,141018,2,0,L|224:144,1,120,4|0,0:3|0:0,0:0:0:0:
416,56,141240,5,0,0:0:0:0:
96,56,141462,1,0,0:0:0:0:
32,352,141905,22,0,L|257:352,1,225.000008583069,0|0,0:0|0:0,0:0:0:0:
256,136,142348,2,0,L|256:248,1,112.5,8|0,0:3|0:0,0:0:0:0:
480,145,142681,1,0,0:0:0:0:
480,32,142792,2,0,L|255:32,1,225.000008583069
256,248,143235,2,0,L|256:136,1,112.5,8|0,0:3|0:0,0:0:0:0:
360,361,143568,1,0,0:0:0:0:
472,361,143678,6,0,L|472:136,1,225,4|0,0:3|0:0,0:0:0:0:
256,136,144122,2,0,L|256:248,1,112.5,8|0,0:3|0:0,0:0:0:0:
100,49,144454,1,0,0:0:0:0:
40,136,144565,6,0,L|40:361,1,225,4|0,0:3|0:0,0:0:0:0:
480,352,145452,22,0,L|255:352,1,225.000008583069,4|0,0:3|0:0,0:0:0:0:
176,136,145895,2,0,L|176:248,1,112.5,8|0,0:3|0:0,0:0:0:0:
32,145,146228,1,0,0:0:0:0:
32,32,146339,2,0,L|257:32,1,225.000008583069,4|0,0:3|0:0,0:0:0:0:
336,248,146782,2,0,L|336:136,1,112.5,8|0,0:3|0:0,0:0:0:0:
85,285,147114,1,0,0:0:0:0:
143,354,147225,6,0,L|368:354,1,225,4|0,0:3|0:0,0:0:0:0:
193,227,147669,1,8,0:3:0:0:
318,227,147835,1,8,0:3:0:0:
256,119,148001,1,8,0:3:0:0:
256,35,148112,6,0,L|488:35,1,225,4|0,0:3|0:0,0:0:0:0:
40,32,148999,22,0,L|40:280,1,225.000008583069,4|0,0:3|0:0,0:0:0:0:
256,80,149442,2,0,L|256:192,1,112.5,8|0,0:3|0:0,0:0:0:0:
439,146,149775,1,0,0:0:0:0:
472,32,149885,2,0,L|472:280,1,225.000008583069,4|0,0:3|0:0,0:0:0:0:
256,192,150329,2,0,L|256:80,1,112.5,8|0,0:3|0:0,0:0:0:0:
73,238,150661,1,0,0:0:0:0:
40,352,150772,6,0,L|40:104,1,225.000008583069,4|0,0:3|0:0,0:0:0:0:
256,192,151215,2,0,L|256:304,1,112.5
439,238,151548,1,0,0:0:0:0:
472,126,151659,6,0,L|472:352,1,225.000008583069,4|0,0:3|0:0,0:0:0:0:
256,16,152546,22,0,L|256:104,1,75,4|0,0:3|0:0,0:0:0:0:
432,192,152767,5,0,0:0:0:0:
432,192,152878,1,0,0:0:0:0:
432,192,152989,2,0,L|344:192,1,82.5000025177003,8|0,0:3|0:0,0:0:0:0:
256,368,153211,5,0,0:0:0:0:
256,368,153322,1,0,0:0:0:0:
256,368,153433,2,0,L|256:272,1,89.9999972534181,4|0,0:3|0:0,0:0:0:0:
80,192,153654,21,0,0:0:0:0:
80,192,153765,1,0,0:0:0:0:
80,192,153876,2,0,L|184:192,1,97.4999955368044,8|0,0:3|0:0,0:0:0:0:
256,16,154097,5,0,0:0:0:0:
256,16,154208,1,0,0:0:0:0:
256,16,154319,2,0,L|256:120,1,104.999996795654,4|0,0:3|0:0,0:0:0:0:
432,192,154541,5,0,0:0:0:0:
432,192,154652,1,0,0:0:0:0:
432,192,154763,2,0,L|320:192,1,112.500004291535,8|0,0:3|0:0,0:0:0:0:
256,368,154984,21,0,0:0:0:0:
256,368,155095,1,0,0:0:0:0:
256,368,155206,2,0,L|256:240,1,120,4|0,0:3|0:0,0:0:0:0:
168,96,155427,5,0,0:0:0:0:
168,96,155538,1,0,0:0:0:0:
168,96,155649,2,0,B|224:120|224:120|256:62|256:62|288:120|288:120|344:96,1,255.000004863739
80,92,156092,38,0,L|80:192,2,100,4|0|0,0:3|0:0|0:0,0:0:0:0:
207,192,156536,2,0,L|207:292,2,100,8|0|0,0:3|0:0|0:0,0:0:0:0:
432,92,156979,2,0,L|432:192,2,100,4|0|0,0:3|0:0|0:0,0:0:0:0:
305,192,157423,2,0,L|305:292,2,100,8|0|0,0:3|0:0|0:0,0:0:0:0:
192,16,157866,6,0,L|80:16,1,100,4|0,0:3|0:0,0:0:0:0:
24,96,158161,1,0,0:0:0:0:
256,96,158309,2,0,L|368:96,1,100,8|0,0:3|0:0,0:0:0:0:
424,176,158604,1,0,0:0:0:0:
256,344,158753,6,0,L|256:287,1,56.2500021457673,4|0,0:3|0:0,0:0:0:0:
344,312,159048,1,0,0:0:0:0:
168,312,159196,1,0,0:0:0:0:
152,8,159639,22,0,L|40:8,2,100,4|0|0,0:3|0:0|0:0,0:0:0:0:
360,112,160083,2,0,L|472:112,2,100,8|0|0,0:3|0:0|0:0,0:0:0:0:
152,216,160526,2,0,L|40:216,2,100,4|0|0,0:3|0:0|0:0,0:0:0:0:
360,320,160970,2,0,L|472:320,2,100,8|0|0,0:3|0:0|0:0,0:0:0:0:
256,192,161413,6,0,L|256:80,1,100,4|0,0:3|0:0,0:0:0:0:
352,8,161708,1,0,0:0:0:0:
256,192,161856,2,0,L|256:304,1,100,8|0,0:3|0:0,0:0:0:0:
160,376,162151,1,0,0:0:0:0:
400,192,162300,5,4,0:3:0:0:
48,88,163186,21,4,0:3:0:0:
48,192,163334,1,0,0:0:0:0:
48,296,163482,1,0,0:0:0:0:
155,92,163630,22,0,L|155:192,2,100,4|0|0,0:3|0:0|0:0,0:0:0:0:
256,296,164073,21,8,0:3:0:0:
256,192,164221,1,0,0:0:0:0:
256,88,164369,1,0,0:3:0:0:
357,292,164516,22,0,L|357:192,2,100,4|0|0,0:3|0:0|0:0,0:0:0:0:
464,88,164960,21,4,0:3:0:0:
464,192,165108,1,0,0:0:0:0:
464,296,165256,1,0,0:0:0:0:
357,92,165403,22,0,L|357:192,2,100,4|0|0,0:3|0:0|0:0,0:0:0:0:
256,300,165846,22,0,L|256:236,1,56.2500021457673,4|0,0:3|0:0,0:0:0:0:
168,268,166142,1,0,0:0:0:0:
344,268,166290,1,0,0:0:0:0:
208,352,166733,6,0,L|96:352,1,100,4|0,0:3|0:0,0:0:0:0:
16,280,167029,1,0,0:0:0:0:
304,280,167176,6,0,L|416:280,1,100,8|0,0:3|0:0,0:0:0:0:
496,208,167472,1,0,0:0:0:0:
208,192,167620,22,0,L|96:192,1,100,4|0,0:3|0:0,0:0:0:0:
16,120,167916,1,0,0:0:0:0:
304,120,168063,6,0,L|416:120,1,100,8|0,0:3|0:0,0:0:0:0:
496,48,168359,1,0,0:0:0:0:
168,24,168507,5,4,0:3:0:0:
168,120,168654,1,0,0:0:0:0:
168,224,168802,1,0,0:0:0:0:
344,24,168950,21,8,0:3:0:0:
344,120,169097,1,0,0:0:0:0:
344,224,169245,1,0,0:0:0:0:
256,24,169393,5,4,0:3:0:0:
144,320,170280,5,4,0:3:0:0:
144,192,170428,1,0,0:0:0:0:
255,255,170576,1,0,0:0:0:0:
32,255,170723,2,0,B|32:144,1,100,8|0,0:3|0:0,0:0:0:0:
32,48,171019,1,0,0:0:0:0:
160,112,171167,21,4,0:3:0:0:
256,16,171315,2,0,L|256:120,1,100,4|0,0:3|0:0,0:0:0:0:
352,12,171610,2,0,L|352:116,2,100,8|0|0,0:3|0:0|0:0,0:0:0:0:
352,240,172053,5,4,0:3:0:0:
352,112,172201,1,0,0:0:0:0:
240,175,172349,1,0,0:0:0:0:
464,176,172497,2,0,B|463:76,1,100,8|0,0:3|0:0,0:0:0:0:
392,8,172792,1,0,0:0:0:0:
392,272,172940,1,4,0:3:0:0:
256,192,173236,5,0,0:0:0:0:
256,192,173384,2,0,L|256:8,1,150.000005722046,0|0,0:0|0:0,0:0:0:0:
152,88,173827,21,4,0:3:0:0:
152,192,173975,1,0,0:0:0:0:
80,56,174122,1,0,0:0:0:0:
80,224,174270,2,0,L|80:328,1,100,8|0,0:3|0:0,0:0:0:0:
168,368,174566,1,0,0:0:0:0:
256,272,174714,5,4,0:3:0:0:
352,376,174861,2,0,L|352:276,1,100,4|0,0:3|0:0,0:0:0:0:
448,376,175157,2,0,L|448:276,2,100,8|0|0,0:3|0:0|0:0,0:0:0:0:
448,192,175600,5,4,0:3:0:0:
344,192,175748,1,0,0:0:0:0:
480,120,175895,1,0,0:0:0:0:
312,120,176043,2,0,L|212:120,1,100
256,32,176339,1,0,0:0:0:0:
256,208,176487,1,4,0:3:0:0:
80,320,176783,21,0,0:0:0:0:
80,320,176930,2,0,L|80:160,1,150.000005722046,0|0,0:0|0:0,0:0:0:0:
256,158,177374,5,4,0:3:0:0:
256,53,177522,1,4,0:3:0:0:
360,200,177669,1,0,0:0:0:0:
360,32,177817,2,0,L|480:32,1,100,8|0,0:3|0:0,0:0:0:0:
496,192,178113,1,0,0:0:0:0:
256,192,178260,5,4,0:3:0:0:
376,192,178408,2,0,L|376:304,1,100,4|0,0:3|0:0,0:0:0:0:
136,192,178704,2,0,L|136:292,2,100,8|0|0,0:3|0:0|0:0,0:0:0:0:
200,81,179147,21,4,0:3:0:0:
312,81,179295,1,4,0:3:0:0:
200,81,179443,1,4,0:3:0:0:
312,81,179591,2,0,L|312:189,1,100,8|0,0:3|0:0,0:0:0:0:
352,344,179886,1,0,0:0:0:0:
160,344,180034,1,4,0:3:0:0:
256,192,180329,5,0,0:0:0:0:
256,192,180477,2,0,L|256:360,1,150.000005722046,0|0,0:0|0:0,0:0:0:0:
360,32,180921,5,4,0:3:0:0:
192,128,181069,1,0,0:0:0:0:
320,128,181216,1,0,0:0:0:0:
152,32,181364,2,0,L|32:32,1,100,8|0,0:3|0:0,0:0:0:0:
16,192,181660,1,0,0:0:0:0:
256,192,181807,21,4,0:3:0:0:
136,192,181955,2,0,L|136:304,1,100,4|0,0:3|0:0,0:0:0:0:
376,192,182251,2,0,L|376:292,2,100,8|0|0,0:3|0:0|0:0,0:0:0:0:
256,384,182694,5,4,0:3:0:0:
256,192,182842,1,0,0:0:0:0:
256,288,182990,1,0,0:0:0:0:
256,96,183138,2,0,L|256:-16,1,100,8|0,0:3|0:0,0:0:0:0:
352,40,183433,1,0,0:0:0:0:
160,40,183581,6,0,L|80:40,2,75.000002861023,4|0|0,0:3|0:0|0:0,0:0:0:0:
138,128,184024,22,0,L|88:128,2,50,0|0|0,0:0|0:0|0:0,0:0:0:0:
256,192,184468,37,0,0:0:0:0:
316,44,197768,54,0,L|194:44,1,120
256,192,198655,5,4,0:3:0:0:
64,336,198877,5,4,0:3:0:0:
160,336,198988,1,4,0:3:0:0:
256,336,199098,1,4,0:3:0:0:
352,336,199209,1,4,0:3:0:0:
448,336,199320,1,4,0:3:0:0:
256,192,199542,5,4,0:3:0:0:
448,48,199763,37,4,0:3:0:0:
352,48,199874,1,4,0:3:0:0:
256,48,199984,1,4,0:3:0:0:
160,48,200095,1,4,0:3:0:0:
64,48,200206,1,4,0:3:0:0:
448,336,200429,37,8,0:3:0:0:
448,48,200650,1,4,0:3:0:0:
448,48,200724,1,0,0:0:0:0:
448,48,200798,1,0,0:0:0:0:
448,48,200872,2,0,B|400:48|400:48|400:146,1,146.249993305207,4|0,0:3|0:0,0:0:0:0:
400,248,201094,1,8,0:3:0:0:
136,158,201315,5,8,0:3:0:0:
256,376,201537,2,0,L|256:272,1,97.4999955368044,8|0,0:3|0:0,0:0:0:0:
257,177,201759,1,0,0:0:0:0:
180,239,201869,2,0,L|121:238,2,48.7499977684022
332,239,202091,1,0,0:0:0:0:
332,239,202147,1,0,0:0:0:0:
332,239,202202,1,4,0:3:0:0:
256,13,202424,5,4,0:3:0:0:
177,71,202534,1,4,0:3:0:0:
209,163,202645,1,4,0:3:0:0:
307,162,202756,1,0,0:0:0:0:
335,69,202867,1,8,0:3:0:0:
488,328,203089,1,4,0:3:0:0:
296,288,203310,37,4,0:3:0:0:
296,288,203421,1,4,0:3:0:0:
296,288,203532,1,4,0:3:0:0:
296,288,203643,1,0,0:0:0:0:
296,192,203754,1,8,0:3:0:0:
64,352,203975,37,4,0:3:0:0:
64,32,204197,1,4,0:3:0:0:
160,32,204308,1,0,0:0:0:0:
256,32,204419,1,4,0:3:0:0:
256,352,204640,1,8,0:3:0:0:
448,32,204862,5,8,0:3:0:0:
352,32,204973,1,0,0:0:0:0:
352,352,205195,1,0,0:0:0:0:
448,352,205305,2,0,B|440:304|440:304|448:256|448:256|440:208|440:208|448:160|448:160|440:104|440:104|448:64,1,292.499986610413,8|0,0:3|0:0,0:0:0:0:
352,192,205749,5,4,0:3:0:0:
112,8,205971,21,4,0:3:0:0:
144,96,206081,1,4,0:3:0:0:
112,192,206192,1,4,0:3:0:0:
144,288,206303,1,0,0:0:0:0:
112,376,206413,1,8,0:3:0:0:
256,32,206636,5,4,0:3:0:0:
400,376,206857,5,4,0:3:0:0:
368,284,206967,1,0,0:0:0:0:
400,192,207078,1,4,0:3:0:0:
368,100,207190,1,0,0:0:0:0:
400,8,207301,1,8,0:3:0:0:
152,272,207522,21,4,0:3:0:0:
360,272,207744,1,4,0:3:0:0:
360,272,207818,1,0,0:0:0:0:
360,272,207892,1,0,0:0:0:0:
360,272,207966,2,0,B|360:224|360:224|311:223|311:223|311:272,1,146.249993305207,4|0,0:3|0:0,0:0:0:0:
310,354,208187,1,8,0:3:0:0:
256,40,208409,6,0,B|160:40|160:40|189:79|189:79|152:112|152:112|152:232,1,292.499986610413,8|0,0:3|0:0,0:0:0:0:
152,336,208852,5,8,0:3:0:0:
256,336,208963,2,0,L|256:283,2,48.7499977684022,4|0|4,0:3|0:3|0:3,0:0:0:0:
360,336,209185,1,0,0:0:0:0:
360,336,209241,1,0,0:0:0:0:
360,336,209296,1,4,0:3:0:0:
352,80,209517,37,4,0:3:0:0:
304,168,209628,1,4,0:3:0:0:
256,80,209739,1,4,0:3:0:0:
208,168,209850,1,0,0:0:0:0:
160,80,209961,1,8,0:3:0:0:
64,352,210182,5,4,0:3:0:0:
304,168,210404,21,4,0:3:0:0:
304,168,210515,1,4,0:3:0:0:
208,168,210626,1,4,0:3:0:0:
208,168,210737,1,0,0:0:0:0:
256,80,210848,1,8,0:3:0:0:
256,360,211069,5,4,0:3:0:0:
88,192,211291,5,4,0:3:0:0:
172,143,211402,1,0,0:0:0:0:
256,192,211513,1,4,0:3:0:0:
88,360,211734,21,8,0:3:0:0:
88,24,211956,5,8,0:3:0:0:
184,24,212067,1,0,0:0:0:0:
424,360,212288,5,0,0:0:0:0:
328,360,212399,1,8,0:3:0:0:
232,360,212510,1,0,0:0:0:0:
136,360,212621,2,0,L|136:208,1,146.249993305207,0|0,0:0|0:0,0:0:0:0:
136,136,212843,21,4,0:3:0:0:
144,128,212953,1,0,0:0:0:0:
152,120,213064,1,0,0:0:0:0:
160,112,213175,1,0,0:0:0:0:
256,128,213286,5,4,0:3:0:0:
264,120,213396,1,0,0:0:0:0:
272,112,213507,1,0,0:0:0:0:
280,104,213618,1,0,0:0:0:0:
374,129,213729,5,4,0:3:0:0:
382,121,213839,1,0,0:0:0:0:
390,113,213950,1,0,0:0:0:0:
398,105,214061,1,0,0:0:0:0:
488,135,214173,21,4,0:3:0:0:
496,127,214283,1,0,0:0:0:0:
504,119,214394,1,0,0:0:0:0:
512,111,214505,1,0,0:0:0:0:
461,244,214616,5,4,0:3:0:0:
453,236,214726,1,0,0:0:0:0:
445,228,214837,1,0,0:0:0:0:
437,220,214948,1,0,0:0:0:0:
306,210,215059,5,4,0:3:0:0:
314,202,215169,1,0,0:0:0:0:
322,194,215280,1,0,0:0:0:0:
330,186,215391,1,0,0:0:0:0:
404,44,215503,22,0,L|286:44,1,97.4999955368044,4|0,0:3|0:0,0:0:0:0:
108,340,215724,2,0,L|246:340,1,112.500004291535,4|0,0:3|0:0,0:0:0:0:
108,44,215946,2,0,L|108:175,1,127.50000243187,4|0,0:3|0:0,0:0:0:0:
404,340,216168,2,0,L|404:193,1,142.49999619484,4|0,0:3|0:0,0:0:0:0:
312,92,216390,5,4,0:3:0:0:
312,80,216500,1,0,0:0:0:0:
312,69,216611,1,0,0:0:0:0:
312,58,216722,1,0,0:0:0:0:
156,136,216833,5,4,0:3:0:0:
144,136,216943,1,0,0:0:0:0:
133,136,217054,1,0,0:0:0:0:
122,136,217165,1,0,0:0:0:0:
200,292,217276,21,4,0:3:0:0:
200,304,217386,1,0,0:0:0:0:
200,315,217497,1,0,0:0:0:0:
200,326,217608,1,0,0:0:0:0:
356,248,217720,5,4,0:3:0:0:
368,248,217830,1,0,0:0:0:0:
379,248,217941,1,0,0:0:0:0:
390,248,218052,1,0,0:0:0:0:
194,142,218163,5,4,0:3:0:0:
185,133,218273,1,0,0:0:0:0:
177,125,218384,1,0,0:0:0:0:
169,117,218495,1,0,0:0:0:0:
318,242,218606,21,4,0:3:0:0:
327,251,218716,1,0,0:0:0:0:
335,259,218827,1,0,0:0:0:0:
343,267,218938,1,0,0:0:0:0:
204,277,219050,6,0,B|155:285|155:285|108:278,1,97.4999955368044,4|0,0:3|0:0,0:0:0:0:
308,107,219271,2,0,B|365:97|365:97|420:105,1,112.500004291535
171,140,219493,2,0,B|160:75|160:75|169:13,1,127.50000243187,4|0,0:3|0:0,0:0:0:0:
341,244,219715,2,0,B|352:315|352:315|342:383,1,142.49999619484,4|0,0:3|0:0,0:0:0:0:
57,192,219936,6,0,L|57:73,1,112.500004291535,4|0,0:3|0:0,0:0:0:0:
182,132,220158,2,0,L|182:17,1,112.500004291535,4|0,0:3|0:0,0:0:0:0:
455,192,220380,2,0,L|456:75,1,112.500004291535,4|0,0:3|0:0,0:0:0:0:
330,132,220602,2,0,L|330:17,1,112.500004291535,4|0,0:3|0:0,0:0:0:0:
57,192,220823,22,0,L|57:313,1,120,4|0,0:3|0:0,0:0:0:0:
330,252,221045,2,0,L|330:372,1,120,4|0,0:3|0:0,0:0:0:0:
182,252,221267,2,0,L|182:372,1,120,4|0,0:3|0:0,0:0:0:0:
455,192,221489,2,0,L|455:311,1,120,4|0,0:3|0:0,0:0:0:0:
57,192,221710,6,0,L|56:60,1,127.50000243187,4|0,0:3|0:0,0:0:0:0:
330,9,221932,2,0,L|330:136,1,127.50000243187,4|0,0:3|0:0,0:0:0:0:
182,9,222154,2,0,L|182:136,1,127.50000243187,4|0,0:3|0:0,0:0:0:0:
455,192,222375,2,0,L|456:60,1,127.50000243187,4|0,0:3|0:0,0:0:0:0:
57,327,222597,6,0,L|57:192,1,134.999995880127,4|0,0:3|0:0,0:0:0:0:
330,249,222819,2,0,L|330:384,1,134.999995880127,4|0,0:3|0:0,0:0:0:0:
182,249,223040,2,0,L|183:384,1,134.999995880127,4|0,0:3|0:0,0:0:0:0:
455,327,223262,2,0,L|455:192,1,134.999995880127,4|0,0:3|0:0,0:0:0:0:
256,192,223483,5,8,0:3:0:0:
256,192,223594,1,0,0:0:0:0:
256,192,223705,1,0,0:0:0:0:
256,192,223816,1,0,0:0:0:0:
256,192,223927,1,0,0:0:0:0:
256,192,224038,1,0,0:0:0:0:
256,192,224149,1,0,0:0:0:0:
256,192,224260,1,0,0:0:0:0:
256,192,224370,1,0,0:0:0:0:
256,192,224481,1,0,0:0:0:0:
256,192,224592,1,0,0:0:0:0:
256,192,224703,1,0,0:0:0:0:
256,192,224813,1,0,0:0:0:0:
256,192,224924,1,0,0:0:0:0:
256,192,225035,1,0,0:0:0:0:
256,192,225146,1,0,0:0:0:0:
256,192,225257,1,0,0:0:0:0:
256,85,225478,6,0,L|256:5,2,75,0|0|0,0:0|0:0|0:0,0:0:0:0:
256,299,225922,2,0,L|256:379,1,75,0|0,0:0|0:0,0:0:0:0:
77,362,226143,6,0,B|77:290|77:290|61:274|61:274|93:258|93:258|61:242|61:242|93:226|93:226|61:210|61:210|93:194|93:194|77:178|77:178|77:146|77:146|205:146,1,450
432,360,227030,6,0,L|432:304,2,52.4999983978272,4|0|0,0:3|0:0|0:0,0:0:0:0:
328,360,227252,1,0,0:0:0:0:
256,280,227363,1,0,0:0:0:0:
184,360,227474,2,0,L|128:360,4,52.4999983978272,2|0|0|0|0,0:3|0:0|0:0|0:0|0:0,0:0:0:0:
256,280,227806,1,0,0:0:0:0:
256,176,227917,22,0,L|256:69,1,104.999996795654,8|0,0:3|0:0,0:0:0:0:
352,136,228139,1,0,0:0:0:0:
160,176,228249,2,0,L|160:69,1,104.999996795654,8|0,0:3|0:0,0:0:0:0:
256,264,228471,1,0,0:0:0:0:
256,368,228582,1,8,0:3:0:0:
256,264,228693,1,0,0:0:0:0:
120,272,228804,6,0,L|120:379,1,104.999996795654,4|0,0:3|0:0,0:0:0:0:
392,376,229025,2,0,L|392:271,1,104.999996795654,0|0,0:0|0:0,0:0:0:0:
392,136,229247,2,0,L|448:136,4,52.4999983978272,2|0|0|0|0,0:3|0:0|0:0|0:0|0:0,0:0:0:0:
256,32,229579,5,0,0:0:0:0:
256,32,229635,1,0,0:0:0:0:
256,32,229690,2,0,L|256:152,1,104.999996795654,8|0,0:3|0:0,0:0:0:0:
144,288,229912,2,0,L|144:183,1,104.999996795654,8|0,0:3|0:0,0:0:0:0:
368,183,230134,2,0,L|368:288,1,104.999996795654,8|0,0:3|0:0,0:0:0:0:
496,248,230355,1,0,0:0:0:0:
496,136,230466,1,0,0:0:0:0:
360,104,230577,22,0,L|280:104,2,52.4999983978272,4|0|0,0:3|0:0|0:0,0:0:0:0:
360,280,230799,1,0,0:0:0:0:
256,312,230910,1,0,0:0:0:0:
152,280,231020,2,0,L|96:280,4,52.4999983978272,2|0|0|0|0,0:3|0:0|0:0|0:0|0:0,0:0:0:0:
256,193,231353,5,0,0:0:0:0:
256,193,231408,1,0,0:0:0:0:
256,193,231464,1,8,0:3:0:0:
256,85,231575,1,0,0:0:0:0:
256,85,231630,1,0,0:0:0:0:
256,85,231685,2,0,L|256:190,1,104.999996795654,0|8,0:0|0:3,0:0:0:0:
256,295,231907,2,0,L|256:190,1,104.999996795654,0|0,0:0|0:0,0:0:0:0:
312,368,232129,1,8,0:3:0:0:
200,368,232240,1,0,0:0:0:0:
392,232,232350,6,0,L|496:232,1,104.999996795654,4|0,0:3|0:0,0:0:0:0:
312,88,232572,2,0,L|208:88,1,104.999996795654,0|0,0:0|0:0,0:0:0:0:
120,232,232794,1,2,0:3:0:0:
120,232,232849,1,0,0:0:0:0:
120,232,232905,1,0,0:0:0:0:
120,232,232960,1,0,0:0:0:0:
120,232,233016,1,0,0:0:0:0:
256,336,233126,21,0,0:0:0:0:
256,336,233182,1,0,0:0:0:0:
256,336,233237,1,0,0:0:0:0:
204,246,233347,1,12,0:3:0:0:
308,246,233459,1,12,0:3:0:0:
256,154,233570,1,8,0:3:0:0:
352,104,233681,2,0,L|408:104,2,52.4999983978272,8|0|0,0:3|0:0|0:0,0:0:0:0:
160,104,233902,2,0,L|64:104,2,52.4999983978272
320,352,234124,5,4,0:3:0:0:
256,224,234235,1,0,0:0:0:0:
192,352,234346,1,0,0:0:0:0:
256,224,234456,1,0,0:0:0:0:
96,224,234567,2,0,L|32:224,4,52.4999983978272,2|0|0|0|0,0:3|0:0|0:0|0:0|0:0,0:0:0:0:
256,224,234900,1,0,0:0:0:0:
404,224,235011,6,0,L|509:224,1,104.999996795654,8|0,0:3|0:0,0:0:0:0:
424,352,235232,1,0,0:0:0:0:
256,353,235343,2,0,L|152:353,1,104.999996795654,8|0,0:3|0:0,0:0:0:0:
200,160,235565,1,0,0:0:0:0:
312,160,235676,1,8,0:3:0:0:
256,248,235787,1,0,0:0:0:0:
104,208,235897,22,0,L|104:103,1,104.999996795654,4|0,0:3|0:0,0:0:0:0:
256,248,236119,2,0,L|256:353,1,104.999996795654,0|0,0:0|0:0,0:0:0:0:
408,208,236341,2,0,L|464:208,4,52.4999983978272,2|0|0|0|0,0:3|0:0|0:0|0:0|0:0,0:0:0:0:
408,72,236673,5,0,0:0:0:0:
408,72,236729,1,0,0:0:0:0:
408,72,236784,2,0,L|296:72,1,104.999996795654,8|0,0:3|0:0,0:0:0:0:
104,72,237006,1,8,0:3:0:0:
209,72,237117,1,0,0:0:0:0:
0,72,237227,2,0,L|0:184,1,104.999996795654,8|0,0:3|0:0,0:0:0:0:
0,280,237449,1,0,0:0:0:0:
88,232,237560,1,0,0:0:0:0:
136,376,237671,6,0,L|80:376,2,52.4999983978272,4|0|0,0:3|0:0|0:0,0:0:0:0:
200,288,237893,1,0,0:0:0:0:
312,288,238003,1,0,0:0:0:0:
376,376,238114,2,0,L|432:376,4,52.4999983978272,2|0|0|0|0,0:3|0:0|0:0|0:0|0:0,0:0:0:0:
256,376,238447,21,0,0:0:0:0:
256,376,238502,1,0,0:0:0:0:
256,376,238558,1,8,0:3:0:0:
256,192,238668,1,0,0:0:0:0:
256,192,238724,1,0,0:0:0:0:
256,192,238779,2,0,L|256:80,1,104.999996795654,0|8,0:0|0:3,0:0:0:0:
168,256,239001,2,0,L|168:368,1,104.999996795654,0|0,0:0|0:0,0:0:0:0:
344,361,239223,5,8,0:3:0:0:
344,256,239333,1,0,0:0:0:0:
344,152,239444,2,0,L|344:48,1,104.999996795654,4|0,0:3|0:0,0:0:0:0:
168,23,239666,5,0,0:0:0:0:
168,128,239776,1,0,0:0:0:0:
168,232,239888,2,0,L|168:344,1,112.500004291535,2|0,0:3|0:0,0:0:0:0:
360,360,240109,21,0,0:0:0:0:
360,255,240219,1,0,0:0:0:0:
360,151,240331,2,0,L|360:16,1,120,4|0,0:3|0:0,0:0:0:0:
152,24,240553,5,0,0:0:0:0:
152,129,240663,1,0,0:0:0:0:
152,233,240774,2,0,L|152:360,1,127.50000243187,2|0,0:3|0:0,0:0:0:0:
376,360,240996,5,0,0:0:0:0:
376,255,241106,1,0,0:0:0:0:
256,304,241218,21,4,0:3:0:0:
256,80,241439,1,0,0:0:0:0:
368,80,241550,1,0,0:0:0:0:
144,80,241661,1,0,0:0:0:0:
480,80,241883,1,0,0:0:0:0:
88,304,242104,1,0,0:0:0:0:
200,304,242214,1,0,0:0:0:0:
313,304,242325,1,0,0:0:0:0:
425,304,242436,1,0,0:0:0:0:
144,192,242548,1,0,0:0:0:0:
368,192,242769,1,0,0:0:0:0:
256,304,242991,21,4,0:3:0:0:
256,80,243212,1,0,0:0:0:0:
144,80,243323,1,0,0:0:0:0:
368,80,243434,1,0,0:0:0:0:
32,80,243656,2,0,L|32:192,1,112.500004291535
424,304,243877,1,0,0:0:0:0:
312,304,243989,1,0,0:0:0:0:
199,304,244100,1,0,0:0:0:0:
87,304,244209,1,0,0:0:0:0:
368,192,244321,1,0,0:0:0:0:
144,192,244542,1,0,0:0:0:0:
256,304,244765,21,4,0:3:0:0:
256,80,244986,1,0,0:0:0:0:
368,80,245097,1,0,0:0:0:0:
144,80,245208,1,0,0:0:0:0:
480,80,245430,1,0,0:0:0:0:
256,360,245651,1,0,0:0:0:0:
256,248,245761,1,0,0:0:0:0:
256,135,245872,1,0,0:0:0:0:
256,23,245983,1,0,0:0:0:0:
76,24,246095,1,0,0:0:0:0:
435,24,246316,1,0,0:0:0:0:
256,304,246538,21,4,0:3:0:0:
256,80,246759,1,0,0:0:0:0:
368,80,246870,1,0,0:0:0:0:
144,80,246981,1,0,0:0:0:0:
480,80,247203,2,0,L|480:192,1,112.500004291535
256,360,247424,1,0,0:0:0:0:
256,248,247536,1,0,0:0:0:0:
256,135,247645,1,0,0:0:0:0:
256,23,247756,1,0,0:0:0:0:
54,24,247868,1,0,0:0:0:0:
457,24,248089,1,0,0:0:0:0:
88,192,248311,21,0,0:0:0:0:
424,192,248533,1,0,0:0:0:0:
424,79,248644,1,0,0:0:0:0:
424,305,248755,1,0,0:0:0:0:
88,192,248977,22,0,L|8:192,2,56.2500021457673
256,192,249226,2,0,L|352:192,1,84.3750032186509,4|0,0:3|0:0,0:0:0:0:
256,272,249364,2,0,L|360:272,1,84.3750032186509,4|0,0:3|0:0,0:0:0:0:
256,352,249503,2,0,L|352:352,1,84.3750032186509,4|0,0:3|0:0,0:0:0:0:
419,353,249642,1,8,0:3:0:0:
93,353,249863,1,8,0:3:0:0:
176,24,250085,21,4,0:3:0:0:
424,192,250307,1,0,0:0:0:0:
424,79,250418,1,0,0:0:0:0:
424,305,250528,2,0,L|303:305,1,112.500004291535
311,79,250750,2,0,L|424:79,1,112.500004291535
103,266,250972,6,0,B|123:262|123:262|139:269|139:269|158:266,1,58.1250004434586,4|0,0:3|0:0,0:0:0:0:
214,266,251082,2,0,B|193:270|193:270|177:262|177:262|158:265,1,58.1250004434586,4|0,0:3|0:0,0:0:0:0:
103,118,251193,2,0,B|123:122|123:122|139:115|139:115|158:118,1,58.1250004434586,4|0,0:3|0:0,0:0:0:0:
214,118,251304,2,0,B|193:114|193:114|177:122|177:122|158:119,1,58.1250004434586,4|0,0:3|0:0,0:0:0:0:
0,192,251415,1,8,0:3:0:0:
512,192,251637,1,0,0:0:0:0:
256,40,251858,5,4,0:3:0:0:
256,344,252080,1,0,0:0:0:0:
368,344,252191,1,0,0:0:0:0:
144,344,252302,2,0,L|144:232,1,112.500004291535,8|0,0:3|0:0,0:0:0:0:
368,232,252523,2,0,L|368:344,1,112.500004291535,0|0,0:0|0:0,0:0:0:0:
64,192,252745,21,4,0:3:0:0:
256,40,252967,1,0,0:0:0:0:
144,40,253078,1,0,0:0:0:0:
368,40,253189,2,0,L|368:152,1,112.500004291535,8|0,0:3|0:0,0:0:0:0:
144,152,253410,2,0,L|144:40,1,112.500004291535,0|0,0:0|0:0,0:0:0:0:
452,112,253632,5,4,0:3:0:0:
452,112,253743,1,4,0:3:0:0:
400,280,253853,5,8,0:3:0:0:
400,280,253964,1,8,0:3:0:0:
256,185,254075,21,4,0:3:0:0:
256,185,254186,1,4,0:3:0:0:
112,280,254297,5,8,0:3:0:0:
112,280,254408,1,8,0:3:0:0:
60,112,254519,5,4,0:3:0:0:
184,208,254629,37,8,0:3:0:0:
332,208,254740,5,8,0:3:0:0:
452,112,254851,37,4,0:3:0:0:
312,64,254962,38,0,B|199:64,1,112.500004291535,8|0,0:3|0:0,0:0:0:0:
200,320,255184,2,0,B|313:320,1,112.500004291535,8|0,0:3|0:0,0:0:0:0:
256,192,255405,38,0,B|256:221|256:221|284:221|284:221|284:165|284:165|228:165|228:165|228:221,1,225.000008583069,2|0,0:3|0:0,0:0:0:0:
