osu file format v14

[General]
AudioFilename: audio.mp3
AudioLeadIn: 0
PreviewTime: 225257
Countdown: 0
SampleSet: Normal
StackLeniency: 0.5
Mode: 0
LetterboxInBreaks: 0
WidescreenStoryboard: 0

[Editor]
Bookmarks: 28409,56784,70971,99346,127721,156092,170280,184472,198659,205749,212843,219936,227030,234124,241218,248311,253632
DistanceSpacing: 1
BeatDivisor: 6
GridSize: 8
TimelineZoom: 1.3

[Metadata]
Title:Groundhog (Beat Juggle)
TitleUnicode:Groundhog (Beat Juggle)
Artist:Noisia
ArtistUnicode:Noisia
Creator:Arphimigon
Version:Pro
Source:DJ Hero
Tags:the scratch perverts progressive difficulty
BeatmapID:1130379
BeatmapSetID:475154

[Difficulty]
HPDrainRate:4
CircleSize:3
OverallDifficulty:7
ApproachRate:8
SliderMultiplier:3
SliderTickRate:4

[Events]
//Background and Video events
0,0,"bg.png",0,0
//Break Periods
2,56980,70080
2,99763,126831
2,184468,197768
//Storyboard Layer 0 (Background)
//Storyboard Layer 1 (Fail)
//Storyboard Layer 2 (Pass)
//Storyboard Layer 3 (Foreground)
//Storyboard Sound Samples

[TimingPoints]
30,443.360673908224,4,1,3,55,1,0
28405,-133.333333333333,4,1,3,55,0,0
31508,-153.846153846154,4,1,3,55,0,0
31841,-153.846153846154,4,1,3,25,0,0
31951,-133.333333333333,4,1,3,55,0,0
35055,-153.846153846154,4,1,3,55,0,0
35388,-153.846153846154,4,1,3,25,0,0
35498,-133.333333333333,4,1,3,55,0,0
38602,-153.846153846154,4,1,3,55,0,0
38934,-153.846153846154,4,1,3,25,0,0
39045,-133.333333333333,4,1,3,55,0,0
42481,-153.846153846154,4,1,3,25,0,0
42592,-133.333333333333,4,1,3,55,0,0
45696,-153.846153846154,4,1,3,55,0,0
46028,-153.846153846154,4,1,3,25,0,0
46139,-133.333333333333,4,1,3,55,0,0
49243,-153.846153846154,4,1,3,55,0,0
49575,-153.846153846154,4,1,3,25,0,0
49686,-133.333333333333,4,1,3,55,0,0
52789,-153.846153846154,4,1,3,55,0,0
53122,-153.846153846154,4,1,3,25,0,0
53233,-133.333333333333,4,1,3,55,0,0
56780,-270.27027027027,4,1,3,30,0,0
70971,-117.647058823529,4,1,3,55,0,0
99342,-250,4,1,3,55,0,0
127717,-66.6666666666667,4,1,3,55,0,0
128161,-100,4,1,3,55,0,0
128604,-66.6666666666667,4,1,3,55,0,0
129044,-100,4,1,3,55,0,0
129491,-66.6666666666667,4,1,3,55,0,0
129931,-100,4,1,3,55,0,0
130378,-133.333333333333,4,1,3,55,0,0
131264,-66.6666666666667,4,1,3,55,0,0
131704,-100,4,1,3,55,0,0
132151,-66.6666666666667,4,1,3,55,0,0
132591,-100,4,1,3,55,0,0
133038,-66.6666666666667,4,1,3,55,0,0
133478,-100,4,1,3,55,0,0
133924,-133.333333333333,4,1,3,55,0,0
134368,-133.333333333333,4,1,3,25,0,0
134811,-66.6666666666667,4,1,3,55,0,0
135255,-100,4,1,3,55,0,0
135698,-66.6666666666667,4,1,3,55,0,0
136141,-100,4,1,3,55,0,0
136585,-66.6666666666667,4,1,3,55,0,0
137025,-100,4,1,3,55,0,0
137471,-133.333333333333,4,1,3,55,0,0
138358,-100,4,1,3,55,0,0
138580,-90.9090909090909,4,1,3,55,0,0
139023,-83.3333333333333,4,1,3,55,0,0
139466,-76.9230769230769,4,1,3,55,0,0
139910,-71.4285714285714,4,1,3,55,0,0
140353,-66.6666666666667,4,1,3,55,0,0
140797,-62.5,4,1,3,55,0,0
141240,-93.4579439252336,4,1,3,55,0,0
141905,-66.6666666666667,4,1,3,55,0,0
142348,-100,4,1,3,55,0,0
142792,-66.6666666666667,4,1,3,55,0,0
143232,-100,4,1,3,55,0,0
143678,-66.6666666666667,4,1,3,55,0,0
144122,-100,4,1,3,55,0,0
144565,-133.333333333333,4,1,3,55,0,0
145452,-66.6666666666667,4,1,3,55,0,0
145895,-100,4,1,3,55,0,0
146339,-66.6666666666667,4,1,3,55,0,0
146782,-100,4,1,3,55,0,0
147225,-66.6666666666667,4,1,3,55,0,0
147666,-100,4,1,3,55,0,0
148112,-133.333333333333,4,1,3,55,0,0
148555,-133.333333333333,4,1,3,25,0,0
148999,-66.6666666666667,4,1,3,55,0,0
149442,-100,4,1,3,55,0,0
149885,-66.6666666666667,4,1,3,55,0,0
150329,-100,4,1,3,55,0,0
150772,-66.6666666666667,4,1,3,55,0,0
151215,-100,4,1,3,55,0,0
151659,-133.333333333333,4,1,3,55,0,0
152546,-100,4,1,3,55,0,0
152767,-90.9090909090909,4,1,3,55,0,0
153211,-83.3333333333333,4,1,3,55,0,0
153654,-76.9230769230769,4,1,3,55,0,0
154097,-71.4285714285714,4,1,3,55,0,0
154541,-66.6666666666667,4,1,3,55,0,0
154984,-62.5,4,1,3,55,0,0
155427,-58.8235294117647,4,1,3,55,0,0
155649,-58.8235294117647,4,1,3,55,0,0
156092,-100,3,1,3,55,0,0
158753,-133.333333333333,3,1,3,55,0,0
159639,-100,3,1,3,55,0,0
165846,-133.333333333333,3,1,3,55,0,0
166733,-100,3,1,3,55,0,0
173236,-133.333333333333,3,1,3,55,0,0
173827,-100,4,1,3,55,0,0
176783,-133.333333333333,4,1,3,55,0,0
177374,-100,4,1,3,55,0,0
180329,-133.333333333333,4,1,3,55,0,0
180921,-100,4,1,3,55,0,0
198655,-90.9090909090909,4,1,3,55,0,0
212843,-133.333333333333,4,1,3,55,0,0
225257,-100,4,1,3,55,0,0
226808,-100,4,1,3,25,0,0
227030,-83.3333333333333,4,1,3,55,0,0
239888,-80,4,1,3,55,0,0
240331,-76.9230769230769,4,1,3,55,0,0
240774,-74.0740740740741,4,1,3,55,0,0
241218,-71.4285714285714,4,1,3,65,0,0
250972,-64.5161290322581,4,1,3,65,0,0
251415,-66.6666666666667,4,1,3,65,0,0
255405,-33.3333333333333,4,1,3,65,0,0
255516,-33.3333333333333,4,1,3,5,0,0

[Colours]
Combo1 : 121,121,121
Combo2 : 255,128,0
Combo3 : 0,0,255
Combo4 : 255,0,255

[HitObjects]
144,192,28405,5,4,0:3:0:0:
256,192,28626,2,0,L|256:136,1,56.2500021457673,8|0,0:3|0:0,0:0:0:0:
180,112,28848,2,0,L|180:56,2,56.2500021457673,8|0|4,0:3|0:0|0:3,0:0:0:0:
332,56,29291,2,0,L|332:112,1,56.2500021457673,0|0,0:0|0:0,0:0:0:0:
402,150,29513,2,0,L|402:324,1,168.750006437302,8|8,0:3|0:3,0:0:0:0:
256,361,30178,5,4,0:3:0:0:
191,245,30400,2,0,L|191:178,1,56.2500021457673,8|0,0:3|0:0,0:0:0:0:
109,178,30621,2,0,L|109:111,2,56.2500021457673,8|0|4,0:3|0:0|0:3,0:0:0:0:
191,95,31065,2,0,L|191:28,2,56.2500021457673,8|0|4,0:3|0:0|0:3,0:0:0:0:
317,132,31508,2,0,L|463:132,1,146.249993305207,8|0,0:3|0:0,0:0:0:0:
507,158,31951,5,4,0:3:0:0:
472,304,32173,2,0,L|413:304,1,56.2500021457673,8|0,0:3|0:0,0:0:0:0:
361,246,32395,2,0,L|302:246,1,56.2500021457673,8|0,0:3|0:0,0:0:0:0:
264,319,32617,2,0,L|205:319,1,56.2500021457673,4|0,0:3|0:0,0:0:0:0:
153,261,32839,2,0,L|94:261,1,56.2500021457673,0|0,0:0|0:0,0:0:0:0:
42,205,33060,2,0,L|42:37,1,168.750006437302,8|8,0:3|0:3,0:0:0:0:
256,12,33725,21,4,0:3:0:0:
321,96,33947,2,0,L|321:154,1,56.2500021457673,0|0,0:0|0:0,0:0:0:0:
256,198,34168,2,0,L|256:256,2,56.2500021457673,8|0|4,0:3|0:0|0:3,0:0:0:0:
191,96,34612,2,0,L|191:154,2,56.2500021457673,8|0|4,0:3|0:0|0:3,0:0:0:0:
256,198,35055,2,0,L|256:350,1,146.249993305207,8|0,0:3|0:0,0:0:0:0:
221,370,35498,5,4,0:3:0:0:
148,304,35720,2,0,L|88:304,1,56.2500021457673,8|0,0:3|0:0,0:0:0:0:
95,221,35942,2,0,L|35:221,2,56.2500021457673,8|0|4,0:3|0:0|0:3,0:0:0:0:
203,143,36385,2,0,L|263:143,1,56.2500021457673,0|0,0:0|0:0,0:0:0:0:
298,73,36607,2,0,L|469:73,1,168.750006437302,8|8,0:3|0:3,0:0:0:0:
466,311,37272,5,4,0:3:0:0:
369,224,37493,2,0,L|309:224,1,56.2500021457673,8|0,0:3|0:0,0:0:0:0:
224,224,37715,2,0,L|224:164,1,56.2500021457673,8|0,0:3|0:0,0:0:0:0:
224,82,37937,2,0,L|164:82,1,56.2500021457673,4|0,0:3|0:0,0:0:0:0:
85,82,38159,2,0,L|85:22,2,56.2500021457673,8|0|4,0:3|0:0|0:3,0:0:0:0:
13,179,38602,2,0,L|13:331,1,146.249993305207,8|0,0:3|0:0,0:0:0:0:
42,352,39045,21,4,0:3:0:0:
149,263,39267,2,0,L|218:263,1,56.2500021457673,8|0,0:3|0:0,0:0:0:0:
256,205,39489,2,0,L|325:205,2,56.2500021457673,8|0|4,0:3|0:0|0:3,0:0:0:0:
171,82,39932,2,0,L|102:82,1,56.2500021457673,0|0,0:0|0:0,0:0:0:0:
41,114,40154,6,0,L|41:282,1,168.750006437302,8|8,0:3|0:3,0:0:0:0:
180,340,40819,2,0,L|180:171,1,168.750006437302,8|4,0:3|0:3,0:0:0:0:
332,171,41484,2,0,L|332:340,1,168.750006437302,8|4,0:3|0:3,0:0:0:0:
471,282,42149,2,0,L|471:113,1,168.750006437302,8|0,0:3|0:0,0:0:0:0:
469,70,42592,5,4,0:3:0:0:
320,23,42814,2,0,L|264:23,1,56.2500021457673,8|0,0:3|0:0,0:0:0:0:
229,105,43035,2,0,L|285:105,2,56.2500021457673,8|0|4,0:3|0:0|0:3,0:0:0:0:
111,67,43479,2,0,L|55:67,1,56.2500021457673,0|0,0:0|0:0,0:0:0:0:
6,144,43701,2,0,L|6:316,1,168.750006437302,8|8,0:3|0:3,0:0:0:0:
167,194,44366,21,4,0:3:0:0:
249,297,44587,2,0,L|308:297,1,56.2500021457673,8|0,0:3|0:0,0:0:0:0:
363,238,44809,2,0,L|363:179,2,56.2500021457673,8|0|4,0:3|0:0|0:3,0:0:0:0:
256,140,45252,2,0,L|256:81,2,56.2500021457673,8|0|4,0:3|0:0|0:3,0:0:0:0:
340,30,45696,2,0,L|491:29,1,146.249993305207,8|0,0:3|0:0,0:0:0:0:
506,67,46139,5,4,0:3:0:0:
416,155,46361,2,0,L|359:155,1,56.2500021457673,0|0,0:0|0:0,0:0:0:0:
313,230,46582,2,0,L|256:230,1,56.2500021457673,8|0,0:3|0:0,0:0:0:0:
210,155,46804,2,0,L|153:155,1,56.2500021457673,4|0,0:3|0:0,0:0:0:0:
200,69,47026,2,0,L|256:69,1,56.2500021457673
343,71,47247,2,0,L|343:252,1,168.750006437302,0|8,0:0|0:3,0:0:0:0:
117,309,47912,5,4,0:3:0:0:
245,249,48134,2,0,L|245:186,1,56.2500021457673,0|0,0:0|0:0,0:0:0:0:
173,148,48356,2,0,L|173:85,2,56.2500021457673,0|0|0,0:0|0:0|0:0,0:0:0:0:
117,309,48799,2,0,L|117:372,2,56.2500021457673,8|0|0,0:3|0:0|0:0,0:0:0:0:
245,249,49243,2,0,L|391:249,1,146.249993305207,0|0,0:0|0:0,0:0:0:0:
439,249,49686,21,4,0:3:0:0:
305,82,49908,2,0,L|245:82,1,56.2500021457673,0|0,0:0|0:0,0:0:0:0:
204,160,50129,2,0,L|264:160,2,56.2500021457673,8|0|4,0:3|0:0|0:3,0:0:0:0:
202,328,50572,2,0,L|262:328,1,56.2500021457673,0|0,0:0|0:0,0:0:0:0:
340,328,50794,2,0,L|340:155,1,168.750006437302,0|8,0:0|0:3,0:0:0:0:
194,66,51459,5,0,0:0:0:0:
96,170,51681,2,0,L|152:170,1,56.2500021457673,0|0,0:0|0:0,0:0:0:0:
137,253,51903,2,0,L|195:253,1,56.2500021457673,0|0,0:0|0:0,0:0:0:0:
177,335,52124,2,0,L|235:335,1,56.2500021457673,4|0,0:3|0:0,0:0:0:0:
275,262,52346,2,0,L|333:262,2,56.2500021457673,8|0|0,0:3|0:0|0:0,0:0:0:0:
255,121,52789,2,0,L|104:121,1,146.249993305207,0|0,0:0|0:0,0:0:0:0:
63,121,53233,5,4,0:3:0:0:
215,26,53454,2,0,L|273:26,1,56.2500021457673,0|0,0:0|0:0,0:0:0:0:
342,66,53676,2,0,L|400:66,2,56.2500021457673,8|0|4,0:3|0:0|0:3,0:0:0:0:
280,190,54120,2,0,L|340:190,1,56.2500021457673,0|0,0:0|0:0,0:0:0:0:
340,275,54341,22,0,L|171:275,1,168.750006437302,0|8,0:0|0:3,0:0:0:0:
340,106,55006,2,0,L|340:275,1,168.750006437302,8|4,0:3|0:3,0:0:0:0:
172,106,55671,2,0,L|340:106,1,168.750006437302,8|4,0:3|0:3,0:0:0:0:
172,274,56336,2,0,L|172:106,1,168.750006437302,8|0,0:3|0:0,0:0:0:0:
172,21,56780,37,0,0:0:0:0:
256,22,70967,5,0,0:0:0:0:
374,58,71189,2,0,L|429:58,4,31.8750006079674,0|0|0|0|8,0:0|0:0|0:0|0:0|0:3,0:0:0:0:
344,174,71632,1,0,0:0:0:0:
344,174,71743,2,0,L|344:309,2,127.50000243187,8|8|0,0:3|0:3|0:0,0:0:0:0:
256,203,72297,2,0,L|256:338,1,127.50000243187,4|0,0:3|0:0,0:0:0:0:
126,192,72741,5,8,0:3:0:0:
205,96,72962,2,0,L|206:33,1,63.7500012159348,0|0,0:0|0:0,0:0:0:0:
126,127,73184,2,0,L|126:191,2,63.7500012159348,4|0|0,0:3|0:0|0:0,0:0:0:0:
256,203,73627,2,0,L|256:267,2,63.7500012159348,4|0|0,0:3|0:0|0:0,0:0:0:0:
386,127,74071,2,0,L|386:258,1,127.50000243187,4|0,0:3|0:0,0:0:0:0:
256,95,74514,5,4,0:3:0:0:
467,72,74736,2,0,B|489:131|489:131|467:192|467:192|489:253|489:253|467:313,1,255.000004863739,8|0,0:3|0:0,0:0:0:0:
256,192,75401,1,4,0:3:0:0:
256,278,75622,2,0,L|256:344,1,63.7500012159348,4|0,0:3|0:0,0:0:0:0:
256,192,75844,2,0,L|256:56,1,127.50000243187,4|0,0:3|0:0,0:0:0:0:
126,41,76288,22,0,L|126:90,2,42.5000008106232,8|0|0,0:3|0:0|0:0,0:0:0:0:
147,109,76509,2,0,L|147:158,2,42.5000008106232,4|0|0,0:3|0:0|0:0,0:0:0:0:
126,178,76731,2,0,L|126:241,2,63.7500012159348,8|0|4,0:3|0:0|0:3,0:0:0:0:
256,234,77174,2,0,L|256:297,2,63.7500012159348,8|0|8,0:3|0:0|0:3,0:0:0:0:
386,178,77618,2,0,L|386:44,1,127.50000243187,4|8,0:3|0:3,0:0:0:0:
256,117,78061,5,4,0:3:0:0:
158,65,78283,2,0,L|125:65,4,31.8750006079674,0|0|0|0|8,0:0|0:0|0:0|0:0|0:3,0:0:0:0:
256,117,78726,1,0,0:0:0:0:
256,117,78837,2,0,L|255:256,2,127.50000243187,8|8|0,0:3|0:3|0:0,0:0:0:0:
167,165,79391,2,0,L|168:305,1,127.50000243187,4|0,0:3|0:0,0:0:0:0:
344,292,79834,5,8,0:3:0:0:
389,169,80056,2,0,L|324:169,1,63.7500012159348,0|0,0:0|0:0,0:0:0:0:
256,84,80278,2,0,L|321:84,2,63.7500012159348,4|0|0,0:3|0:0|0:0,0:0:0:0:
133,146,80721,2,0,L|68:146,2,63.7500012159348,4|0|0,0:3|0:0|0:0,0:0:0:0:
256,192,81165,2,0,L|256:324,1,127.50000243187,4|0,0:3|0:0,0:0:0:0:
110,190,81608,21,6,0:3:0:0:
110,190,81830,1,0,0:0:0:0:
189,90,82051,1,10,0:3:0:0:
189,90,82273,1,0,0:0:0:0:
323,90,82495,1,6,0:3:0:0:
323,90,82717,1,0,0:0:0:0:
402,190,82938,1,10,0:3:0:0:
402,190,83160,1,0,0:0:0:0:
256,192,83381,5,6,0:3:0:0:
256,192,83603,1,0,0:0:0:0:
256,319,83825,1,10,0:3:0:0:
148,251,84046,2,0,L|85:251,1,63.7500012159348,0|0,0:0|0:0,0:0:0:0:
38,168,84268,2,0,L|293:168,1,255.000004863739,6|10,0:3|0:3,0:0:0:0:
202,54,85155,5,4,0:3:0:0:
310,54,85376,2,0,L|346:54,4,31.8750006079674,0|0|0|0|8,0:0|0:0|0:0|0:0|0:3,0:0:0:0:
256,154,85820,1,0,0:0:0:0:
256,154,85931,2,0,L|256:292,2,127.50000243187,8|8|0,0:3|0:3|0:0,0:0:0:0:
343,189,86485,2,0,L|343:327,1,127.50000243187,4|0,0:3|0:0,0:0:0:0:
169,316,86928,21,8,0:3:0:0:
141,164,87150,2,0,L|71:163,1,63.7500012159348,0|0,0:0|0:0,0:0:0:0:
149,76,87372,2,0,L|216:76,2,63.7500012159348,4|0|0,0:3|0:0|0:0,0:0:0:0:
363,76,87815,2,0,L|296:76,2,63.7500012159348,4|0|0,0:3|0:0|0:0,0:0:0:0:
256,173,88258,2,0,L|256:300,1,127.50000243187,4|0,0:3|0:0,0:0:0:0:
163,245,88702,5,4,0:3:0:0:
337,312,88923,2,0,B|358:253|358:253|336:192|336:192|358:131|358:131|336:72,1,255.000004863739,8|0,0:3|0:0,0:0:0:0:
163,139,89588,1,4,0:3:0:0:
256,279,89810,2,0,L|256:358,1,63.7500012159348,4|0,0:3|0:0,0:0:0:0:
256,192,90032,2,0,L|255:53,1,127.50000243187,4|0,0:3|0:0,0:0:0:0:
386,41,90475,6,0,L|386:90,2,42.5000008106232,8|0|0,0:3|0:0|0:0,0:0:0:0:
365,109,90697,2,0,L|365:167,2,42.5000008106232,4|0|0,0:3|0:0|0:0,0:0:0:0:
386,178,90918,2,0,L|386:241,2,63.7500012159348,8|0|4,0:3|0:0|0:3,0:0:0:0:
256,234,91361,2,0,L|256:297,2,63.7500012159348,8|0|8,0:3|0:0|0:3,0:0:0:0:
126,178,91805,2,0,L|126:44,1,127.50000243187,4|8,0:3|0:3,0:0:0:0:
256,108,92249,21,4,0:3:0:0:
256,234,92470,2,0,L|256:265,4,31.8750006079674,0|0|0|0|8,0:0|0:0|0:0|0:0|0:3,0:0:0:0:
361,174,92914,1,0,0:0:0:0:
361,174,93024,2,0,L|497:174,2,127.50000243187,8|8|0,0:3|0:3|0:0,0:0:0:0:
291,110,93579,2,0,L|155:110,1,127.50000243187,4|0,0:3|0:0,0:0:0:0:
81,286,94022,5,8,0:3:0:0:
212,234,94244,2,0,L|278:234,1,63.7500012159348,0|0,0:0|0:0,0:0:0:0:
144,286,94465,2,0,L|78:286,2,63.7500012159348,4|0|0,0:3|0:0|0:0,0:0:0:0:
307,355,94909,2,0,L|373:355,2,63.7500012159348,4|0|0,0:3|0:0|0:0,0:0:0:0:
212,234,95352,1,4,0:3:0:0:
307,355,95574,1,0,0:0:0:0:
205,355,95795,5,6,0:3:0:0:
300,234,96017,2,0,L|301:144,1,63.7500012159348,0|0,0:0|0:0,0:0:0:0:
319,82,96239,2,0,L|191:82,1,127.50000243187,10|0,0:3|0:0,0:0:0:0:
80,232,96682,38,0,L|208:232,1,127.50000243187,10|0,0:3|0:0,0:0:0:0:
191,82,97052,1,0,0:0:0:0:
191,82,97125,2,0,L|318:82,1,127.50000243187,10|0,0:3|0:0,0:0:0:0:
440,192,97569,5,6,0:3:0:0:
332,234,97791,2,0,L|332:307,1,63.7500012159348,0|0,0:0|0:0,0:0:0:0:
281,357,98012,1,10,0:3:0:0:
145,303,98234,2,0,L|145:230,1,63.7500012159348,0|0,0:0|0:0,0:0:0:0:
196,180,98456,2,0,L|196:53,1,127.50000243187,6|0,0:3|0:0,0:0:0:0:
316,53,98899,2,0,L|316:180,1,127.50000243187,10|0,0:3|0:0,0:0:0:0:
256,350,99342,22,0,L|256:279,1,60,6|0,0:3|0:0,0:0:0:0:
256,336,127717,22,0,L|24:336,1,225.000008583069,4|0,0:3|0:0,0:0:0:0:
360,240,128161,2,0,L|496:240,2,112.5,8|0|0,0:3|0:0|0:0,0:0:0:0:
256,240,128604,2,0,L|24:240,1,225.000008583069,4|0,0:3|0:0,0:0:0:0:
360,144,129048,2,0,L|496:144,2,112.5,8|0|0,0:3|0:0|0:0,0:0:0:0:
256,144,129491,2,0,L|24:144,1,225.000008583069,4|0,0:3|0:0,0:0:0:0:
360,48,129935,2,0,L|496:48,2,112.5,8|0|0,0:3|0:0|0:0,0:0:0:0:
256,48,130378,6,0,L|24:48,1,225.000008583069,4|0,0:3|0:0,0:0:0:0:
144,280,131264,38,0,L|369:280,1,225.000008583069,4|0,0:3|0:0,0:0:0:0:
368,160,131708,2,0,L|368:47,2,112.5,8|0|0,0:3|0:0|0:0,0:0:0:0:
368,288,132151,2,0,L|143:288,1,225.000008583069,4|0,0:3|0:0,0:0:0:0:
144,160,132595,2,0,L|144:47,2,112.5,8|0|0,0:3|0:0|0:0,0:0:0:0:
144,296,133038,2,0,L|369:296,1,225.000008583069,4|0,0:3|0:0,0:0:0:0:
376,168,133481,1,8,0:3:0:0:
256,112,133703,2,0,L|256:200,1,75,0|0,0:0|0:0,0:0:0:0:
368,304,133924,22,0,L|143:304,1,225.000008583069,4|0,0:3|0:0,0:0:0:0:
256,24,134811,6,0,L|24:24,1,225.000008583069,4|0,0:3|0:0,0:0:0:0:
176,104,135255,2,0,L|176:216,2,112.5,8|0|0,0:3|0:0|0:0,0:0:0:0:
256,104,135698,2,0,L|488:104,1,225.000008583069,4|0,0:3|0:0,0:0:0:0:
336,184,136141,2,0,L|336:296,2,112.5,8|0|0,0:3|0:0|0:0,0:0:0:0:
256,184,136585,2,0,L|32:184,1,225,4|0,0:3|0:0,0:0:0:0:
176,264,137028,2,0,L|176:376,2,112.5,8|0|0,0:3|0:0|0:0,0:0:0:0:
256,264,137471,6,0,L|488:264,1,225.000008583069,4|0,0:3|0:0,0:0:0:0:
256,120,138358,37,4,0:3:0:0:
184,192,138580,2,0,L|96:192,2,82.5000025177003,0|0|8,0:0|0:0|0:3,0:0:0:0:
256,264,139023,2,0,L|256:360,2,89.9999972534181,0|0|4,0:0|0:0|0:3,0:0:0:0:
328,192,139466,2,0,L|432:192,2,97.4999955368044,0|0|8,0:0|0:0|0:3,0:0:0:0:
256,120,139910,2,0,L|256:16,2,104.999996795654,0|0|4,0:0|0:0|0:3,0:0:0:0:
184,192,140353,2,0,L|72:192,2,112.500004291535,0|0|8,0:0|0:0|0:3,0:0:0:0:
256,264,140797,2,0,L|256:383,2,120,0|0|4,0:0|0:0|0:3,0:0:0:0:
344,104,141240,37,0,0:0:0:0:
168,104,141462,1,0,0:0:0:0:
432,328,141905,6,0,L|432:80,1,225.000008583069
344,160,142348,2,0,L|344:272,2,112.5,8|0|0,0:3|0:0|0:0,0:0:0:0:
256,102,142792,2,0,L|256:328,1,225.000008583069,0|0,0:0|0:0,0:0:0:0:
168,272,143235,2,0,L|168:160,2,112.5,8|0|0,0:3|0:0|0:0,0:0:0:0:
80,328,143678,2,0,L|80:80,1,225.000008583069,4|0,0:3|0:0,0:0:0:0:
168,160,144122,2,0,L|168:272,2,112.5,8|0|0,0:3|0:0|0:0,0:0:0:0:
256,102,144565,6,0,L|256:328,1,225.000008583069,4|0,0:3|0:0,0:0:0:0:
64,256,145452,22,0,L|64:30,1,225.000008583069,4|0,0:3|0:0,0:0:0:0:
200,32,145895,2,0,L|312:32,2,112.5,8|0|0,0:3|0:0|0:0,0:0:0:0:
200,120,146339,2,0,L|200:345,1,225.000008583069,4|0,0:3|0:0,0:0:0:0:
312,344,146782,2,0,L|424:344,2,112.5,8|0|0,0:3|0:0|0:0,0:0:0:0:
312,256,147226,2,0,L|312:31,1,225.000008583069,4|0,0:3|0:0,0:0:0:0:
229,29,147669,2,0,L|117:29,2,112.5,8|0|0,0:3|0:0|0:0,0:0:0:0:
320,32,148113,6,0,L|320:257,1,225.000008583069,4|0,0:3|0:0,0:0:0:0:
8,32,148999,6,0,L|233:32,1,225.000008583069,4|0,0:3|0:0,0:0:0:0:
120,112,149442,2,0,L|232:112,2,112.500004291535,8|0|0,0:3|0:0|0:0,0:0:0:0:
120,192,149885,2,0,L|345:192,1,225.000008583069,4|0,0:3|0:0,0:0:0:0:
232,272,150329,2,0,L|344:272,2,112.500004291535,8|0|0,0:3|0:0|0:0,0:0:0:0:
120,352,150772,2,0,L|345:352,1,225.000008583069,4|0,0:3|0:0,0:0:0:0:
232,272,151215,2,0,L|120:272,2,112.500004291535,0|0|0,0:0|0:0|0:0,0:0:0:0:
232,192,151659,38,0,L|7:192,1,225.000008583069,4|0,0:3|0:0,0:0:0:0:
256,80,152546,37,4,0:3:0:0:
368,192,152767,2,0,L|368:280,2,82.5000025177003,0|0|8,0:0|0:0|0:3,0:0:0:0:
256,304,153211,2,0,L|160:304,2,89.9999972534181,0|0|4,0:0|0:0|0:3,0:0:0:0:
144,192,153654,2,0,L|144:88,2,97.4999955368044,0|0|8,0:0|0:0|0:3,0:0:0:0:
256,80,154098,2,0,L|360:80,2,104.999996795654,0|0|4,0:0|0:0|0:3,0:0:0:0:
368,192,154541,2,0,L|368:304,2,112.500004291535,0|0|8,0:0|0:0|0:3,0:0:0:0:
256,304,154985,2,0,L|136:304,2,120,0|0|4,0:0|0:0|0:3,0:0:0:0:
256,136,155427,2,0,L|256:0,1,127.50000243187,0|0,0:0|0:0,0:0:0:0:
168,0,155649,6,0,L|168:272,1,255.000004863739,0|0,0:0|0:0,0:0:0:0:
449,152,156092,6,0,L|449:264,2,100,4|0|0,0:3|0:0|0:0,0:0:0:0:
353,256,156536,2,0,L|353:156,2,100,8|0|0,0:3|0:0|0:0,0:0:0:0:
257,152,156979,2,0,L|257:264,2,100,4|0|0,0:3|0:0|0:0,0:0:0:0:
161,256,157423,2,0,L|161:156,2,100,8|0|0,0:3|0:0|0:0,0:0:0:0:
65,156,157866,22,0,L|65:260,1,100,4|0,0:3|0:0,0:0:0:0:
65,356,158161,1,0,0:0:0:0:
161,356,158309,2,0,L|161:252,1,100,8|0,0:3|0:0,0:0:0:0:
161,156,158604,1,0,0:0:0:0:
257,156,158753,6,0,L|257:220,1,56.2500021457673,4|0,0:3|0:0,0:0:0:0:
257,57,159048,1,0,0:0:0:0:
257,57,159196,1,0,0:0:0:0:
64,152,159639,6,0,L|64:264,2,100,4|0|0,0:3|0:0|0:0,0:0:0:0:
160,256,160083,2,0,L|160:156,2,100,8|0|0,0:3|0:0|0:0,0:0:0:0:
256,152,160526,2,0,L|256:264,2,100,4|0|0,0:3|0:0|0:0,0:0:0:0:
352,256,160970,2,0,L|352:156,2,100,8|0|0,0:3|0:0|0:0,0:0:0:0:
448,156,161413,22,0,L|448:260,1,100,4|0,0:3|0:0,0:0:0:0:
448,356,161708,1,0,0:0:0:0:
352,356,161856,2,0,L|352:252,1,100,8|0,0:3|0:0,0:0:0:0:
352,156,162151,1,0,0:0:0:0:
256,156,162300,1,4,0:3:0:0:
61,338,163186,6,0,L|173:338,2,100,4|0|0,0:3|0:0|0:0,0:0:0:0:
165,242,163630,2,0,L|65:242,2,100,8|0|0,0:3|0:0|0:0,0:0:0:0:
61,146,164073,2,0,L|173:146,2,100,4|0|0,0:3|0:0|0:0,0:0:0:0:
165,50,164517,2,0,L|65:50,2,100,8|0|0,0:3|0:0|0:0,0:0:0:0:
256,126,164960,6,0,L|256:230,1,100,4|0,0:3|0:0,0:0:0:0:
256,326,165255,1,0,0:0:0:0:
352,326,165403,2,0,L|352:222,1,100,8|0,0:3|0:0,0:0:0:0:
352,126,165698,1,0,0:0:0:0:
351,29,165846,22,0,L|294:28,1,56.2500021457673,4|0,0:3|0:0,0:0:0:0:
256,126,166142,1,0,0:0:0:0:
256,126,166290,1,0,0:0:0:0:
451,338,166733,6,0,L|339:338,2,100,4|0|0,0:3|0:0|0:0,0:0:0:0:
347,242,167177,2,0,L|447:242,2,100,8|0|0,0:3|0:0|0:0,0:0:0:0:
451,146,167620,2,0,L|339:146,2,100,4|0|0,0:3|0:0|0:0,0:0:0:0:
347,50,168064,2,0,L|447:50,2,100,8|0|0,0:3|0:0|0:0,0:0:0:0:
256,126,168507,6,0,L|256:230,1,100,4|0,0:3|0:0,0:0:0:0:
256,326,168802,1,0,0:0:0:0:
160,326,168950,2,0,L|160:222,1,100,8|0,0:3|0:0,0:0:0:0:
160,126,169245,1,0,0:0:0:0:
161,29,169393,1,4,0:3:0:0:
424,40,170280,37,4,0:3:0:0:
424,140,170427,1,0,0:0:0:0:
424,240,170575,1,0,0:0:0:0:
424,340,170723,1,8,0:3:0:0:
256,192,171167,1,4,0:3:0:0:
256,96,171315,1,4,0:3:0:0:
256,288,171610,1,8,0:3:0:0:
88,40,172053,37,4,0:3:0:0:
88,140,172200,1,0,0:0:0:0:
88,240,172348,1,0,0:0:0:0:
88,340,172496,1,8,0:3:0:0:
256,192,172940,1,4,0:3:0:0:
256,342,173236,1,0,0:0:0:0:
256,342,173384,2,0,L|256:182,1,150.000005722046,0|0,0:0|0:0,0:0:0:0:
256,88,173827,5,4,0:3:0:0:
152,88,173975,1,0,0:0:0:0:
152,192,174122,1,0,0:0:0:0:
256,192,174270,1,8,0:3:0:0:
464,192,174713,1,4,0:3:0:0:
360,192,174861,1,4,0:3:0:0:
256,360,175157,1,8,0:3:0:0:
256,88,175600,5,4,0:3:0:0:
360,88,175748,1,0,0:0:0:0:
360,192,175895,1,0,0:0:0:0:
256,192,176043,1,0,0:0:0:0:
48,192,176486,1,4,0:3:0:0:
256,192,176783,1,0,0:0:0:0:
256,192,176930,2,0,L|256:32,1,150.000005722046,0|0,0:0|0:0,0:0:0:0:
152,40,177374,21,4,0:3:0:0:
152,140,177521,1,0,0:0:0:0:
152,240,177669,1,0,0:0:0:0:
152,340,177817,1,8,0:3:0:0:
360,240,178260,1,4,0:3:0:0:
360,140,178408,1,4,0:3:0:0:
256,312,178704,1,8,0:3:0:0:
360,40,179147,21,4,0:3:0:0:
360,140,179294,1,0,0:0:0:0:
360,240,179442,1,0,0:0:0:0:
360,340,179590,1,8,0:3:0:0:
152,240,180033,1,4,0:3:0:0:
256,42,180330,1,0,0:0:0:0:
256,42,180477,2,0,L|256:192,1,150.000005722046,0|0,0:0|0:0,0:0:0:0:
256,296,180921,37,4,0:3:0:0:
152,296,181069,1,0,0:0:0:0:
152,192,181217,1,0,0:0:0:0:
256,192,181365,1,8,0:3:0:0:
256,32,181807,1,4,0:3:0:0:
160,32,181955,1,4,0:3:0:0:
352,32,182251,1,8,0:3:0:0:
256,296,182694,37,4,0:3:0:0:
360,296,182842,1,0,0:0:0:0:
360,192,182990,1,0,0:0:0:0:
256,192,183138,1,8,0:3:0:0:
256,32,183581,1,4,0:3:0:0:
420,275,198655,53,4,0:3:0:0:
256,276,198877,1,4,0:3:0:0:
214,275,198987,1,4,0:3:0:0:
173,275,199098,1,4,0:3:0:0:
132,275,199209,1,0,0:0:0:0:
91,275,199320,1,8,0:3:0:0:
91,108,199542,1,4,0:3:0:0:
256,108,199763,2,0,L|351:108,1,82.5000025177003,4|4,0:3|0:3,0:0:0:0:
420,108,199985,2,0,L|325:108,1,82.5000025177003,4|0,0:3|0:0,0:0:0:0:
227,108,200207,1,8,0:3:0:0:
420,275,200429,5,8,0:3:0:0:
420,108,200650,2,0,L|421:51,3,55.0000016784668,4|0|0|4,0:3|0:0|0:0|0:3,0:0:0:0:
338,275,201094,1,8,0:3:0:0:
338,108,201315,1,8,0:3:0:0:
256,275,201537,1,8,0:3:0:0:
256,108,201758,1,8,0:3:0:0:
256,108,201869,2,0,L|256:16,2,82.5000025177003,0|8|0,0:0|0:3|0:0,0:0:0:0:
256,192,202202,5,4,0:3:0:0:
256,360,202424,1,4,0:3:0:0:
214,360,202534,1,4,0:3:0:0:
173,360,202645,1,4,0:3:0:0:
132,360,202756,1,0,0:0:0:0:
91,360,202867,1,8,0:3:0:0:
91,192,203089,1,4,0:3:0:0:
256,192,203310,1,4,0:3:0:0:
256,192,203421,1,4,0:3:0:0:
256,192,203532,1,4,0:3:0:0:
256,192,203643,1,0,0:0:0:0:
256,192,203754,1,8,0:3:0:0:
256,24,203975,21,4,0:3:0:0:
392,112,204197,1,4,0:3:0:0:
392,112,204308,1,0,0:0:0:0:
392,112,204419,1,4,0:3:0:0:
256,208,204640,1,8,0:3:0:0:
136,96,204861,1,8,0:3:0:0:
136,96,204972,1,0,0:0:0:0:
256,8,205194,1,0,0:0:0:0:
256,8,205305,2,0,L|256:184,1,165.000005035401,8|0,0:3|0:0,0:0:0:0:
92,275,205749,5,4,0:3:0:0:
256,276,205971,1,4,0:3:0:0:
298,275,206081,1,4,0:3:0:0:
339,275,206192,1,4,0:3:0:0:
380,275,206303,1,0,0:0:0:0:
421,275,206414,1,8,0:3:0:0:
421,108,206636,1,4,0:3:0:0:
256,108,206857,2,0,L|161:108,1,82.5000025177003,4|0,0:3|0:0,0:0:0:0:
92,108,207079,2,0,L|187:108,1,82.5000025177003,4|0,0:3|0:0,0:0:0:0:
285,108,207301,1,8,0:3:0:0:
92,275,207523,5,4,0:3:0:0:
92,108,207744,2,0,L|91:51,3,55.0000016784668,4|0|0|4,0:3|0:0|0:0|0:3,0:0:0:0:
174,275,208188,1,8,0:3:0:0:
174,108,208409,1,8,0:3:0:0:
340,192,208852,1,8,0:3:0:0:
340,192,208963,2,0,L|432:192,2,82.5000025177003,0|8|0,0:0|0:3|0:0,0:0:0:0:
256,192,209296,21,4,0:3:0:0:
256,360,209518,1,4,0:3:0:0:
298,360,209628,1,4,0:3:0:0:
339,360,209739,1,4,0:3:0:0:
380,360,209850,1,0,0:0:0:0:
421,360,209961,1,8,0:3:0:0:
421,192,210183,1,4,0:3:0:0:
256,192,210404,1,4,0:3:0:0:
256,192,210515,1,4,0:3:0:0:
256,192,210626,1,4,0:3:0:0:
256,192,210737,1,0,0:0:0:0:
256,192,210848,1,8,0:3:0:0:
256,24,211069,5,4,0:3:0:0:
120,112,211291,1,4,0:3:0:0:
120,112,211402,1,0,0:0:0:0:
120,112,211513,1,4,0:3:0:0:
256,208,211734,1,8,0:3:0:0:
376,96,211955,1,8,0:3:0:0:
376,96,212066,1,0,0:0:0:0:
256,8,212288,1,0,0:0:0:0:
256,8,212399,1,8,0:3:0:0:
256,8,212510,1,0,0:0:0:0:
256,8,212621,1,0,0:0:0:0:
138,192,212843,6,0,L|195:192,3,56.2500021457673,4|0|0|0,0:3|0:0|0:0|0:0,0:0:0:0:
256,74,213286,2,0,L|256:131,3,56.2500021457673,4|0|0|0,0:3|0:0|0:0|0:0,0:0:0:0:
373,192,213729,2,0,L|317:192,3,56.2500021457673,4|0|0|0,0:3|0:0|0:0|0:0,0:0:0:0:
256,309,214172,2,0,L|256:253,3,56.2500021457673,4|0|0|0,0:3|0:0|0:0|0:0,0:0:0:0:
173,109,214616,2,0,L|212:148,3,56.2500021457673,4|0|0|0,0:3|0:0|0:0|0:0,0:0:0:0:
338,274,215059,2,0,L|299:235,3,56.2500021457673,4|0|0|0,0:3|0:0|0:0|0:0,0:0:0:0:
212,235,215503,2,0,L|173:274,1,56.2500021457673,4|0,0:3|0:0,0:0:0:0:
299,148,215724,2,0,L|338:109,1,56.2500021457673,0|0,0:0|0:0,0:0:0:0:
212,148,215946,2,0,L|173:109,1,56.2500021457673,4|0,0:3|0:0,0:0:0:0:
299,235,216168,2,0,L|338:274,1,56.2500021457673,0|0,0:0|0:0,0:0:0:0:
338,109,216390,22,0,L|299:148,3,56.2500021457673,4|0|0|0,0:3|0:0|0:0|0:0,0:0:0:0:
338,274,216833,2,0,L|299:235,3,56.2500021457673,4|0|0|0,0:3|0:0|0:0|0:0,0:0:0:0:
173,274,217276,2,0,L|212:235,3,56.2500021457673,4|0|0|0,0:3|0:0|0:0|0:0,0:0:0:0:
173,109,217719,2,0,L|212:148,3,56.2500021457673,4|0|0|0,0:3|0:0|0:0|0:0,0:0:0:0:
373,192,218163,2,0,L|317:192,3,56.2500021457673,4|0|0|0,0:3|0:0|0:0|0:0,0:0:0:0:
138,192,218606,2,0,L|195:192,3,56.2500021457673,4|0|0|0,0:3|0:0|0:0|0:0,0:0:0:0:
256,131,219050,2,0,L|256:74,1,56.2500021457673,4|0,0:3|0:0,0:0:0:0:
256,253,219271,2,0,L|256:309,1,56.2500021457673,0|0,0:0|0:0,0:0:0:0:
317,192,219493,2,0,L|373:192,1,56.2500021457673,4|0,0:3|0:0,0:0:0:0:
195,192,219715,2,0,L|138:192,1,56.2500021457673,0|0,0:0|0:0,0:0:0:0:
256,32,219936,6,0,L|320:32,1,56.2500021457673,4|0,0:3|0:0,0:0:0:0:
256,32,220158,2,0,L|192:32,1,56.2500021457673,4|0,0:3|0:0,0:0:0:0:
264,112,220380,2,0,L|328:112,1,56.2500021457673,4|0,0:3|0:0,0:0:0:0:
248,112,220601,2,0,L|184:112,1,56.2500021457673,4|0,0:3|0:0,0:0:0:0:
272,192,220823,2,0,L|336:192,1,56.2500021457673,4|0,0:3|0:0,0:0:0:0:
240,192,221045,2,0,L|176:192,1,56.2500021457673,4|0,0:3|0:0,0:0:0:0:
280,272,221266,2,0,L|344:272,1,56.2500021457673,4|0,0:3|0:0,0:0:0:0:
232,272,221488,2,0,L|168:272,1,56.2500021457673,4|0,0:3|0:0,0:0:0:0:
288,352,221710,6,0,L|352:352,1,56.2500021457673,4|0,0:3|0:0,0:0:0:0:
224,352,221932,2,0,L|160:352,1,56.2500021457673,4|0,0:3|0:0,0:0:0:0:
296,272,222153,2,0,L|360:272,1,56.2500021457673,4|0,0:3|0:0,0:0:0:0:
216,272,222375,2,0,L|152:272,1,56.2500021457673,4|0,0:3|0:0,0:0:0:0:
304,192,222597,2,0,L|368:192,1,56.2500021457673,4|0,0:3|0:0,0:0:0:0:
208,192,222819,2,0,L|144:192,1,56.2500021457673,4|0,0:3|0:0,0:0:0:0:
312,112,223040,2,0,L|376:112,1,56.2500021457673,4|0,0:3|0:0,0:0:0:0:
200,112,223262,2,0,L|136:112,1,56.2500021457673,4|0,0:3|0:0,0:0:0:0:
256,16,223483,6,0,L|416:16,1,112.500004291535,8|0,0:3|0:0,0:0:0:0:
256,16,223927,2,0,L|143:16,1,112.500004291535,0|0,0:0|0:0,0:0:0:0:
256,16,224370,2,0,L|256:128,1,112.500004291535,0|0,0:0|0:0,0:0:0:0:
256,241,224813,2,0,L|256:128,1,112.500004291535,0|0,0:0|0:0,0:0:0:0:
336,312,225257,5,0,0:0:0:0:
176,312,225478,2,0,L|96:312,2,75,0|0|0,0:0|0:0|0:0,0:0:0:0:
336,312,225922,2,0,L|416:312,1,75,0|0,0:0|0:0,0:0:0:0:
480,256,226143,6,0,B|480:176|480:176|408:176|408:176|408:104|408:104|328:104|328:104|328:32|328:32|254:32,1,450,0|0,0:0|0:0,0:0:0:0:
104,64,227030,6,0,L|104:168,1,89.9999972534181,4|0,0:3|0:0,0:0:0:0:
56,232,227252,1,0,0:0:0:0:
152,232,227363,1,0,0:0:0:0:
104,312,227474,2,0,L|104:360,4,44.999998626709,2|0|0|0|0,0:3|0:0|0:0|0:0|0:0,0:0:0:0:
256,216,227917,22,0,L|376:216,1,89.9999972534181,8|0,0:3|0:0,0:0:0:0:
440,216,228139,1,0,0:0:0:0:
440,128,228249,2,0,L|320:128,1,89.9999972534181,8|0,0:3|0:0,0:0:0:0:
256,128,228471,1,0,0:0:0:0:
256,40,228582,1,8,0:3:0:0:
168,40,228693,1,0,0:0:0:0:
168,128,228804,6,0,L|168:224,1,89.9999972534181,4|0,0:3|0:0,0:0:0:0:
344,218,229025,2,0,L|344:128,1,89.9999972534181,0|0,0:0|0:0,0:0:0:0:
256,192,229247,2,0,L|256:376,1,179.999994506836,2|0,0:3|0:0,0:0:0:0:
80,192,229690,6,0,L|80:102,1,89.9999972534181,8|0,0:3|0:0,0:0:0:0:
256,102,229912,2,0,L|256:194,1,89.9999972534181,8|0,0:3|0:0,0:0:0:0:
168,24,230134,2,0,L|348:24,1,179.999994506836,8|0,0:3|0:0,0:0:0:0:
464,208,230577,22,0,L|464:298,1,89.9999972534181,4|0,0:3|0:0,0:0:0:0:
384,344,230799,1,0,0:0:0:0:
384,248,230910,1,0,0:0:0:0:
304,296,231020,2,0,L|259:296,4,44.999998626709,2|0|0|0|0,0:3|0:0|0:0|0:0|0:0,0:0:0:0:
168,208,231464,6,0,L|72:208,1,89.9999972534181,8|0,0:3|0:0,0:0:0:0:
80,296,231685,1,0,0:0:0:0:
168,296,231796,2,0,L|264:296,1,89.9999972534181,8|0,0:3|0:0,0:0:0:0:
256,208,232017,1,0,0:0:0:0:
256,120,232129,1,8,0:3:0:0:
256,32,232240,1,0,0:0:0:0:
176,80,232350,6,0,L|80:80,1,89.9999972534181,4|0,0:3|0:0,0:0:0:0:
336,80,232572,2,0,L|432:80,1,89.9999972534181,0|0,0:0|0:0,0:0:0:0:
256,120,232794,1,2,0:3:0:0:
256,120,232849,1,0,0:0:0:0:
256,120,232905,2,0,L|256:224,2,89.9999972534181,0|0|0,0:0|0:0|0:0,0:0:0:0:
176,170,233237,22,0,L|80:170,1,89.9999972534181,8|0,0:3|0:0,0:0:0:0:
336,170,233459,2,0,L|432:170,1,89.9999972534181,8|0,0:3|0:0,0:0:0:0:
256,210,233681,1,8,0:3:0:0:
256,210,233736,1,0,0:0:0:0:
256,210,233792,2,0,L|256:314,2,89.9999972534181,0|0|0,0:0|0:0|0:0,0:0:0:0:
256,120,234124,5,4,0:3:0:0:
296,40,234235,1,0,0:0:0:0:
384,40,234346,1,0,0:0:0:0:
432,120,234456,1,0,0:0:0:0:
344,120,234567,2,0,L|344:176,4,44.999998626709,2|0|0|0|0,0:3|0:0|0:0|0:0|0:0,0:0:0:0:
344,280,235011,6,0,L|344:370,1,89.9999972534181,8|0,0:3|0:0,0:0:0:0:
256,368,235232,1,0,0:0:0:0:
168,368,235343,2,0,L|168:278,1,89.9999972534181,8|0,0:3|0:0,0:0:0:0:
256,280,235565,1,0,0:0:0:0:
256,192,235676,1,8,0:3:0:0:
168,192,235787,1,0,0:0:0:0:
80,192,235897,38,0,L|80:80,1,89.9999972534181,4|0,0:3|0:0,0:0:0:0:
256,102,236119,2,0,L|256:214,1,89.9999972534181,0|0,0:0|0:0,0:0:0:0:
168,192,236341,2,0,L|168:5,1,179.999994506836,2|0,0:3|0:0,0:0:0:0:
432,192,236784,38,0,L|432:80,1,89.9999972534181,8|0,0:3|0:0,0:0:0:0:
256,102,237006,2,0,L|256:214,1,89.9999972534181,8|0,0:3|0:0,0:0:0:0:
344,192,237228,2,0,L|344:5,1,179.999994506836,8|0,0:3|0:0,0:0:0:0:
168,12,237671,6,0,L|168:115,1,89.9999972534181,4|0,0:3|0:0,0:0:0:0:
168,192,237893,1,0,0:0:0:0:
168,280,238003,1,0,0:0:0:0:
168,368,238114,2,0,L|120:368,4,44.999998626709,2|0|0|0|0,0:3|0:0|0:0|0:0|0:0,0:0:0:0:
256,208,238558,6,0,L|256:96,1,89.9999972534181,8|0,0:3|0:0,0:0:0:0:
344,120,238779,1,0,0:0:0:0:
344,208,238890,2,0,L|344:320,1,89.9999972534181,8|0,0:3|0:0,0:0:0:0:
256,296,239111,1,0,0:0:0:0:
168,296,239223,1,8,0:3:0:0:
168,208,239333,1,0,0:0:0:0:
168,120,239444,22,0,L|78:120,2,89.9999972534181,4|0|0,0:3|0:0|0:0,0:0:0:0:
328,104,239888,2,0,L|327:10,2,93.75,2|0|0,0:3|0:0|0:0,0:0:0:0:
344,264,240331,2,0,L|441:264,2,97.4999955368044,4|0|0,0:3|0:0|0:0,0:0:0:0:
184,280,240774,2,0,L|184:381,2,101.250000386238,2|0|0,0:3|0:0|0:0,0:0:0:0:
256,88,241218,5,4,0:3:0:0:
360,192,241439,1,0,0:0:0:0:
256,192,241550,1,0,0:0:0:0:
152,192,241661,1,8,0:3:0:0:
360,192,241883,1,0,0:0:0:0:
151,296,242104,6,0,L|255:296,1,104.999996795654,4|0,0:3|0:0,0:0:0:0:
255,192,242326,2,0,L|151:192,1,104.999996795654,4|0,0:3|0:0,0:0:0:0:
151,296,242548,1,8,0:3:0:0:
361,296,242769,1,0,0:0:0:0:
256,88,242991,21,4,0:3:0:0:
152,192,243212,1,0,0:0:0:0:
256,192,243323,1,0,0:0:0:0:
360,192,243434,1,8,0:3:0:0:
152,192,243656,1,0,0:0:0:0:
360,296,243878,6,0,L|248:295,1,104.999996795654,4|0,0:3|0:0,0:0:0:0:
256,192,244099,2,0,L|360:192,1,104.999996795654,4|0,0:3|0:0,0:0:0:0:
360,296,244321,1,8,0:3:0:0:
152,296,244542,1,0,0:0:0:0:
256,88,244765,5,4,0:3:0:0:
152,192,244986,1,0,0:0:0:0:
152,88,245097,1,0,0:0:0:0:
256,88,245208,1,8,0:3:0:0:
256,296,245430,1,0,0:3:0:0:
152,192,245651,22,0,L|48:192,1,104.999996795654,4|0,0:3|0:0,0:0:0:0:
48,296,245873,2,0,L|152:296,1,104.999996795654,4|0,0:3|0:0,0:0:0:0:
152,192,246095,1,8,0:3:0:0:
256,296,246316,1,0,0:0:0:0:
256,88,246538,5,4,0:3:0:0:
360,192,246759,1,0,0:0:0:0:
360,88,246870,1,0,0:0:0:0:
256,88,246981,1,8,0:3:0:0:
256,296,247203,1,0,0:0:0:0:
360,192,247425,6,0,L|464:191,1,104.999996795654,4|0,0:3|0:0,0:0:0:0:
464,296,247646,2,0,L|360:296,1,104.999996795654,4|0,0:3|0:0,0:0:0:0:
360,192,247868,1,8,0:3:0:0:
256,296,248089,1,0,0:0:0:0:
256,88,248311,21,4,0:3:0:0:
140,192,248533,1,0,0:0:0:0:
36,192,248644,1,0,0:0:0:0:
140,192,248755,1,8,0:3:0:0:
372,192,248977,2,0,L|444:192,3,52.4999983978272
340,192,249198,2,0,L|340:360,2,157.499995193482,4|0|0,0:3|0:0|0:0,0:0:0:0:
360,88,249642,1,8,0:3:0:0:
152,88,249863,1,0,0:0:0:0:
256,296,250085,5,4,0:3:0:0:
405,192,250307,1,0,0:0:0:0:
509,192,250418,1,0,0:0:0:0:
405,192,250528,2,0,L|301:192,1,104.999996795654,8|0,0:3|0:0,0:0:0:0:
107,192,250750,2,0,L|211:192,1,104.999996795654,8|0,0:3|0:0,0:0:0:0:
255,4,250972,6,0,B|247:44|247:44|263:76|263:76|255:116,1,116.250000886917,4|0,0:3|0:0,0:0:0:0:
255,380,251193,2,0,B|247:340|247:340|263:308|263:308|255:268,1,116.250000886917,4|0,0:3|0:0,0:0:0:0:
107,192,251415,1,8,0:3:0:0:
405,192,251637,1,8,0:3:0:0:
176,88,251858,21,4,0:3:0:0:
360,280,252080,1,0,0:0:0:0:
256,320,252191,1,0,0:0:0:0:
152,280,252302,2,0,L|152:168,1,112.500004291535,8|0,0:3|0:0,0:0:0:0:
360,280,252523,2,0,L|360:168,1,112.500004291535,8|0,0:3|0:0,0:0:0:0:
256,320,252745,21,4,0:3:0:0:
256,64,252967,1,0,0:0:0:0:
256,192,253078,1,0,0:0:0:0:
152,280,253188,2,0,L|40:280,1,112.500004291535,8|0,0:3|0:0,0:0:0:0:
360,280,253410,2,0,L|472:280,1,112.500004291535,8|0,0:3|0:0,0:0:0:0:
249,198,253632,37,4,0:3:0:0:
249,185,253743,1,4,0:3:0:0:
262,185,253853,1,8,0:3:0:0:
262,198,253964,1,8,0:3:0:0:
243,204,254075,5,4,0:3:0:0:
243,179,254186,1,4,0:3:0:0:
268,179,254296,1,8,0:3:0:0:
268,204,254407,1,8,0:3:0:0:
237,210,254519,21,4,0:3:0:0:
237,173,254630,1,4,0:3:0:0:
274,173,254740,1,8,0:3:0:0:
274,210,254851,1,8,0:3:0:0:
321,90,254962,6,0,L|433:90,1,112.500004291535,8|0,0:3|0:0,0:0:0:0:
191,294,255184,2,0,L|79:294,1,112.500004291535,4|0,0:0|0:0,0:0:0:0:
256,192,255405,22,0,B|227:192|227:192|227:164|227:164|283:164|283:164|283:220|283:220|227:220,1,225.000008583069,2|0,0:3|0:0,0:0:0:0:
