osu file format v14

[General]
AudioFilename: audio.mp3
AudioLeadIn: 0
PreviewTime: 225257
Countdown: 0
SampleSet: Normal
StackLeniency: 0.7
Mode: 0
LetterboxInBreaks: 0
WidescreenStoryboard: 0

[Editor]
Bookmarks: 28409,56784,70971,99346,127721,156092,170280,184472,198659,205749,212843,219936,227030,234124,241218,248311,253632
DistanceSpacing: 1
BeatDivisor: 4
GridSize: 4
TimelineZoom: 1.3

[Metadata]
Title:Groundhog (Beat Juggle)
TitleUnicode:Groundhog (Beat Juggle)
Artist:Noisia
ArtistUnicode:Noisia
Creator:Arphimigon
Version:Advanced
Source:DJ Hero
Tags:the scratch perverts progressive difficulty
BeatmapID:1130378
BeatmapSetID:475154

[Difficulty]
HPDrainRate:4
CircleSize:3
OverallDifficulty:6
ApproachRate:7
SliderMultiplier:2.3
SliderTickRate:2

[Events]
//Background and Video events
0,0,"bg.png",0,0
//Break Periods
2,56980,70067
2,99542,126817
2,184468,197755
//Storyboard Layer 0 (Background)
//Storyboard Layer 1 (Fail)
//Storyboard Layer 2 (Pass)
//Storyboard Layer 3 (Foreground)
//Storyboard Sound Samples

[TimingPoints]
30,443.360673908224,4,1,3,55,1,0
28405,-133.333333333333,4,1,3,55,0,0
31841,-133.333333333333,4,1,3,25,0,0
31951,-133.333333333333,4,1,3,55,0,0
35388,-133.333333333333,4,1,3,25,0,0
35498,-133.333333333333,4,1,3,55,0,0
38934,-133.333333333333,4,1,3,25,0,0
39044,-133.333333333333,4,1,3,55,0,0
42481,-133.333333333333,4,1,3,25,0,0
42591,-133.333333333333,4,1,3,55,0,0
46028,-133.333333333333,4,1,3,25,0,0
46138,-133.333333333333,4,1,3,55,0,0
49575,-133.333333333333,4,1,3,25,0,0
49685,-133.333333333333,4,1,3,55,0,0
53122,-133.333333333333,4,1,3,25,0,0
53232,-133.333333333333,4,1,3,55,0,0
56669,-133.333333333333,4,1,3,25,0,0
56779,-133.333333333333,4,1,3,55,0,0
70967,-117.647058823529,4,1,3,55,0,0
127717,-100,4,1,3,55,0,0
170280,-95.2380952380952,4,1,3,55,0,0
198655,-90.9090909090909,4,1,3,55,0,0
241218,-83.3333333333333,4,1,3,65,0,0
255516,-83.3333333333333,4,1,3,5,0,0

[Colours]
Combo1 : 121,121,121
Combo2 : 255,128,0
Combo3 : 0,0,255
Combo4 : 255,0,255

[HitObjects]
256,192,28405,5,4,0:3:0:0:
172,192,28626,2,0,L|80:192,2,86.2500032901765,8|8|4,0:3|0:3|0:3,0:0:0:0:
340,192,29513,2,0,L|488:192,1,129.375004935265,8|8,0:3|0:3,0:0:0:0:
468,28,30178,5,4,0:3:0:0:
384,28,30399,2,0,L|292:28,2,86.2500032901765,8|8|4,0:3|0:3|0:3,0:0:0:0:
384,116,31065,2,0,L|292:116,1,86.2500032901765,8|4,0:3|0:3,0:0:0:0:
212,116,31508,2,0,L|80:116,1,129.375004935265,8|0,0:3|0:0,0:0:0:0:
40,116,31951,5,4,0:3:0:0:
40,204,32173,2,0,L|40:290,2,86.2500032901765,8|8|4,0:3|0:3|0:3,0:0:0:0:
212,288,33060,2,0,L|352:288,1,129.375004935265,8|8,0:3|0:3,0:0:0:0:
464,192,33725,21,4,0:3:0:0:
376,192,33947,2,0,L|284:192,1,86.2500032901765,0|8,0:0|0:3,0:0:0:0:
288,104,34390,2,0,L|374:104,2,86.2500032901765,4|8|4,0:3|0:3|0:3,0:0:0:0:
200,104,35055,2,0,L|200:244,1,129.375004935265,8|0,0:3|0:0,0:0:0:0:
200,276,35498,5,4,0:3:0:0:
128,332,35720,2,0,L|40:332,2,86.2500032901765,8|8|4,0:3|0:3|0:3,0:0:0:0:
300,332,36607,2,0,L|429:332,1,129.375004935265,8|8,0:3|0:3,0:0:0:0:
496,216,37272,5,4,0:3:0:0:
432,156,37493,2,0,L|432:64,2,86.2500032901765,8|8|4,0:3|0:3|0:3,0:0:0:0:
344,156,38159,2,0,L|344:64,1,86.2500032901765,8|4,0:3|0:3,0:0:0:0:
256,72,38602,2,0,L|256:232,1,129.375004935265,8|0,0:3|0:0,0:0:0:0:
256,244,39045,21,4,0:3:0:0:
256,332,39267,2,0,L|168:332,2,86.2500032901765,8|8|4,0:3|0:3|0:3,0:0:0:0:
428,332,40154,6,0,L|428:184,1,129.375004935265,8|8,0:3|0:3,0:0:0:0:
324,128,40819,2,0,L|324:257,1,129.375004935265,8|4,0:3|0:3,0:0:0:0:
188,257,41484,2,0,L|188:128,1,129.375004935265,8|4,0:3|0:3,0:0:0:0:
84,202,42149,2,0,L|84:332,1,129.375004935265,8|0,0:3|0:0,0:0:0:0:
84,376,42592,5,4,0:3:0:0:
169,348,42814,2,0,L|256:348,2,86.2500032901765,8|8|4,0:3|0:3|0:3,0:0:0:0:
256,192,43701,2,0,L|256:62,1,129.375004935265,8|8,0:3|0:3,0:0:0:0:
128,60,44366,21,4,0:3:0:0:
128,144,44587,2,0,L|128:232,1,86.2500032901765,8|8,0:3|0:3,0:0:0:0:
212,264,45031,2,0,L|212:352,2,86.2500032901765,4|8|4,0:3|0:3|0:3,0:0:0:0:
300,264,45696,2,0,L|456:264,1,129.375004935265,8|0,0:3|0:0,0:0:0:0:
472,264,46139,5,4,0:3:0:0:
472,176,46361,2,0,L|472:88,1,86.2500032901765,0|8,0:0|0:3,0:0:0:0:
388,104,46804,2,0,L|388:16,1,86.2500032901765,4|0,0:3|0:0,0:0:0:0:
304,16,47247,2,0,L|304:148,1,129.375004935265,0|8,0:0|0:3,0:0:0:0:
256,260,47912,5,4,0:3:0:0:
200,192,48134,2,0,L|108:192,1,86.2500032901765,0|0,0:0|0:0,0:0:0:0:
116,104,48577,2,0,L|24:104,2,86.2500032901765,0|8|0,0:0|0:3|0:0,0:0:0:0:
168,36,49243,2,0,L|304:36,1,129.375004935265,0|0,0:0|0:0,0:0:0:0:
340,36,49686,21,4,0:3:0:0:
404,96,49908,2,0,L|492:96,2,86.2500032901765,0|8|4,0:0|0:3|0:3,0:0:0:0:
256,192,50794,2,0,L|256:340,1,129.375004935265,0|8,0:0|0:3,0:0:0:0:
140,268,51459,5,0,0:0:0:0:
140,180,51681,2,0,L|140:84,1,86.2500032901765,0|0,0:0|0:0,0:0:0:0:
232,92,52124,2,0,L|232:5,2,86.2500032901765,4|8|0,0:3|0:3|0:0,0:0:0:0:
320,92,52789,2,0,L|456:92,1,129.375004935265,0|0,0:0|0:0,0:0:0:0:
492,92,53233,5,4,0:3:0:0:
492,176,53454,2,0,L|492:268,2,86.2500032901765,0|8|4,0:0|0:3|0:3,0:0:0:0:
336,252,54341,22,0,L|206:252,1,129.375004935265,0|8,0:0|0:3,0:0:0:0:
176,132,55006,2,0,L|305:132,1,129.375004935265,8|4,0:3|0:3,0:0:0:0:
336,260,55671,2,0,L|206:260,1,129.375004935265,8|4,0:3|0:3,0:0:0:0:
176,124,56336,2,0,L|305:124,1,129.375004935265,8|0,0:3|0:0,0:0:0:0:
348,124,56780,5,4,0:3:0:0:
60,192,70967,5,0,0:0:0:0:
256,192,71411,2,0,L|360:192,1,97.7500018644333,8|0,0:3|0:0,0:0:0:0:
404,192,71743,2,0,L|404:60,2,97.7500018644333,8|8|0,0:3|0:3|0:0,0:0:0:0:
404,240,72297,2,0,L|404:344,1,97.7500018644333,4|0,0:3|0:0,0:0:0:0:
304,332,72741,21,8,0:3:0:0:
256,248,72962,2,0,L|256:200,1,48.8750009322167,0|0,0:0|0:0,0:0:0:0:
256,148,73184,2,0,L|256:50,1,97.7500018644333,4|0,0:3|0:0,0:0:0:0:
160,52,73627,2,0,L|160:149,1,97.7500018644333,4|0,0:3|0:0,0:0:0:0:
160,248,74071,2,0,L|160:345,1,97.7500018644333,4|0,0:3|0:0,0:0:0:0:
256,348,74514,5,4,0:3:0:0:
256,252,74736,2,0,B|356:252|356:252|356:156,1,195.500003728867,8|0,0:3|0:0,0:0:0:0:
256,156,75401,1,4,0:3:0:0:
64,192,75844,1,4,0:3:0:0:
158,364,76288,6,0,L|256:364,1,97.7500018644333,8|4,0:3|0:3,0:0:0:0:
256,268,76731,2,0,L|353:268,1,97.7500018644333,8|4,0:3|0:3,0:0:0:0:
352,172,77174,2,0,L|449:172,1,97.7500018644333,8|8,0:3|0:3,0:0:0:0:
448,76,77618,2,0,L|350:76,1,97.7500018644333,4|8,0:3|0:3,0:0:0:0:
256,76,78061,21,4,0:3:0:0:
256,272,78504,2,0,L|152:272,1,97.7500018644333,8|0,0:3|0:0,0:0:0:0:
108,272,78837,2,0,L|108:376,2,97.7500018644333,8|8|0,0:3|0:3|0:0,0:0:0:0:
108,224,79391,2,0,L|108:112,1,97.7500018644333,4|0,0:3|0:0,0:0:0:0:
172,52,79834,5,8,0:3:0:0:
256,104,80056,2,0,L|308:104,1,48.8750009322167,0|0,0:0|0:0,0:0:0:0:
352,108,80278,2,0,L|352:205,1,97.7500018644333,4|0,0:3|0:0,0:0:0:0:
448,208,80721,2,0,L|448:305,1,97.7500018644333,4|0,0:3|0:0,0:0:0:0:
352,303,81165,2,0,L|352:205,1,97.7500018644333,4|0,0:3|0:0,0:0:0:0:
256,192,81608,5,6,0:3:0:0:
256,192,81830,1,0,0:0:0:0:
256,192,82051,2,0,L|256:92,1,97.7500018644333,10|0,0:3|0:0,0:0:0:0:
156,96,82495,21,6,0:3:0:0:
156,96,82717,1,0,0:0:0:0:
156,96,82938,2,0,L|156:196,1,97.7500018644333,10|0,0:3|0:0,0:0:0:0:
60,192,83381,5,6,0:3:0:0:
60,192,83603,1,0,0:0:0:0:
60,192,83824,2,0,L|60:40,1,146.62500279665,10|0,0:3|0:0,0:0:0:0:
108,44,84268,2,0,L|304:44,1,195.500003728867,6|10,0:3|0:3,0:0:0:0:
256,232,85155,5,4,0:3:0:0:
448,192,85598,2,0,L|316:192,1,97.7500018644333,8|0,0:3|0:0,0:0:0:0:
304,192,85931,2,0,L|304:68,2,97.7500018644333,8|8|0,0:3|0:3|0:0,0:0:0:0:
256,192,86485,2,0,L|158:192,1,97.7500018644333,4|0,0:3|0:0,0:0:0:0:
160,288,86928,21,8,0:3:0:0:
256,288,87150,2,0,L|256:340,1,48.8750009322167,0|0,0:0|0:0,0:0:0:0:
304,336,87372,2,0,L|416:336,1,97.7500018644333,4|0,0:3|0:0,0:0:0:0:
400,240,87815,2,0,L|400:128,1,97.7500018644333,4|0,0:3|0:0,0:0:0:0:
304,144,88258,2,0,L|192:144,1,97.7500018644333,4|0,0:3|0:0,0:0:0:0:
256,228,88702,5,4,0:3:0:0:
256,324,88923,2,0,B|156:324|156:324|156:228,1,195.500003728867,8|0,0:3|0:0,0:0:0:0:
256,192,89588,1,4,0:3:0:0:
60,192,90032,1,4,0:3:0:0:
256,192,90475,6,0,L|360:192,1,97.7500018644333,8|4,0:3|0:3,0:0:0:0:
353,96,90918,2,0,L|256:96,1,97.7500018644333,8|4,0:3|0:3,0:0:0:0:
256,192,91362,2,0,L|152:192,1,97.7500018644333,8|8,0:3|0:3,0:0:0:0:
158,96,91805,2,0,L|256:96,1,97.7500018644333,4|8,0:3|0:3,0:0:0:0:
256,192,92249,21,4,0:3:0:0:
107,289,92692,2,0,L|205:289,1,97.7500018644333,8|0,0:3|0:0,0:0:0:0:
256,289,93024,2,0,L|256:192,2,97.7500018644333,8|8|0,0:3|0:3|0:0,0:0:0:0:
307,289,93579,2,0,L|404:289,1,97.7500018644333,4|0,0:3|0:0,0:0:0:0:
404,192,94022,5,8,0:3:0:0:
404,96,94244,2,0,L|404:40,1,48.8750009322167,0|0,0:0|0:0,0:0:0:0:
353,48,94465,2,0,L|256:48,1,97.7500018644333,4|0,0:3|0:0,0:0:0:0:
160,72,94909,2,0,L|160:169,1,97.7500018644333,4|0,0:3|0:0,0:0:0:0:
256,192,95352,2,0,L|256:289,1,97.7500018644333,4|0,0:3|0:0,0:0:0:0:
160,336,95795,6,0,L|8:336,1,146.62500279665,6|0,0:3|0:0,0:0:0:0:
16,288,96239,2,0,L|16:190,1,97.7500018644333,10|0,0:3|0:0,0:0:0:0:
112,192,96682,2,0,L|264:192,1,146.62500279665,6|0,0:3|0:0,0:0:0:0:
256,144,97126,2,0,L|256:40,1,97.7500018644333,10|0,0:3|0:0,0:0:0:0:
352,45,97569,22,0,L|352:192,1,146.62500279665,6|0,0:3|0:0,0:0:0:0:
352,240,98012,2,0,L|196:240,1,146.62500279665,10|0,0:3|0:0,0:0:0:0:
156,240,98456,1,6,0:3:0:0:
256,72,98899,1,10,0:3:0:0:
352,240,99342,1,6,0:3:0:0:
256,192,127717,6,0,L|256:68,1,115,4|0,0:3|0:0,0:0:0:0:
140,76,128161,1,8,0:3:0:0:
140,304,128604,2,0,L|255:304,1,115,4|0,0:3|0:0,0:0:0:0:
370,304,129047,1,8,0:3:0:0:
372,80,129491,2,0,L|257:80,1,115,4|0,0:3|0:0,0:0:0:0:
140,76,129934,1,8,0:3:0:0:
140,304,130378,2,0,L|372:304,1,230,4|0,0:3|0:0,0:0:0:0:
372,77,131264,6,0,L|372:192,1,115,4|0,0:3|0:0,0:0:0:0:
372,304,131708,1,8,0:3:0:0:
256,76,132151,2,0,L|256:191,1,115,4|0,0:3|0:0,0:0:0:0:
256,303,132595,1,8,0:3:0:0:
140,77,133038,2,0,L|140:192,1,115,4|0,0:3|0:0,0:0:0:0:
140,304,133481,2,0,L|140:188,1,115,8|0,0:3|0:0,0:0:0:0:
140,77,133924,1,4,0:3:0:0:
371,304,134811,22,0,L|256:304,1,115,4|0,0:3|0:0,0:0:0:0:
141,304,135255,1,8,0:3:0:0:
141,80,135698,2,0,L|256:80,1,115,4|0,0:3|0:0,0:0:0:0:
372,80,136141,1,8,0:3:0:0:
371,304,136585,2,0,L|371:189,1,115,4|0,0:3|0:0,0:0:0:0:
372,80,137029,1,8,0:3:0:0:
141,80,137471,2,0,L|142:314,1,230,4|0,0:3|0:0,0:0:0:0:
372,304,138358,5,4,0:3:0:0:
372,80,138801,1,8,0:3:0:0:
140,80,139245,1,4,0:3:0:0:
140,304,139688,1,8,0:3:0:0:
433,188,140131,5,4,0:3:0:0:
252,14,140574,1,8,0:3:0:0:
78,195,141018,1,4,0:3:0:0:
256,192,141905,38,0,L|256:68,1,115,0|0,0:0|0:0,0:0:0:0:
372,76,142349,1,8,0:3:0:0:
372,304,142792,2,0,L|257:304,1,115,0|0,0:0|0:0,0:0:0:0:
142,304,143235,1,8,0:3:0:0:
140,80,143679,2,0,L|255:80,1,115,4|0,0:3|0:0,0:0:0:0:
372,76,144122,1,8,0:3:0:0:
372,304,144566,2,0,L|140:304,1,230,4|0,0:3|0:0,0:0:0:0:
140,77,145452,6,0,L|140:192,1,115,4|0,0:3|0:0,0:0:0:0:
140,304,145896,1,8,0:3:0:0:
256,76,146339,2,0,L|256:191,1,115,4|0,0:3|0:0,0:0:0:0:
256,303,146783,1,8,0:3:0:0:
372,77,147226,2,0,L|372:192,1,115,4|0,0:3|0:0,0:0:0:0:
372,304,147669,2,0,L|372:188,1,115,8|0,0:3|0:0,0:0:0:0:
372,77,148112,1,4,0:3:0:0:
141,304,148999,22,0,L|256:304,1,115,4|0,0:3|0:0,0:0:0:0:
371,304,149443,1,8,0:3:0:0:
371,80,149886,2,0,L|256:80,1,115,4|0,0:3|0:0,0:0:0:0:
140,80,150329,1,8,0:3:0:0:
141,304,150773,2,0,L|141:189,1,115,4|0,0:3|0:0,0:0:0:0:
140,80,151215,1,0,0:0:0:0:
371,80,151659,2,0,L|370:314,1,230,4|0,0:3|0:0,0:0:0:0:
140,304,152546,5,4,0:3:0:0:
140,80,152989,1,8,0:3:0:0:
372,80,153432,1,4,0:3:0:0:
372,304,153876,1,8,0:3:0:0:
79,188,154319,5,4,0:3:0:0:
260,14,154762,1,8,0:3:0:0:
434,195,155206,1,4,0:3:0:0:
253,370,155649,1,0,0:0:0:0:
108,192,156092,22,0,L|108:32,1,153.333333333333,4|0,0:3|0:0,0:0:0:0:
180,8,156536,1,8,0:3:0:0:
256,224,156979,2,0,L|256:304,2,76.6666666666667,4|0|0,0:3|0:0|0:0,0:0:0:0:
256,144,157423,1,8,0:3:0:0:
404,192,157866,6,0,L|404:38,1,153.333333333333,4|0,0:3|0:0,0:0:0:0:
332,8,158310,1,8,0:3:0:0:
256,224,158753,2,0,L|256:296,1,57.5,4|0,0:3|0:0,0:0:0:0:
256,20,159639,6,0,L|96:20,1,153.333333333333,4|0,0:3|0:0,0:0:0:0:
28,52,160083,1,8,0:3:0:0:
256,104,160526,2,0,L|336:104,2,76.6666666666667,4|0|0,0:3|0:0|0:0,0:0:0:0:
176,108,160969,1,8,0:3:0:0:
392,188,161413,22,0,L|232:188,1,153.333333333333,4|0,0:3|0:0,0:0:0:0:
164,220,161857,1,8,0:3:0:0:
388,272,162300,1,4,0:3:0:0:
48,336,163186,6,0,L|48:172,1,153.333333333333,4|0,0:3|0:0,0:0:0:0:
48,104,163630,2,0,L|216:104,1,153.333333333333,8|0,0:3|0:0,0:0:0:0:
256,160,164073,2,0,L|256:248,2,76.6666666666667,4|0|0,0:3|0:0|0:0,0:0:0:0:
310,104,164516,2,0,L|464:104,1,153.333333333333,8|0,0:3|0:0,0:0:0:0:
464,182,164960,6,0,L|464:336,1,153.333333333333,4|0,0:3|0:0,0:0:0:0:
384,336,165403,2,0,L|230:336,1,153.333333333333,8|0,0:3|0:0,0:0:0:0:
150,336,165846,2,0,L|86:336,1,57.5,4|0,0:3|0:0,0:0:0:0:
488,192,166733,22,0,L|316:192,1,153.333333333333,4|0,0:3|0:0,0:0:0:0:
256,192,167176,2,0,L|256:20,1,153.333333333333,8|0,0:3|0:0,0:0:0:0:
176,40,167620,2,0,L|80:40,2,76.6666666666667,4|0|0,0:3|0:0|0:0,0:0:0:0:
256,38,168063,2,0,L|432:40,1,153.333333333333,8|0,0:3|0:0,0:0:0:0:
456,104,168507,6,0,L|456:260,1,153.333333333333,4|0,0:3|0:0,0:0:0:0:
408,320,168950,2,0,L|254:320,1,153.333333333333,8|0,0:3|0:0,0:0:0:0:
256,240,169393,1,4,0:3:0:0:
36,44,170280,6,0,L|36:136,1,80.499997543335,4|0,0:3|0:0,0:0:0:0:
36,208,170576,1,0,0:0:0:0:
36,208,170723,1,8,0:3:0:0:
256,312,171167,1,4,0:3:0:0:
256,312,171315,1,4,0:3:0:0:
256,152,171610,1,8,0:3:0:0:
476,44,172053,22,0,L|476:136,1,80.499997543335,4|0,0:3|0:0,0:0:0:0:
476,208,172349,1,0,0:0:0:0:
476,208,172496,1,8,0:3:0:0:
256,312,172940,1,4,0:3:0:0:
256,72,173236,1,0,0:0:0:0:
256,72,173384,1,0,0:0:0:0:
48,192,173827,6,0,L|136:192,1,80.499997543335,4|0,0:3|0:0,0:0:0:0:
212,192,174122,1,0,0:0:0:0:
212,192,174270,1,8,0:3:0:0:
464,192,174714,1,4,0:3:0:0:
464,192,174861,1,4,0:3:0:0:
300,192,175157,1,8,0:3:0:0:
212,28,175600,6,0,L|212:116,1,80.499997543335,4|0,0:3|0:0,0:0:0:0:
212,192,175895,1,0,0:0:0:0:
212,192,176043,1,0,0:0:0:0:
300,356,176487,1,4,0:3:0:0:
350,97,177374,21,4,0:3:0:0:
350,97,177522,1,0,0:0:0:0:
350,97,177669,1,0,0:0:0:0:
350,97,177817,1,8,0:3:0:0:
348,288,178260,2,0,L|348:360,1,40.2499987716675,4|0,0:3|0:0,0:0:0:0:
161,286,178704,1,8,0:3:0:0:
161,97,179147,5,4,0:3:0:0:
161,97,179295,1,0,0:0:0:0:
161,97,179443,1,0,0:0:0:0:
161,97,179591,1,8,0:3:0:0:
350,97,180034,1,4,0:3:0:0:
256,192,180330,1,0,0:0:0:0:
256,192,180477,1,0,0:0:0:0:
161,286,180921,37,4,0:3:0:0:
161,286,181069,1,0,0:0:0:0:
161,286,181216,1,0,0:0:0:0:
161,286,181364,1,8,0:3:0:0:
352,284,181807,2,0,L|424:284,1,40.2499987716675,4|0,0:3|0:0,0:0:0:0:
350,97,182251,1,8,0:3:0:0:
161,97,182694,21,4,0:3:0:0:
161,97,182842,1,0,0:0:0:0:
161,97,182990,1,0,0:0:0:0:
161,97,183138,1,8,0:3:0:0:
161,286,183581,1,4,0:3:0:0:
128,192,198655,21,4,0:3:0:0:
128,64,198877,2,0,L|204:64,1,63.2500019302369,4|4,0:3|0:3,0:0:0:0:
256,64,199098,2,0,L|332:64,1,63.2500019302369,4|0,0:3|0:0,0:0:0:0:
384,64,199320,1,8,0:3:0:0:
384,192,199542,1,4,0:3:0:0:
384,320,199763,2,0,L|308:320,1,63.2500019302369,4|4,0:3|0:3,0:0:0:0:
256,320,199985,2,0,L|178:320,1,63.2500019302369,4|0,0:3|0:0,0:0:0:0:
128,320,200206,1,8,0:3:0:0:
128,192,200429,6,0,L|256:192,2,126.500003860474,8|4|4,0:3|0:3|0:3,0:0:0:0:
128,64,201094,1,8,0:3:0:0:
256,64,201315,1,8,0:3:0:0:
384,64,201537,1,8,0:3:0:0:
384,192,201758,1,8,0:3:0:0:
128,192,202202,5,4,0:3:0:0:
128,320,202424,2,0,L|204:320,1,63.2500019302369,4|4,0:3|0:3,0:0:0:0:
256,320,202645,2,0,L|332:320,1,63.2500019302369,4|0,0:3|0:0,0:0:0:0:
384,320,202867,1,8,0:3:0:0:
384,192,203089,1,4,0:3:0:0:
384,64,203310,2,0,L|308:64,3,63.2500019302369,4|4|4|0,0:3|0:3|0:3|0:0,0:0:0:0:
256,64,203753,1,8,0:3:0:0:
256,192,203975,21,4,0:3:0:0:
384,192,204197,2,0,L|452:192,2,63.2500019302369,4|0|4,0:3|0:0|0:3,0:0:0:0:
256,192,204640,1,8,0:3:0:0:
256,320,204862,2,0,L|192:320,1,63.2500019302369,8|0,0:3|0:0,0:0:0:0:
128,192,205195,1,0,0:0:0:0:
128,192,205305,1,8,0:3:0:0:
380,128,205749,5,4,0:3:0:0:
380,256,205971,2,0,L|312:256,1,63.2500019302369,4|4,0:3|0:3,0:0:0:0:
252,256,206192,2,0,L|184:256,1,63.2500019302369,4|0,0:3|0:0,0:0:0:0:
124,256,206414,1,8,0:3:0:0:
124,128,206636,1,4,0:3:0:0:
256,104,206857,2,0,L|320:104,1,63.2500019302369,4|0,0:3|0:0,0:0:0:0:
384,108,207079,2,0,L|384:172,1,63.2500019302369,4|0,0:3|0:0,0:0:0:0:
384,236,207301,1,8,0:3:0:0:
256,240,207522,6,0,L|256:368,2,126.500003860474,4|4|4,0:3|0:3|0:3,0:0:0:0:
192,128,208187,1,8,0:3:0:0:
320,128,208409,1,8,0:3:0:0:
102,38,208852,1,8,0:3:0:0:
408,40,209296,21,4,0:3:0:0:
408,168,209517,2,0,L|408:236,1,63.2500019302369,4|4,0:3|0:3,0:0:0:0:
404,296,209739,2,0,L|336:296,1,63.2500019302369,4|0,0:3|0:0,0:0:0:0:
276,296,209961,1,8,0:3:0:0:
256,172,210182,1,4,0:3:0:0:
232,48,210404,2,0,L|296:48,3,63.2500019302369,4|4|4|0,0:3|0:3|0:3|0:0,0:0:0:0:
360,48,210848,1,8,0:3:0:0:
416,160,211069,5,4,0:3:0:0:
416,288,211291,2,0,L|416:352,1,63.2500019302369,4|0,0:3|0:0,0:0:0:0:
352,352,211513,2,0,L|288:352,1,63.2500019302369,4|0,0:3|0:0,0:0:0:0:
236,320,211734,1,8,0:3:0:0:
256,192,211956,2,0,L|256:120,1,63.2500019302369,8|0,0:3|0:0,0:0:0:0:
136,96,212288,1,0,0:0:0:0:
136,96,212399,2,0,L|136:168,2,63.2500019302369,8|0|0,0:3|0:0|0:0,0:0:0:0:
256,48,212843,5,4,0:3:0:0:
256,336,213286,1,4,0:3:0:0:
357,90,213729,1,4,0:3:0:0:
154,293,214172,1,4,0:3:0:0:
400,191,214616,1,4,0:3:0:0:
112,192,215059,1,4,0:3:0:0:
357,293,215502,1,4,0:3:0:0:
154,90,215945,1,4,0:3:0:0:
256,334,216390,21,4,0:3:0:0:
113,192,216833,1,4,0:3:0:0:
256,49,217276,1,4,0:3:0:0:
398,192,217719,1,4,0:3:0:0:
155,293,218163,1,4,0:3:0:0:
357,293,218606,1,4,0:3:0:0:
357,91,219049,1,4,0:3:0:0:
155,91,219492,1,4,0:3:0:0:
256,318,219936,6,0,L|256:192,1,126.500003860474,4|4,0:3|0:3,0:0:0:0:
382,192,220380,2,0,L|256:192,1,126.500003860474,4|4,0:3|0:3,0:0:0:0:
256,66,220823,2,0,L|256:192,1,126.500003860474,4|4,0:3|0:3,0:0:0:0:
130,192,221267,2,0,L|256:192,1,126.500003860474,4|4,0:3|0:3,0:0:0:0:
345,281,221710,2,0,L|256:192,1,126.500003860474,4|4,0:3|0:3,0:0:0:0:
345,102,222154,2,0,L|256:192,1,126.500003860474,4|4,0:3|0:3,0:0:0:0:
166,102,222597,2,0,L|256:192,1,126.500003860474,4|4,0:3|0:3,0:0:0:0:
166,281,223041,2,0,L|256:192,1,126.500003860474,4|4,0:3|0:3,0:0:0:0:
256,64,223483,22,0,B|67:63|67:63|68:132,1,253.000007720947,8|0,0:3|0:0,0:0:0:0:
256,64,224370,2,0,B|444:63|444:63|444:132,1,253.000007720947,0|0,0:0|0:0,0:0:0:0:
256,296,225257,6,0,L|116:296,1,126.500003860474,0|0,0:0|0:0,0:0:0:0:
256,212,225700,2,0,L|396:212,1,126.500003860474,0|0,0:0|0:0,0:0:0:0:
256,316,226143,2,0,L|0:316,1,253.000007720947,0|0,0:0|0:0,0:0:0:0:
4,64,227030,5,4,0:3:0:0:
128,64,227252,1,0,0:0:0:0:
128,64,227363,1,0,0:0:0:0:
128,64,227474,2,0,L|256:64,1,126.500003860474,2|0,0:3|0:0,0:0:0:0:
256,192,227917,2,0,L|256:384,2,189.750005790711,8|8|8,0:3|0:3|0:3,0:0:0:0:
364,116,228804,6,0,L|440:116,1,63.2500019302369,4|0,0:3|0:0,0:0:0:0:
468,168,229025,2,0,L|468:244,1,63.2500019302369,0|0,0:0|0:0,0:0:0:0:
464,296,229247,2,0,L|332:296,1,126.500003860474,2|0,0:3|0:0,0:0:0:0:
208,296,229690,2,0,L|208:220,1,63.2500019302369,8|0,0:3|0:0,0:0:0:0:
156,192,229912,2,0,L|78:193,1,63.2500019302369,8|0,0:3|0:0,0:0:0:0:
28,192,230133,1,8,0:3:0:0:
256,80,230577,21,4,0:3:0:0:
324,188,230799,1,0,0:0:0:0:
324,188,230910,1,0,0:0:0:0:
324,188,231020,2,0,L|324:320,1,126.500003860474,2|0,0:3|0:0,0:0:0:0:
188,314,231464,2,0,L|188:116,2,189.750005790711,8|8|8,0:3|0:3|0:3,0:0:0:0:
60,320,232350,5,4,0:3:0:0:
88,200,232572,1,4,0:3:0:0:
124,84,232794,1,2,0:3:0:0:
124,84,232905,1,0,0:0:0:0:
124,84,233016,1,2,0:3:0:0:
252,84,233237,5,4,0:3:0:0:
280,204,233459,1,4,0:3:0:0:
316,320,233681,1,8,0:3:0:0:
316,320,233792,1,0,0:0:0:0:
316,320,233902,1,8,0:3:0:0:
444,320,234124,21,4,0:3:0:0:
444,192,234346,1,0,0:0:0:0:
444,192,234456,1,0,0:0:0:0:
444,192,234567,2,0,L|312:192,1,126.500003860474,2|0,0:3|0:0,0:0:0:0:
256,80,235011,2,0,L|60:80,2,189.750005790711,8|8|8,0:3|0:3|0:3,0:0:0:0:
196,192,235897,6,0,L|120:192,1,63.2500019302369,4|0,0:3|0:0,0:0:0:0:
92,240,236119,2,0,L|92:316,1,63.2500019302369,0|0,0:0|0:0,0:0:0:0:
129,356,236341,2,0,L|256:356,1,126.500003860474,2|0,0:3|0:0,0:0:0:0:
316,192,236784,2,0,L|392:192,1,63.2500019302369,8|0,0:3|0:0,0:0:0:0:
420,240,237006,2,0,L|420:316,1,63.2500019302369,8|0,0:3|0:0,0:0:0:0:
382,356,237227,1,8,0:3:0:0:
256,120,237671,5,4,0:3:0:0:
156,64,237893,1,0,0:0:0:0:
156,64,238003,1,0,0:0:0:0:
156,64,238114,2,0,L|24:64,1,126.500003860474,2|0,0:3|0:0,0:0:0:0:
28,192,238558,2,0,L|228:192,2,189.750005790711,8|8|8,0:3|0:3|0:3,0:0:0:0:
28,316,239444,22,0,L|160:316,1,126.500003860474,4|0,0:3|0:0,0:0:0:0:
280,316,239888,2,0,L|412:316,1,126.500003860474,2|0,0:3|0:0,0:0:0:0:
456,192,240331,2,0,L|324:192,1,126.500003860474,4|0,0:3|0:0,0:0:0:0:
204,192,240775,2,0,L|72:192,1,126.500003860474,2|0,0:3|0:0,0:0:0:0:
107,38,241218,5,4,0:3:0:0:
256,61,241439,1,0,0:0:0:0:
256,61,241550,1,0,0:0:0:0:
256,61,241661,1,8,0:3:0:0:
404,38,241883,1,0,0:0:0:0:
256,61,242104,2,0,L|256:151,3,68.9999978942872
256,192,242548,2,0,L|104:192,1,137.999995788574,8|0,0:3|0:0,0:0:0:0:
107,346,242991,5,4,0:3:0:0:
256,323,243212,1,0,0:0:0:0:
256,323,243323,1,0,0:0:0:0:
256,323,243434,1,8,0:3:0:0:
404,346,243656,1,0,0:0:0:0:
256,323,243877,2,0,L|256:233,3,68.9999978942872
256,192,244321,2,0,L|104:192,1,137.999995788574,8|0,0:3|0:0,0:0:0:0:
330,63,244765,21,4,0:3:0:0:
178,131,244986,1,0,0:0:0:0:
178,131,245097,1,0,0:0:0:0:
178,131,245208,1,8,0:3:0:0:
330,198,245429,1,0,0:0:0:0:
239,323,245651,2,0,L|167:323,3,68.9999978942872,4|0|0|0,0:3|0:0|0:0|0:0,0:0:0:0:
107,323,246095,2,0,L|107:171,1,137.999995788574,8|0,0:3|0:0,0:0:0:0:
181,63,246538,21,4,0:3:0:0:
333,131,246759,1,0,0:0:0:0:
333,131,246870,1,0,0:0:0:0:
333,131,246981,1,8,0:3:0:0:
181,198,247202,1,0,0:0:0:0:
273,323,247425,2,0,L|345:323,3,68.9999978942872,4|0|0|0,0:3|0:0|0:0|0:0,0:0:0:0:
408,323,247868,2,0,L|408:171,1,137.999995788574,8|0,0:3|0:0,0:0:0:0:
320,57,248311,21,4,0:3:0:0:
256,192,248533,1,0,0:0:0:0:
256,192,248644,1,0,0:0:0:0:
256,192,248755,2,0,L|256:340,1,137.999995788574,8|0,0:3|0:0,0:0:0:0:
131,259,249198,2,0,L|131:132,2,103.499996841431,4|0|0,0:3|0:0|0:0,0:0:0:0:
131,328,249642,1,8,0:3:0:0:
256,264,249863,1,0,0:0:0:0:
380,328,250085,5,4,0:3:0:0:
256,264,250306,1,0,0:0:0:0:
256,264,250417,1,0,0:0:0:0:
256,264,250528,2,0,L|256:116,1,137.999995788574,8|0,0:3|0:0,0:0:0:0:
172,16,250972,2,0,L|172:88,1,68.9999978942872,4|0,0:3|0:0,0:0:0:0:
128,136,251193,2,0,L|128:208,1,68.9999978942872,4|0,0:3|0:0,0:0:0:0:
128,276,251415,1,8,0:3:0:0:
256,328,251637,1,0,0:0:0:0:
384,276,251858,5,4,0:3:0:0:
256,192,252080,1,0,0:0:0:0:
256,192,252191,1,0,0:0:0:0:
256,192,252302,2,0,L|256:48,1,137.999995788574,8|0,0:3|0:0,0:0:0:0:
128,108,252745,1,4,0:3:0:0:
256,192,252967,1,0,0:0:0:0:
256,192,253078,1,0,0:0:0:0:
256,192,253189,2,0,L|256:336,1,137.999995788574,8|0,0:3|0:0,0:0:0:0:
116,328,253632,21,4,0:3:0:0:
116,293,253742,1,4,0:3:0:0:
116,259,253853,1,8,0:3:0:0:
116,224,253964,1,8,0:3:0:0:
116,190,254075,2,0,L|116:116,3,68.9999978942872,4|4|4|4,0:3|0:3|0:3|0:3,0:0:0:0:
116,52,254519,6,0,L|186:52,1,68.9999978942872,4|4,0:3|0:3,0:0:0:0:
256,52,254740,2,0,L|325:52,1,68.9999978942872,4|4,0:3|0:3,0:0:0:0:
395,52,254962,1,8,0:3:0:0:
395,190,255184,1,4,0:3:0:0:
256,192,255405,22,0,L|255:262,1,68.9999978942872
