osu file format v14

[General]
AudioFilename: audio.mp3
AudioLeadIn: 0
PreviewTime: 65962
Countdown: 0
SampleSet: Normal
StackLeniency: 0.2
Mode: 1
LetterboxInBreaks: 0
WidescreenStoryboard: 1

[Editor]
DistanceSpacing: 1
BeatDivisor: 4
GridSize: 32
TimelineZoom: 3.099999

[Metadata]
Title:Anomaly
TitleUnicode:Anomaly
Artist:Noisia
ArtistUnicode:Noisia
Creator:Genjuro
Version:Kantan
Source:
Tags:electronic instrumental drum and bass dnb neurofunk outer edges featured artist fa mappers' guild osu!
BeatmapID:2599128
BeatmapSetID:1248594

[Difficulty]
HPDrainRate:7
CircleSize:2
OverallDifficulty:3
ApproachRate:10
SliderMultiplier:1.4
SliderTickRate:1

[Events]
//Background and Video events
0,0,"bg.jpg",0,90
//Break Periods
2,134447,144960
//Storyboard Layer 0 (Background)
//Storyboard Layer 1 (Fail)
//Storyboard Layer 2 (Pass)
//Storyboard Layer 3 (Foreground)
//Storyboard Layer 4 (Overlay)
//Storyboard Sound Samples

[TimingPoints]
294,348.837209302326,4,1,0,25,1,0
294,-100,4,1,0,25,0,0
22532,-100,4,1,0,50,0,0
44857,-100,4,1,0,75,0,0
46253,-100,4,1,0,50,0,0
49044,-100,4,1,0,70,0,0
50439,-100,4,1,0,75,0,0
51834,-100,4,1,0,80,0,0
54625,-100,4,1,0,100,0,0
67270,-100,4,1,0,100,0,1
89596,-100,4,1,0,100,0,0
89857,-100,4,1,0,75,0,0
91921,-100,4,1,0,100,0,0
92387,-100,4,1,0,100,0,1
106340,-100,4,1,0,100,0,0
110788,-100,4,1,0,50,0,0
111834,-100,4,1,0,100,0,0
134334,-100,4,1,0,75,0,0
134945,-100,4,1,0,74,0,0
135294,-100,4,1,0,73,0,0
135730,-100,4,1,0,72,0,0
135991,-100,4,1,0,71,0,0
136514,-100,4,1,0,70,0,0
137212,-100,4,1,0,69,0,0
137648,-100,4,1,0,68,0,0
138171,-100,4,1,0,67,0,0
138433,-100,4,1,0,66,0,0
139044,-100,4,1,0,65,0,0
139392,-100,4,1,0,64,0,0
139741,-100,4,1,0,63,0,0
140003,-100,4,1,0,62,0,0
140526,-100,4,1,0,61,0,0
141224,-100,4,1,0,60,0,0
141485,-100,4,1,0,59,0,0
142009,-100,4,1,0,58,0,0
142270,-100,4,1,0,57,0,0
142794,-100,4,1,0,56,0,0
143230,-100,4,1,0,55,0,0
143927,-100,4,1,0,54,0,0
144363,-100,4,1,0,53,0,0
144625,-100,4,1,0,52,0,0
145061,-100,4,1,0,51,0,0
145235,-100,4,1,0,50,0,0
145323,-100,4,1,0,100,0,0
167735,-100,4,1,0,100,0,1
190061,-100,4,1,0,100,0,0
190323,-100,4,1,0,75,0,0
192416,-100,4,1,0,100,0,0
192852,-100,4,1,0,100,0,1
206805,-100,4,1,0,100,0,0
211253,-100,4,1,0,75,0,0
212299,-100,4,1,0,100,0,0
229480,-100,4,1,0,95,0,0
229828,-100,4,1,0,90,0,0
230177,-100,4,1,0,85,0,0
230526,-100,4,1,0,80,0,0
230875,-100,4,1,0,75,0,0
231224,-100,4,1,0,70,0,0
231573,-100,4,1,0,65,0,0
231921,-100,4,1,0,60,0,0
232270,-100,4,1,0,55,0,0
232619,-100,4,1,0,50,0,0
232968,-100,4,1,0,45,0,0
233317,-100,4,1,0,40,0,0
233666,-100,4,1,0,35,0,0
234014,-100,4,1,0,30,0,0
234363,-100,4,1,0,25,0,0
234712,-100,4,1,0,20,0,0

[HitObjects]
256,192,22619,5,0,0:0:0:0:
256,192,24014,1,8,0:0:0:0:
256,192,25410,8,0,26805,0:0:0:0:
256,192,28200,5,0,0:0:0:0:
256,192,29596,1,8,0:0:0:0:
256,192,30991,8,0,32387,0:0:0:0:
256,192,33782,5,0,0:0:0:0:
256,192,35177,1,8,0:0:0:0:
256,192,36573,8,0,37968,0:0:0:0:
256,192,39363,5,0,0:0:0:0:
256,192,40759,1,8,0:0:0:0:
256,192,42154,8,0,43549,0:0:0:0:
256,192,44945,5,0,0:0:0:0:
256,192,46340,1,0,0:0:0:0:
256,192,46863,1,0,0:0:0:0:
256,192,47387,1,0,0:0:0:0:
256,192,49131,1,0,0:0:0:0:
256,192,49654,1,0,0:0:0:0:
256,192,50177,1,8,0:0:0:0:
256,192,51921,1,0,0:0:0:0:
256,192,52445,1,8,0:0:0:0:
256,192,52968,1,8,0:0:0:0:
256,192,54712,1,8,0:0:0:0:
256,192,55235,1,8,0:0:0:0:
256,192,55759,1,8,0:0:0:0:
256,192,56107,1,0,0:0:0:0:
256,192,57503,1,0,0:0:0:0:
256,192,58026,1,0,0:0:0:0:
256,192,58549,1,8,0:0:0:0:
256,192,60294,1,0,0:0:0:0:
256,192,60817,1,8,0:0:0:0:
256,192,61340,1,8,0:0:0:0:
256,192,63084,1,8,0:0:0:0:
256,192,63607,1,8,0:0:0:0:
256,192,64131,1,8,0:0:0:0:
256,192,64480,1,0,0:0:0:0:
256,192,65177,1,0,0:0:0:0:
256,192,65526,1,0,0:0:0:0:
256,192,65875,1,0,0:0:0:0:
256,192,67270,1,4,0:0:0:0:
256,192,67619,1,8,0:0:0:0:
256,192,68317,1,8,0:0:0:0:
256,192,68666,1,0,0:0:0:0:
256,192,69014,1,8,0:0:0:0:
256,192,69712,1,8,0:0:0:0:
256,192,70410,1,8,0:0:0:0:
256,192,70759,1,0,0:0:0:0:
256,192,71107,1,8,0:0:0:0:
256,192,71456,1,0,0:0:0:0:
256,192,72852,1,0,0:0:0:0:
256,192,73200,1,8,0:0:0:0:
256,192,73898,1,8,0:0:0:0:
256,192,74247,1,0,0:0:0:0:
256,192,74596,1,8,0:0:0:0:
256,192,75294,1,8,0:0:0:0:
256,192,75991,1,8,0:0:0:0:
256,192,76340,1,8,0:0:0:0:
256,192,76689,1,8,0:0:0:0:
256,192,77038,1,0,0:0:0:0:
256,192,77387,1,8,0:0:0:0:
256,192,78433,1,0,0:0:0:0:
256,192,79131,1,8,0:0:0:0:
256,192,79480,1,8,0:0:0:0:
256,192,79828,1,0,0:0:0:0:
256,192,80526,1,8,0:0:0:0:
256,192,81224,1,0,0:0:0:0:
256,192,81573,1,0,0:0:0:0:
256,192,81921,1,8,0:0:0:0:
256,192,82270,1,8,0:0:0:0:
256,192,82619,1,0,0:0:0:0:
256,192,84014,1,8,0:0:0:0:
256,192,84712,1,0,0:0:0:0:
256,192,85061,1,0,0:0:0:0:
256,192,85410,1,8,0:0:0:0:
256,192,86107,1,0,0:0:0:0:
256,192,86805,1,8,0:0:0:0:
256,192,87154,1,8,0:0:0:0:
256,192,87503,1,0,0:0:0:0:
256,192,87852,1,0,0:0:0:0:
256,192,88200,1,8,0:0:0:0:
256,192,89596,1,0,0:0:0:0:
256,192,92387,1,0,0:0:0:0:
256,192,92735,1,8,0:0:0:0:
256,192,93084,1,0,0:0:0:0:
256,192,93433,1,8,0:0:0:0:
256,192,93782,1,0,0:0:0:0:
256,192,95177,1,0,0:0:0:0:
256,192,95526,1,8,0:0:0:0:
256,192,96224,1,8,0:0:0:0:
256,192,96573,1,0,0:0:0:0:
256,192,96921,1,8,0:0:0:0:
256,192,97619,1,8,0:0:0:0:
256,192,98317,1,8,0:0:0:0:
256,192,98666,1,0,0:0:0:0:
256,192,99014,1,8,0:0:0:0:
256,192,99363,1,0,0:0:0:0:
256,192,100759,1,0,0:0:0:0:
256,192,101456,1,8,0:0:0:0:
256,192,101805,1,8,0:0:0:0:
256,192,102154,1,0,0:0:0:0:
256,192,102852,1,8,0:0:0:0:
256,192,103549,1,0,0:0:0:0:
256,192,103898,1,0,0:0:0:0:
256,192,104247,1,8,0:0:0:0:
256,192,104596,1,8,0:0:0:0:
256,192,104945,1,0,0:0:0:0:
256,192,106340,1,8,0:0:0:0:
256,192,107038,1,0,0:0:0:0:
256,192,107387,1,8,0:0:0:0:
256,192,107735,1,0,0:0:0:0:
256,192,108433,1,8,0:0:0:0:
256,192,109131,1,0,0:0:0:0:
256,192,109480,1,0,0:0:0:0:
256,192,109828,1,0,0:0:0:0:
256,192,110177,1,0,0:0:0:0:
256,192,110526,1,0,0:0:0:0:
256,192,111921,1,0,0:0:0:0:
256,192,112270,1,8,0:0:0:0:
256,192,113317,1,0,0:0:0:0:
256,192,113840,1,8,0:0:0:0:
256,192,114363,1,8,0:0:0:0:
256,192,115061,1,0,0:0:0:0:
256,192,116107,1,8,0:0:0:0:
256,192,116631,1,8,0:0:0:0:
256,192,117154,1,0,0:0:0:0:
256,192,117852,1,8,0:0:0:0:
256,192,118898,1,0,0:0:0:0:
256,192,119421,1,8,0:0:0:0:
256,192,119945,1,8,0:0:0:0:
256,192,120642,1,0,0:0:0:0:
256,192,121689,1,8,0:0:0:0:
256,192,123084,1,0,0:0:0:0:
256,192,123433,1,8,0:0:0:0:
256,192,124480,1,0,0:0:0:0:
256,192,125003,1,8,0:0:0:0:
256,192,125526,1,8,0:0:0:0:
256,192,126224,1,0,0:0:0:0:
256,192,127270,1,8,0:0:0:0:
256,192,127794,1,8,0:0:0:0:
256,192,128317,1,0,0:0:0:0:
256,192,129014,1,8,0:0:0:0:
256,192,130061,1,0,0:0:0:0:
256,192,130584,1,8,0:0:0:0:
256,192,131107,1,8,0:0:0:0:
256,192,131805,1,0,0:0:0:0:
256,192,132852,1,8,0:0:0:0:
256,192,134247,1,4,0:0:0:0:
256,192,145410,5,0,0:0:0:0:
256,192,145759,1,0,0:0:0:0:
256,192,146805,1,8,0:0:0:0:
256,192,147154,1,8,0:0:0:0:
256,192,148200,1,0,0:0:0:0:
256,192,148549,1,8,0:0:0:0:
256,192,149596,1,8,0:0:0:0:
256,192,149945,1,0,0:0:0:0:
256,192,150991,1,0,0:0:0:0:
256,192,151340,1,0,0:0:0:0:
256,192,151689,1,8,0:0:0:0:
256,192,152387,1,8,0:0:0:0:
256,192,152735,1,8,0:0:0:0:
256,192,153084,1,0,0:0:0:0:
256,192,153782,1,0,0:0:0:0:
256,192,154131,1,0,0:0:0:0:
256,192,155177,1,8,0:0:0:0:
256,192,156573,1,8,0:0:0:0:
256,192,156921,1,8,0:0:0:0:
256,192,157270,1,8,0:0:0:0:
256,192,157968,1,8,0:0:0:0:
256,192,159363,1,0,0:0:0:0:
256,192,159712,1,0,0:0:0:0:
256,192,160061,1,0,0:0:0:0:
256,192,160759,1,0,0:0:0:0:
256,192,162154,1,0,0:0:0:0:
256,192,162503,1,8,0:0:0:0:
256,192,162852,1,0,0:0:0:0:
256,192,163549,1,8,0:0:0:0:
256,192,163898,1,0,0:0:0:0:
256,192,164247,1,8,0:0:0:0:
256,192,164945,1,0,0:0:0:0:
256,192,165294,1,0,0:0:0:0:
256,192,165642,1,8,0:0:0:0:
256,192,165991,1,8,0:0:0:0:
256,192,166340,1,0,0:0:0:0:
256,192,167735,1,4,0:0:0:0:
256,192,168084,1,8,0:0:0:0:
256,192,168782,1,8,0:0:0:0:
256,192,169131,1,0,0:0:0:0:
256,192,169480,1,8,0:0:0:0:
256,192,170177,1,8,0:0:0:0:
256,192,170875,1,8,0:0:0:0:
256,192,171224,1,0,0:0:0:0:
256,192,171573,1,8,0:0:0:0:
256,192,171921,1,0,0:0:0:0:
256,192,173317,1,0,0:0:0:0:
256,192,173666,1,8,0:0:0:0:
256,192,174363,1,8,0:0:0:0:
256,192,174712,1,0,0:0:0:0:
256,192,175061,1,8,0:0:0:0:
256,192,175759,1,8,0:0:0:0:
256,192,176456,1,8,0:0:0:0:
256,192,176805,1,8,0:0:0:0:
256,192,177154,1,8,0:0:0:0:
256,192,177503,1,0,0:0:0:0:
256,192,177852,1,8,0:0:0:0:
256,192,178898,1,0,0:0:0:0:
256,192,179596,1,8,0:0:0:0:
256,192,179945,1,8,0:0:0:0:
256,192,180294,1,0,0:0:0:0:
256,192,180991,1,8,0:0:0:0:
256,192,181689,1,0,0:0:0:0:
256,192,182038,1,0,0:0:0:0:
256,192,182387,1,8,0:0:0:0:
256,192,182735,1,8,0:0:0:0:
256,192,183084,1,0,0:0:0:0:
256,192,184480,1,8,0:0:0:0:
256,192,185177,1,0,0:0:0:0:
256,192,185526,1,0,0:0:0:0:
256,192,185875,1,8,0:0:0:0:
256,192,186573,1,0,0:0:0:0:
256,192,187270,1,8,0:0:0:0:
256,192,187619,1,8,0:0:0:0:
256,192,187968,1,0,0:0:0:0:
256,192,188317,1,0,0:0:0:0:
256,192,188666,1,8,0:0:0:0:
256,192,190061,1,0,0:0:0:0:
256,192,192852,1,0,0:0:0:0:
256,192,193200,1,8,0:0:0:0:
256,192,193549,1,0,0:0:0:0:
256,192,193898,1,8,0:0:0:0:
256,192,194247,1,0,0:0:0:0:
256,192,195642,1,0,0:0:0:0:
256,192,195991,1,8,0:0:0:0:
256,192,196689,1,8,0:0:0:0:
256,192,197038,1,0,0:0:0:0:
256,192,197387,1,8,0:0:0:0:
256,192,198084,1,8,0:0:0:0:
256,192,198782,1,8,0:0:0:0:
256,192,199131,1,0,0:0:0:0:
256,192,199480,1,8,0:0:0:0:
256,192,199828,1,0,0:0:0:0:
256,192,201224,1,0,0:0:0:0:
256,192,201573,1,8,0:0:0:0:
256,192,202270,1,8,0:0:0:0:
256,192,202619,1,0,0:0:0:0:
256,192,202968,1,8,0:0:0:0:
256,192,203666,1,8,0:0:0:0:
256,192,204363,1,8,0:0:0:0:
256,192,204712,1,0,0:0:0:0:
256,192,205061,1,8,0:0:0:0:
256,192,205410,1,0,0:0:0:0:
256,192,206805,1,8,0:0:0:0:
256,192,207503,1,0,0:0:0:0:
256,192,207852,1,8,0:0:0:0:
256,192,208200,1,0,0:0:0:0:
256,192,208898,1,8,0:0:0:0:
256,192,209596,1,0,0:0:0:0:
256,192,209945,1,0,0:0:0:0:
256,192,210294,1,8,0:0:0:0:
256,192,210642,1,8,0:0:0:0:
256,192,210991,1,0,0:0:0:0:
256,192,212387,1,0,0:0:0:0:
256,192,212735,1,8,0:0:0:0:
256,192,213259,1,8,0:0:0:0:
256,192,213782,1,0,0:0:0:0:
256,192,214131,1,8,0:0:0:0:
256,192,215177,1,0,0:0:0:0:
256,192,215526,1,8,0:0:0:0:
256,192,216049,1,8,0:0:0:0:
256,192,216573,1,0,0:0:0:0:
256,192,217968,1,0,0:0:0:0:
256,192,218317,1,8,0:0:0:0:
256,192,218840,1,8,0:0:0:0:
256,192,219363,1,0,0:0:0:0:
256,192,219712,1,8,0:0:0:0:
256,192,220759,1,0,0:0:0:0:
256,192,221107,1,8,0:0:0:0:
256,192,221631,1,8,0:0:0:0:
256,192,222154,1,0,0:0:0:0:
256,192,223549,1,0,0:0:0:0:
256,192,223898,1,8,0:0:0:0:
256,192,224421,1,8,0:0:0:0:
256,192,224945,1,0,0:0:0:0:
256,192,225294,1,8,0:0:0:0:
256,192,226340,1,0,0:0:0:0:
256,192,226689,1,8,0:0:0:0:
256,192,227212,1,8,0:0:0:0:
256,192,227735,1,0,0:0:0:0:
256,192,229131,12,0,234712,0:0:0:0:
