osu file format v14

[General]
AudioFilename: audio.mp3
AudioLeadIn: 0
PreviewTime: 65962
Countdown: 0
SampleSet: Normal
StackLeniency: 0.2
Mode: 1
LetterboxInBreaks: 0
WidescreenStoryboard: 0

[Editor]
DistanceSpacing: 1
BeatDivisor: 4
GridSize: 32
TimelineZoom: 3.099999

[Metadata]
Title:Anomaly
TitleUnicode:Anomaly
Artist:Noisia
ArtistUnicode:Noisia
Creator:Genjuro
Version:Inner Oni
Source:
Tags:electronic instrumental drum and bass dnb neurofunk outer edges featured artist fa mappers' guild osu!
BeatmapID:2595195
BeatmapSetID:1248594

[Difficulty]
HPDrainRate:6
CircleSize:2
OverallDifficulty:6
ApproachRate:10
SliderMultiplier:1.4
SliderTickRate:1

[Events]
//Background and Video events
0,0,"bg.jpg",0,90
//Break Periods
//Storyboard Layer 0 (Background)
//Storyboard Layer 1 (Fail)
//Storyboard Layer 2 (Pass)
//Storyboard Layer 3 (Foreground)
//Storyboard Layer 4 (Overlay)
//Storyboard Sound Samples

[TimingPoints]
294,348.837209302326,4,1,0,25,1,0
294,-133.333333333333,4,1,0,25,0,0
22532,-114.285714285714,4,1,0,50,0,0
22706,-133.333333333333,4,1,0,50,0,0
25323,-100,4,1,0,50,0,0
25497,-133.333333333333,4,1,0,50,0,0
28113,-114.285714285714,4,1,0,50,0,0
28288,-133.333333333333,4,1,0,50,0,0
30904,-100,4,1,0,50,0,0
31078,-133.333333333333,4,1,0,50,0,0
33695,-114.285714285714,4,1,0,50,0,0
33869,-133.333333333333,4,1,0,50,0,0
36485,-100,4,1,0,50,0,0
36660,-133.333333333333,4,1,0,50,0,0
38578,-100,4,1,0,50,0,0
39276,-114.285714285714,4,1,0,50,0,0
39450,-133.333333333333,4,1,0,50,0,0
42067,-100,4,1,0,50,0,0
42241,-133.333333333333,4,1,0,50,0,0
44857,-133.333333333333,4,1,0,75,0,0
46253,-133.333333333333,4,1,0,50,0,0
46514,-128.035399227178,4,1,0,50,0,0
46776,-123.142245301815,4,1,0,50,0,0
47038,-118.609470017305,4,1,0,50,0,0
47299,-114.398413065214,4,1,0,50,0,0
47648,-133.333333333333,4,1,0,50,0,0
49044,-133.333333333333,4,1,0,70,0,0
49305,-126.984126984127,4,1,0,70,0,0
49567,-121.212121212121,4,1,0,70,0,0
49828,-115.942028985507,4,1,0,70,0,0
50090,-111.111111111111,4,1,0,70,0,0
50439,-133.333333333333,4,1,0,75,0,0
51834,-133.333333333333,4,1,0,80,0,0
52096,-126.032203748702,4,1,0,80,0,0
52357,-119.489017166987,4,1,0,80,0,0
52619,-113.591830475552,4,1,0,80,0,0
52881,-108.249358893172,4,1,0,80,0,0
53230,-133.333333333333,4,1,0,80,0,0
54625,-133.333333333333,4,1,0,100,0,0
54887,-125.0539295071,4,1,0,100,0,0
55148,-117.74263814155,4,1,0,100,0,0
55410,-111.23891226142,4,1,0,100,0,0
55671,-105.416177799142,4,1,0,100,0,0
56107,-133.333333333333,4,1,0,100,0,0
56456,-131.765846819568,4,1,0,100,0,0
56718,-130.614292077068,4,1,0,100,0,0
56892,-129.857650044022,4,1,0,100,0,0
57067,-129.109723898855,4,1,0,100,0,0
57154,-128.738899488392,4,1,0,100,0,0
57416,-127.63942373353,4,1,0,100,0,0
57503,-127.276985266416,4,1,0,100,0,0
57677,-126.558408603947,4,1,0,100,0,0
57852,-125.847900227785,4,1,0,100,0,0
58113,-124.79704879939,4,1,0,100,0,0
58288,-124.106125630149,4,1,0,100,0,0
58462,-123.422810757038,4,1,0,100,0,0
58549,-123.083891518781,4,1,0,100,0,0
58811,-122.078508688938,4,1,0,100,0,0
58898,-121.747070461117,4,1,0,100,0,0
59247,-120.438830924356,4,1,0,100,0,0
59509,-119.475883195598,4,1,0,100,0,0
59683,-118.842474300315,4,1,0,100,0,0
59857,-118.215746100949,4,1,0,100,0,0
59945,-117.904923827524,4,1,0,100,0,0
60032,-117.595593457922,4,1,0,100,0,0
60206,-116.981913426365,4,1,0,100,0,0
60294,-116.677537123875,4,1,0,100,0,0
60468,-116.07337694597,4,1,0,100,0,0
60642,-115.47544126053,4,1,0,100,0,0
60904,-114.589934191001,4,1,0,100,0,0
61078,-114.007145967909,4,1,0,100,0,0
61253,-113.430255705825,4,1,0,100,0,0
61340,-113.144058409489,4,1,0,100,0,0
61427,-112.859301694357,4,1,0,100,0,0
61602,-112.293940618964,4,1,0,100,0,0
61689,-112.013316143023,4,1,0,100,0,0
61863,-111.456378202699,4,1,0,100,0,0
61950,-111.180042737608,4,1,0,100,0,0
62038,-110.904951129733,4,1,0,100,0,0
62212,-110.358953532259,4,1,0,100,0,0
62299,-110.088026385898,4,1,0,100,0,0
62387,-109.818305613363,4,1,0,100,0,0
62561,-109.282929132206,4,1,0,100,0,0
62648,-109.017253070471,4,1,0,100,0,0
62735,-108.75274736628,4,1,0,100,0,0
62823,-108.489639781849,4,1,0,100,0,0
62910,-108.227685074753,4,1,0,100,0,0
63084,-107.707668462872,4,1,0,100,0,0
63259,-107.19262514739,4,1,0,100,0,0
63346,-106.93700341129,4,1,0,100,0,0
63433,-106.682484122979,4,1,0,100,0,0
63520,-106.42928678542,4,1,0,100,0,0
63695,-105.926368462754,4,1,0,100,0,0
63782,-105.676631620773,4,1,0,100,0,0
63869,-105.428180741856,4,1,0,100,0,0
64044,-104.934657188968,4,1,0,100,0,0
64218,-104.44573260848,4,1,0,100,0,0
64305,-104.203029182058,4,1,0,100,0,0
64480,-103.720882955132,4,1,0,100,0,0
64596,-103.401923275773,4,1,0,100,0,0
64712,-103.084919294817,4,1,0,100,0,0
64828,-102.769853080218,4,1,0,100,0,0
64945,-102.456706918492,4,1,0,100,0,0
65061,-102.145463311392,4,1,0,100,0,0
65177,-101.836104972657,4,1,0,100,0,0
65294,-101.528614824802,4,1,0,100,0,0
65410,-101.222975995983,4,1,0,100,0,0
65526,-100.919171816908,4,1,0,100,0,0
65613,-100.692462061598,4,1,0,100,0,0
65700,-100.466869542765,4,1,0,100,0,0
65788,-100.242185119248,4,1,0,100,0,0
65875,-100.018603460244,4,1,0,100,0,0
65962,-50,4,1,0,100,0,0
66573,-80,4,1,0,100,0,0
66631,-81.3559101407701,4,1,0,100,0,0
66689,-82.7586435196258,4,1,0,100,0,0
66747,-84.2105263157895,4,1,0,100,0,0
66834,-86.4864864864865,4,1,0,100,0,0
66921,-88.8888888888889,4,1,0,100,0,0
67038,-92.3077207100679,4,1,0,100,0,0
67154,-95.9999692800098,4,1,0,100,0,0
67270,-100,4,1,0,100,0,1
75817,-98.4655134385733,4,1,0,100,0,1
75875,-97.9643977785593,4,1,0,100,0,1
75933,-97.4683568979331,4,1,0,100,0,1
75991,-96.9773140969133,4,1,0,100,0,1
76107,-96.0100157648446,4,1,0,100,0,1
76224,-95.0617330894683,4,1,0,100,0,1
76282,-94.594581811543,4,1,0,100,0,1
76340,-94.1319994201469,4,1,0,100,0,1
76456,-93.2203626831431,4,1,0,100,0,1
76573,-92.3261291254777,4,1,0,100,0,1
76689,-91.4489723878973,4,1,0,100,0,1
76747,-91.0165732078154,4,1,0,100,0,1
76805,-90.58824382007,4,1,0,100,0,1
76921,-89.7435667324188,4,1,0,100,0,1
76980,-89.3271078294317,4,1,0,100,0,1
77038,-88.9145753217596,4,1,0,100,0,1
77212,-87.6992966516409,4,1,0,100,0,1
77270,-87.301552658114,4,1,0,100,0,1
77328,-86.9074756941517,4,1,0,100,0,1
77387,-86.5168655977796,4,1,0,100,0,1
77474,-85.9375268554771,4,1,0,100,0,1
77561,-85.3658224271381,4,1,0,100,0,1
77619,-84.9889896763874,4,1,0,100,0,1
77677,-84.6153976331381,4,1,0,100,0,1
77735,-84.2450756647147,4,1,0,100,0,1
77823,-83.6956658199455,4,1,0,100,0,1
77910,-83.1533755697046,4,1,0,100,0,1
78084,-82.0895399866358,4,1,0,100,0,1
78171,-81.5677983383008,4,1,0,100,0,1
78433,-100,4,1,0,100,0,1
89596,-100,4,1,0,100,0,0
89857,-102.237362439629,4,1,0,75,0,0
90381,-105.17901468299,4,1,0,75,0,0
90642,-107.02661859031,4,1,0,75,0,0
90991,-109.593604993961,4,1,0,75,0,0
91166,-110.923773183069,4,1,0,75,0,0
91340,-112.286627336404,4,1,0,75,0,0
91776,-115.845054922141,4,1,0,75,0,0
91921,-117.647058823529,4,1,0,100,0,0
92038,-114.803576820239,4,1,0,100,0,0
92154,-109.510073831692,4,1,0,100,0,0
92270,-104.683212895297,4,1,0,100,0,0
92387,-100.26389457051,4,1,0,100,0,1
106340,-100.26389457051,4,1,0,100,0,0
110788,-114.285714285714,4,1,0,50,0,0
111834,-100,4,1,0,100,0,0
134334,-100.589049473718,4,1,0,75,0,0
134770,-101.788111759275,4,1,0,75,0,0
134945,-102.398374732996,4,1,0,74,0,0
135206,-103.327774299076,4,1,0,74,0,0
135294,-103.6412272365,4,1,0,73,0,0
135468,-104.274090703861,4,1,0,73,0,0
135642,-104.914730552743,4,1,0,73,0,0
135730,-105.237900798545,4,1,0,72,0,0
135817,-105.563179562968,4,1,0,72,0,0
135991,-106.219807019855,4,1,0,71,0,0
136253,-107.220093903358,4,1,0,71,0,0
136340,-107.557761206712,4,1,0,71,0,0
136514,-108.239399574403,4,1,0,70,0,0
136863,-109.629048189641,4,1,0,70,0,0
137038,-110.337400737716,4,1,0,70,0,0
137212,-111.054966655746,4,1,0,69,0,0
137387,-111.781801922647,4,1,0,69,0,0
137648,-112.890134192503,4,1,0,68,0,0
137735,-113.264521361122,4,1,0,68,0,0
137910,-114.020795112613,4,1,0,68,0,0
138171,-115.174200978981,4,1,0,67,0,0
138259,-115.56391724699,4,1,0,67,0,0
138433,-116.351315817031,4,1,0,66,0,0
138695,-117.552601850513,4,1,0,66,0,0
138782,-117.958608324339,4,1,0,66,0,0
139044,-119.193489174847,4,1,0,65,0,0
139131,-119.6109295683,4,1,0,65,0,0
139392,-120.880834464576,4,1,0,64,0,0
139480,-121.310198669712,4,1,0,64,0,0
139654,-122.177993788471,4,1,0,64,0,0
139741,-122.616639077923,4,1,0,63,0,0
139828,-123.058445378048,4,1,0,63,0,0
140003,-123.951678677584,4,1,0,62,0,0
140090,-124.403021002962,4,1,0,62,0,0
140352,-125.777461936596,4,1,0,62,0,0
140526,-126.710593005575,4,1,0,61,0,0
140875,-128.619183036673,4,1,0,61,0,0
141049,-129.595286878607,4,1,0,61,0,0
141224,-130.586319515995,4,1,0,60,0,0
141311,-131.087369731926,4,1,0,60,0,0
141485,-132.10144334037,4,1,0,59,0,0
141660,-133.131151491269,4,1,0,59,0,0
141834,-134.177218586765,4,1,0,59,0,0
142009,-135.239854644204,4,1,0,58,0,0
142096,-135.777325186694,4,1,0,58,0,0
142270,-136.86555969802,4,1,0,57,0,0
142445,-137.971188856343,4,1,0,57,0,0
142619,-139.095019981,4,1,0,57,0,0
142794,-140.237309575263,4,1,0,56,0,0
142968,-141.39831622885,4,1,0,56,0,0
143230,-143.176426287765,4,1,0,55,0,0
143491,-145.000036250009,4,1,0,55,0,0
143666,-146.241591108511,4,1,0,55,0,0
143927,-148.144636571578,4,1,0,54,0,0
144014,-148.790039399602,4,1,0,54,0,0
144276,-150.760208350608,4,1,0,54,0,0
144363,-151.428653632698,4,1,0,53,0,0
144450,-152.102821507339,4,1,0,53,0,0
144625,-153.469798678318,4,1,0,52,0,0
144712,-154.162542818646,4,1,0,52,0,0
144974,-156.278569676019,4,1,0,52,0,0
145061,-156.996962108783,4,1,0,51,0,0
145148,-157.721989757534,4,1,0,51,0,0
145235,-158.45349389954,4,1,0,50,0,0
145323,-160,4,1,0,100,0,0
145497,-159.253927201845,4,1,0,100,0,0
145671,-157.782711117212,4,1,0,100,0,0
145759,-157.057126388581,4,1,0,100,0,0
145846,-156.338184507199,4,1,0,100,0,0
146020,-154.920107700459,4,1,0,100,0,0
146195,-153.527289475704,4,1,0,100,0,0
146282,-152.840229993978,4,1,0,100,0,0
146369,-152.159292520154,4,1,0,100,0,0
146456,-151.484625067979,4,1,0,100,0,0
146805,-148.843855353541,4,1,0,100,0,0
146892,-148.198206208912,4,1,0,100,0,0
147067,-146.923135692331,4,1,0,100,0,0
147154,-146.293793046949,4,1,0,100,0,0
147241,-145.67003115882,4,1,0,100,0,0
147416,-144.437912641062,4,1,0,100,0,0
147590,-143.226462521215,4,1,0,100,0,0
147677,-142.628529699539,4,1,0,100,0,0
147764,-142.035366806335,4,1,0,100,0,0
147852,-141.447117166305,4,1,0,100,0,0
148200,-139.142243724337,4,1,0,100,0,0
148288,-138.577666546104,4,1,0,100,0,0
148462,-137.462335320122,4,1,0,100,0,0
148549,-136.911281489595,4,1,0,100,0,0
148637,-136.364628106386,4,1,0,100,0,0
148724,-135.822322670376,4,1,0,100,0,0
148811,-135.284496531982,4,1,0,100,0,0
148985,-134.221161576777,4,1,0,100,0,0
149160,-133.174411868504,4,1,0,100,0,0
149247,-132.657311673047,4,1,0,100,0,0
149596,-130.627770941591,4,1,0,100,0,0
149683,-130.130221312467,4,1,0,100,0,0
149857,-129.14607324907,4,1,0,100,0,0
149945,-128.659560370282,4,1,0,100,0,0
150032,-128.176863563419,4,1,0,100,0,0
150119,-127.697612054655,4,1,0,100,0,0
150206,-127.221931025358,4,1,0,100,0,0
150555,-125.354282541032,4,1,0,100,0,0
150730,-124.440794181148,4,1,0,100,0,0
150817,-123.989178224525,4,1,0,100,0,0
150991,-123.095406325627,4,1,0,100,0,0
151078,-122.653335066834,4,1,0,100,0,0
151166,-122.214427657614,4,1,0,100,0,0
151253,-121.778798554729,4,1,0,100,0,0
151340,-121.346116742245,4,1,0,100,0,0
151427,-120.916498693497,4,1,0,100,0,0
151514,-120.489911982119,4,1,0,100,0,0
151602,-120.066468797126,4,1,0,100,0,0
151776,-119.228164553944,4,1,0,100,0,0
151950,-118.401485228231,4,1,0,100,0,0
152038,-117.992568828015,4,1,0,100,0,0
152125,-117.586328943052,4,1,0,100,0,0
152212,-117.182876769315,4,1,0,100,0,0
152387,-116.384221558315,4,1,0,100,0,0
152474,-115.98909702488,4,1,0,100,0,0
152561,-115.596512684405,4,1,0,100,0,0
152648,-115.206576913063,4,1,0,100,0,0
152735,-114.819262998115,4,1,0,100,0,0
152823,-114.434675537643,4,1,0,100,0,0
152910,-114.052525750209,4,1,0,100,0,0
152997,-113.672919813986,4,1,0,100,0,0
153171,-112.921238565313,4,1,0,100,0,0
153346,-112.179559089461,4,1,0,100,0,0
153433,-111.812298458332,4,1,0,100,0,0
153520,-111.447434702948,4,1,0,100,0,0
153607,-111.085067834097,4,1,0,100,0,0
153782,-110.367114131736,4,1,0,100,0,0
153869,-110.011606224457,4,1,0,100,0,0
154044,-109.307536754659,4,1,0,100,0,0
154131,-108.958811390118,4,1,0,100,0,0
154218,-108.61230403625,4,1,0,100,0,0
154392,-107.925975731765,4,1,0,100,0,0
154741,-106.57878890259,4,1,0,100,0,0
154828,-106.247343816405,4,1,0,100,0,0
154916,-105.91784164859,4,1,0,100,0,0
155003,-105.590376915409,4,1,0,100,0,0
155177,-66.6666666666667,4,1,0,100,0,0
155700,-123.076923076923,4,1,0,100,0,0
155875,-114.285714285714,4,1,0,100,0,0
156311,-123.076923076923,4,1,0,100,0,0
156398,-126.225969731012,4,1,0,100,0,0
156485,-129.540558501164,4,1,0,100,0,0
156573,-133.333333333333,4,1,0,100,0,0
156747,-132.544428892565,4,1,0,100,0,0
156921,-131.76463147409,4,1,0,100,0,0
157009,-131.378249805232,4,1,0,100,0,0
157270,-130.232582368853,4,1,0,100,0,0
157357,-129.8551206419,4,1,0,100,0,0
157445,-129.479840636212,4,1,0,100,0,0
157619,-128.735584832888,4,1,0,100,0,0
157706,-128.366738637618,4,1,0,100,0,0
157968,-127.272773553736,4,1,0,100,0,0
158142,-126.553603677142,4,1,0,100,0,0
158317,-125.842674005811,4,1,0,100,0,0
158404,-125.490196078431,4,1,0,100,0,0
158578,-124.791130844749,4,1,0,100,0,0
158666,-124.44451081485,4,1,0,100,0,0
158753,-124.099656988548,4,1,0,100,0,0
158840,-123.756862318016,4,1,0,100,0,0
159014,-123.076923076923,4,1,0,100,0,0
159102,-122.739747548887,4,1,0,100,0,0
159363,-121.739066918748,4,1,0,100,0,0
159538,-121.08106013733,4,1,0,100,0,0
159712,-120.430128246044,4,1,0,100,0,0
159799,-120.107279822337,4,1,0,100,0,0
160061,-119.148895608887,4,1,0,100,0,0
160148,-118.832871073465,4,1,0,100,0,0
160235,-118.518518518519,4,1,0,100,0,0
160410,-117.89477655403,4,1,0,100,0,0
160497,-117.585361092885,4,1,0,100,0,0
160759,-116.666647222225,4,1,0,100,0,0
160933,-116.062195409276,4,1,0,100,0,0
161107,-115.463974662585,4,1,0,100,0,0
161195,-115.16703827231,4,1,0,100,0,0
161369,-114.577986360637,4,1,0,100,0,0
161456,-114.285714285714,4,1,0,100,0,0
161544,-113.994929505536,4,1,0,100,0,0
161631,-113.705620696242,4,1,0,100,0,0
161805,-113.131258279794,4,1,0,100,0,0
161892,-112.846311223356,4,1,0,100,0,0
162154,-112.000017920003,4,1,0,100,0,0
162328,-111.442839296082,4,1,0,100,0,0
162416,-111.16620013918,4,1,0,100,0,0
162503,-110.891053975112,4,1,0,100,0,0
162677,-110.344827586207,4,1,0,100,0,0
162735,-110.163945984414,4,1,0,100,0,0
162794,-109.983656428655,4,1,0,100,0,0
162852,-109.803956016927,4,1,0,100,0,0
163026,-109.268241513409,4,1,0,100,0,0
163113,-109.002399142805,4,1,0,100,0,0
163200,-108.737847186354,4,1,0,100,0,0
163375,-108.212577114988,4,1,0,100,0,0
163433,-108.038613000286,4,1,0,100,0,0
163491,-107.865207322322,4,1,0,100,0,0
163549,-107.692357396473,4,1,0,100,0,0
163724,-107.177000673072,4,1,0,100,0,0
163811,-106.921224718476,4,1,0,100,0,0
163898,-106.666666666667,4,1,0,100,0,0
164073,-106.161169641303,4,1,0,100,0,0
164131,-105.993733650467,4,1,0,100,0,0
164189,-105.826824983597,4,1,0,100,0,0
164247,-105.660329512304,4,1,0,100,0,0
164421,-105.164303449494,4,1,0,100,0,0
164480,-104.99999475,4,1,0,100,0,0
164538,-104.83619868137,4,1,0,100,0,0
164596,-104.672912848286,4,1,0,100,0,0
164770,-104.18609303193,4,1,0,100,0,0
164828,-104.024716272586,4,1,0,100,0,0
164887,-103.863946539149,4,1,0,100,0,0
164945,-103.703672976689,4,1,0,100,0,0
165119,-103.225806451613,4,1,0,100,0,0
165206,-102.988520899461,4,1,0,100,0,0
165294,-102.752323743801,4,1,0,100,0,0
165468,-102.283060186421,4,1,0,100,0,0
165642,-101.818167008267,4,1,0,100,0,0
165730,-101.587301587302,4,1,0,100,0,0
165817,-101.357480739545,4,1,0,100,0,0
165904,-101.128697391588,4,1,0,100,0,0
165991,-100.900944533742,4,1,0,100,0,0
166166,-100.448401665033,4,1,0,100,0,0
166340,-80,4,1,0,100,0,0
166456,-81.3559101407701,4,1,0,100,0,0
166573,-82.7586435196258,4,1,0,100,0,0
166689,-84.2105263157895,4,1,0,100,0,0
166747,-84.9557762706623,4,1,0,100,0,0
166805,-85.7142612244968,4,1,0,100,0,0
166921,-87.2727526611644,4,1,0,100,0,0
167038,-88.8888888888889,4,1,0,100,0,0
167154,-90.5660103951667,4,1,0,100,0,0
167270,-92.3077207100679,4,1,0,100,0,0
167387,-94.1176470588235,4,1,0,100,0,0
167503,-95.9999692800098,4,1,0,100,0,0
167619,-97.959215660152,4,1,0,100,0,0
167735,-100,4,1,0,100,0,1
176282,-98.4655134385733,4,1,0,100,0,1
176340,-97.9643977785593,4,1,0,100,0,1
176398,-97.4683568979331,4,1,0,100,0,1
176456,-96.9773140969133,4,1,0,100,0,1
176573,-96.0100157648446,4,1,0,100,0,1
176689,-95.0617330894683,4,1,0,100,0,1
176747,-94.594581811543,4,1,0,100,0,1
176805,-94.1319994201469,4,1,0,100,0,1
176921,-93.2203626831431,4,1,0,100,0,1
177038,-92.3261291254777,4,1,0,100,0,1
177154,-91.4489723878973,4,1,0,100,0,1
177212,-91.0165732078154,4,1,0,100,0,1
177270,-90.58824382007,4,1,0,100,0,1
177387,-89.7435667324188,4,1,0,100,0,1
177445,-89.3271078294317,4,1,0,100,0,1
177503,-88.9145753217596,4,1,0,100,0,1
177677,-87.6992966516409,4,1,0,100,0,1
177735,-87.301552658114,4,1,0,100,0,1
177794,-86.9074756941517,4,1,0,100,0,1
177852,-86.5168655977796,4,1,0,100,0,1
177939,-85.9375268554771,4,1,0,100,0,1
178026,-85.3658224271381,4,1,0,100,0,1
178084,-84.9889896763874,4,1,0,100,0,1
178142,-84.6153976331381,4,1,0,100,0,1
178200,-84.2450756647147,4,1,0,100,0,1
178288,-83.6956658199455,4,1,0,100,0,1
178375,-83.1533755697046,4,1,0,100,0,1
178549,-82.0895399866358,4,1,0,100,0,1
178637,-81.5677983383008,4,1,0,100,0,1
178898,-100,4,1,0,100,0,1
190061,-100,4,1,0,100,0,0
190323,-102.183142846925,4,1,0,75,0,0
190846,-105.049851406985,4,1,0,75,0,0
191107,-106.848451498817,4,1,0,75,0,0
191456,-109.344588536313,4,1,0,75,0,0
191631,-110.636847823441,4,1,0,75,0,0
191805,-111.960142189381,4,1,0,75,0,0
192241,-115.410937956234,4,1,0,75,0,0
192416,-117.647058823529,4,1,0,100,0,0
192561,-114.352365378678,4,1,0,100,0,0
192619,-111.237179915015,4,1,0,100,0,0
192677,-108.287338286396,4,1,0,100,0,0
192735,-105.489794389842,4,1,0,100,0,0
192794,-102.833156288916,4,1,0,100,0,0
192852,-100.307039848978,4,1,0,100,0,1
206805,-100.307039848978,4,1,0,100,0,0
211253,-114.285714285714,4,1,0,75,0,0
212299,-100,4,1,0,100,0,0
223898,-101.184977268795,4,1,0,100,0,0
224160,-102.092279169296,4,1,0,100,0,0
224334,-102.70631130283,4,1,0,100,0,0
224421,-103.01610553794,4,1,0,100,0,0
224683,-103.956695798798,4,1,0,100,0,0
224857,-104.593429649936,4,1,0,100,0,0
224945,-104.914730552743,4,1,0,100,0,0
225294,-106.219807019855,4,1,0,100,0,0
225555,-107.220093903358,4,1,0,100,0,0
225730,-107.897562054585,4,1,0,100,0,0
225817,-108.239399574403,4,1,0,100,0,0
226078,-109.278391072393,4,1,0,100,0,0
226253,-109.98208391853,4,1,0,100,0,0
226340,-110.337400737716,4,1,0,100,0,0
226689,-111.781801922647,4,1,0,100,0,0
226950,-112.890134192503,4,1,0,100,0,0
227125,-113.641400016592,4,1,0,100,0,0
227212,-114.020795112613,4,1,0,100,0,0
227474,-115.174200978981,4,1,0,100,0,0
227648,-115.956279844248,4,1,0,100,0,0
227735,-116.351315817031,4,1,0,100,0,0
228084,-117.958608324339,4,1,0,100,0,0
228346,-119.193489174847,4,1,0,100,0,0
228520,-120.031304164126,4,1,0,100,0,0
228607,-120.454498915307,4,1,0,100,0,0
228869,-121.742623918773,4,1,0,100,0,0
229044,-122.616639077923,4,1,0,100,0,0
229131,-123.076923076923,4,1,0,100,0,0
229480,-126.108334625944,4,1,0,95,0,0
229828,-126.108334625944,4,1,0,90,0,0
230177,-126.108334625944,4,1,0,85,0,0
230526,-136.170212765957,4,1,0,80,0,0
230875,-136.170212765957,4,1,0,75,0,0
231224,-136.170212765957,4,1,0,70,0,0
231573,-136.170212765957,4,1,0,65,0,0
231921,-152.380952380952,4,1,0,60,0,0
232270,-152.380952380952,4,1,0,55,0,0
232619,-152.380952380952,4,1,0,50,0,0
232968,-152.380952380952,4,1,0,45,0,0
233317,-172.972972972973,4,1,0,40,0,0
233666,-172.972972972973,4,1,0,35,0,0
234014,-172.972972972973,4,1,0,30,0,0
234363,-172.972972972973,4,1,0,25,0,0
234712,-200,4,1,0,20,0,0

[HitObjects]
256,192,22619,8,0,25235,0:0:0:0:
256,192,25410,6,0,L|256:96,8,70
256,192,28200,8,0,30817,0:0:0:0:
256,192,30991,6,0,L|256:96,8,70
256,192,33782,8,0,36398,0:0:0:0:
256,192,36573,6,0,L|256:96,8,70
256,192,38666,2,0,L|256:96,2,70
256,192,39363,8,0,41980,0:0:0:0:
256,192,42154,6,0,L|256:96,8,70
256,192,44945,1,0,0:0:0:0:
256,192,46340,1,0,0:0:0:0:
256,192,46602,1,0,0:0:0:0:
256,192,46863,1,0,0:0:0:0:
256,192,47125,1,0,0:0:0:0:
256,192,47387,1,8,0:0:0:0:
256,192,49131,1,0,0:0:0:0:
256,192,49392,1,0,0:0:0:0:
256,192,49654,1,0,0:0:0:0:
256,192,49916,1,8,0:0:0:0:
256,192,50177,1,8,0:0:0:0:
256,192,50526,1,0,0:0:0:0:
256,192,51921,1,0,0:0:0:0:
256,192,52183,1,0,0:0:0:0:
256,192,52445,1,8,0:0:0:0:
256,192,52706,1,8,0:0:0:0:
256,192,52968,1,8,0:0:0:0:
256,192,54712,1,0,0:0:0:0:
256,192,54974,1,8,0:0:0:0:
256,192,55235,1,8,0:0:0:0:
256,192,55497,1,8,0:0:0:0:
256,192,55759,1,8,0:0:0:0:
256,192,56107,1,0,0:0:0:0:
256,192,56456,1,8,0:0:0:0:
256,192,56718,1,8,0:0:0:0:
256,192,56892,1,0,0:0:0:0:
256,192,57067,1,0,0:0:0:0:
256,192,57154,1,8,0:0:0:0:
256,192,57416,1,8,0:0:0:0:
256,192,57503,1,0,0:0:0:0:
256,192,57677,1,0,0:0:0:0:
256,192,57852,1,8,0:0:0:0:
256,192,58113,1,8,0:0:0:0:
256,192,58288,1,0,0:0:0:0:
256,192,58462,1,0,0:0:0:0:
256,192,58549,1,8,0:0:0:0:
256,192,58811,1,8,0:0:0:0:
256,192,58898,1,0,0:0:0:0:
256,192,59247,1,8,0:0:0:0:
256,192,59509,1,8,0:0:0:0:
256,192,59683,1,0,0:0:0:0:
256,192,59857,1,0,0:0:0:0:
256,192,59945,1,8,0:0:0:0:
256,192,60032,1,0,0:0:0:0:
256,192,60206,1,8,0:0:0:0:
256,192,60294,1,0,0:0:0:0:
256,192,60468,1,0,0:0:0:0:
256,192,60642,1,8,0:0:0:0:
256,192,60904,1,8,0:0:0:0:
256,192,61078,1,0,0:0:0:0:
256,192,61253,1,0,0:0:0:0:
256,192,61340,1,8,0:0:0:0:
256,192,61427,1,0,0:0:0:0:
256,192,61602,1,8,0:0:0:0:
256,192,61689,1,0,0:0:0:0:
256,192,61863,1,0,0:0:0:0:
256,192,61950,1,0,0:0:0:0:
256,192,62038,1,8,0:0:0:0:
256,192,62212,1,0,0:0:0:0:
256,192,62299,1,0,0:0:0:0:
256,192,62387,1,8,0:0:0:0:
256,192,62561,1,0,0:0:0:0:
256,192,62648,1,8,0:0:0:0:
256,192,62735,1,0,0:0:0:0:
256,192,62823,1,0,0:0:0:0:
256,192,62910,1,8,0:0:0:0:
256,192,63084,1,0,0:0:0:0:
256,192,63259,1,8,0:0:0:0:
256,192,63346,1,8,0:0:0:0:
256,192,63433,1,0,0:0:0:0:
256,192,63520,1,0,0:0:0:0:
256,192,63695,1,8,0:0:0:0:
256,192,63782,1,0,0:0:0:0:
256,192,63869,1,0,0:0:0:0:
256,192,64044,1,8,0:0:0:0:
256,192,64218,1,0,0:0:0:0:
256,192,64305,1,8,0:0:0:0:
256,192,64480,1,8,0:0:0:0:
256,192,64596,1,0,0:0:0:0:
256,192,64712,1,0,0:0:0:0:
256,192,64828,1,8,0:0:0:0:
256,192,64945,1,0,0:0:0:0:
256,192,65061,1,0,0:0:0:0:
256,192,65177,1,8,0:0:0:0:
256,192,65294,1,0,0:0:0:0:
256,192,65410,1,0,0:0:0:0:
256,192,65526,1,8,0:0:0:0:
256,192,65613,1,0,0:0:0:0:
256,192,65700,1,0,0:0:0:0:
256,192,65788,1,0,0:0:0:0:
256,192,65875,1,8,0:0:0:0:
256,192,66049,8,0,66398,0:0:0:0:
256,192,66573,5,8,0:0:0:0:
256,192,66631,1,8,0:0:0:0:
256,192,66689,1,8,0:0:0:0:
256,192,66747,1,8,0:0:0:0:
256,192,66834,1,8,0:0:0:0:
256,192,66921,1,8,0:0:0:0:
256,192,67038,1,8,0:0:0:0:
256,192,67154,1,8,0:0:0:0:
256,192,67270,1,4,0:0:0:0:
256,192,67503,1,8,0:0:0:0:
256,192,67619,1,8,0:0:0:0:
256,192,67735,1,0,0:0:0:0:
256,192,67852,1,0,0:0:0:0:
256,192,67968,1,8,0:0:0:0:
256,192,68200,1,0,0:0:0:0:
256,192,68433,1,8,0:0:0:0:
256,192,68549,1,8,0:0:0:0:
256,192,68666,1,0,0:0:0:0:
256,192,68898,1,8,0:0:0:0:
256,192,69014,1,8,0:0:0:0:
256,192,69131,1,0,0:0:0:0:
256,192,69247,1,8,0:0:0:0:
256,192,69363,1,0,0:0:0:0:
256,192,69480,1,0,0:0:0:0:
256,192,69596,1,8,0:0:0:0:
256,192,69828,1,0,0:0:0:0:
256,192,69945,1,8,0:0:0:0:
256,192,70061,1,0,0:0:0:0:
256,192,70294,1,8,0:0:0:0:
256,192,70410,1,8,0:0:0:0:
256,192,70526,1,0,0:0:0:0:
256,192,70642,1,8,0:0:0:0:
256,192,70759,1,8,0:0:0:0:
256,192,70991,1,0,0:0:0:0:
256,192,71224,1,8,0:0:0:0:
256,192,71340,1,8,0:0:0:0:
256,192,71456,1,0,0:0:0:0:
256,192,71805,1,8,0:0:0:0:
256,192,71980,1,0,0:0:0:0:
256,192,72154,1,0,0:0:0:0:
256,192,72241,1,8,0:0:0:0:
256,192,72328,1,0,0:0:0:0:
256,192,72503,1,8,0:0:0:0:
256,192,72590,1,0,0:0:0:0:
256,192,72852,1,0,0:0:0:0:
256,192,73084,1,8,0:0:0:0:
256,192,73200,1,8,0:0:0:0:
256,192,73317,1,0,0:0:0:0:
256,192,73433,1,0,0:0:0:0:
256,192,73549,1,8,0:0:0:0:
256,192,73782,1,0,0:0:0:0:
256,192,74014,1,8,0:0:0:0:
256,192,74131,1,8,0:0:0:0:
256,192,74247,1,0,0:0:0:0:
256,192,74480,1,8,0:0:0:0:
256,192,74596,1,8,0:0:0:0:
256,192,74712,1,0,0:0:0:0:
256,192,74828,1,8,0:0:0:0:
256,192,74945,1,0,0:0:0:0:
256,192,75061,1,0,0:0:0:0:
256,192,75177,1,8,0:0:0:0:
256,192,75410,1,0,0:0:0:0:
256,192,75526,1,8,0:0:0:0:
256,192,75642,1,0,0:0:0:0:
256,192,75817,1,8,0:0:0:0:
256,192,75875,1,8,0:0:0:0:
256,192,75933,1,8,0:0:0:0:
256,192,75991,1,0,0:0:0:0:
256,192,76107,1,8,0:0:0:0:
256,192,76224,1,0,0:0:0:0:
256,192,76282,1,0,0:0:0:0:
256,192,76340,1,8,0:0:0:0:
256,192,76456,1,0,0:0:0:0:
256,192,76573,1,0,0:0:0:0:
256,192,76689,1,8,0:0:0:0:
256,192,76747,1,8,0:0:0:0:
256,192,76805,1,0,0:0:0:0:
256,192,76921,1,8,0:0:0:0:
256,192,76980,1,8,0:0:0:0:
256,192,77038,1,0,0:0:0:0:
256,192,77212,1,0,0:0:0:0:
256,192,77270,1,0,0:0:0:0:
256,192,77328,1,0,0:0:0:0:
256,192,77387,1,8,0:0:0:0:
256,192,77474,1,0,0:0:0:0:
256,192,77561,1,8,0:0:0:0:
256,192,77619,1,8,0:0:0:0:
256,192,77677,1,8,0:0:0:0:
256,192,77735,1,0,0:0:0:0:
256,192,77823,1,8,0:0:0:0:
256,192,77910,1,0,0:0:0:0:
256,192,78084,1,8,0:0:0:0:
256,192,78171,1,0,0:0:0:0:
256,192,78433,1,0,0:0:0:0:
256,192,78520,1,8,0:0:0:0:
256,192,78695,1,8,0:0:0:0:
256,192,78782,1,0,0:0:0:0:
256,192,78956,1,8,0:0:0:0:
256,192,79131,1,0,0:0:0:0:
256,192,79218,1,0,0:0:0:0:
256,192,79305,1,8,0:0:0:0:
256,192,79392,1,8,0:0:0:0:
256,192,79480,1,0,0:0:0:0:
256,192,79654,1,8,0:0:0:0:
256,192,79828,1,0,0:0:0:0:
256,192,79916,1,8,0:0:0:0:
256,192,80090,1,8,0:0:0:0:
256,192,80177,1,0,0:0:0:0:
256,192,80264,1,0,0:0:0:0:
256,192,80352,1,8,0:0:0:0:
256,192,80526,1,8,0:0:0:0:
256,192,80613,1,0,0:0:0:0:
256,192,80700,1,8,0:0:0:0:
256,192,80788,1,8,0:0:0:0:
256,192,80875,1,0,0:0:0:0:
256,192,81049,1,8,0:0:0:0:
256,192,81224,1,0,0:0:0:0:
256,192,81311,1,8,0:0:0:0:
256,192,81485,1,8,0:0:0:0:
256,192,81573,1,0,0:0:0:0:
256,192,81747,1,8,0:0:0:0:
256,192,81921,1,0,0:0:0:0:
256,192,82009,1,8,0:0:0:0:
256,192,82096,1,8,0:0:0:0:
256,192,82183,1,8,0:0:0:0:
256,192,82270,1,0,0:0:0:0:
256,192,82445,1,8,0:0:0:0:
256,192,82619,1,0,0:0:0:0:
256,192,82706,1,8,0:0:0:0:
256,192,82881,1,0,0:0:0:0:
256,192,82968,1,8,0:0:0:0:
256,192,83055,1,0,0:0:0:0:
256,192,83230,1,8,0:0:0:0:
256,192,83317,1,0,0:0:0:0:
256,192,83404,1,8,0:0:0:0:
256,192,83491,1,0,0:0:0:0:
256,192,83666,1,8,0:0:0:0:
256,192,83753,1,0,0:0:0:0:
256,192,84014,1,0,0:0:0:0:
256,192,84102,1,8,0:0:0:0:
256,192,84276,1,8,0:0:0:0:
256,192,84363,1,0,0:0:0:0:
256,192,84538,1,8,0:0:0:0:
256,192,84712,1,0,0:0:0:0:
256,192,84799,1,0,0:0:0:0:
256,192,84887,1,8,0:0:0:0:
256,192,84974,1,8,0:0:0:0:
256,192,85061,1,0,0:0:0:0:
256,192,85148,1,0,0:0:0:0:
256,192,85235,1,8,0:0:0:0:
256,192,85410,1,0,0:0:0:0:
256,192,85497,1,8,0:0:0:0:
256,192,85671,1,8,0:0:0:0:
256,192,85759,1,8,0:0:0:0:
256,192,85846,1,0,0:0:0:0:
256,192,85933,1,8,0:0:0:0:
256,192,86107,1,8,0:0:0:0:
256,192,86195,1,0,0:0:0:0:
256,192,86282,1,8,0:0:0:0:
256,192,86369,1,8,0:0:0:0:
256,192,86456,1,0,0:0:0:0:
256,192,86544,1,0,0:0:0:0:
256,192,86631,1,8,0:0:0:0:
256,192,86805,1,0,0:0:0:0:
256,192,86892,1,8,0:0:0:0:
256,192,87067,1,8,0:0:0:0:
256,192,87154,1,0,0:0:0:0:
256,192,87328,1,8,0:0:0:0:
256,192,87503,1,0,0:0:0:0:
256,192,87590,1,8,0:0:0:0:
256,192,87677,1,8,0:0:0:0:
256,192,87764,1,8,0:0:0:0:
256,192,87852,1,0,0:0:0:0:
256,192,87939,1,0,0:0:0:0:
256,192,88026,1,8,0:0:0:0:
256,192,88200,1,0,0:0:0:0:
256,192,88549,1,8,0:0:0:0:
256,192,88724,1,0,0:0:0:0:
256,192,88898,1,0,0:0:0:0:
256,192,88985,1,8,0:0:0:0:
256,192,89073,1,0,0:0:0:0:
256,192,89247,1,8,0:0:0:0:
256,192,89334,1,0,0:0:0:0:
256,192,89596,1,0,0:0:0:0:
256,192,89945,1,8,0:0:0:0:
256,192,90381,1,0,0:0:0:0:
256,192,90642,1,8,0:0:0:0:
256,192,91166,1,0,0:0:0:0:
256,192,91340,1,8,0:0:0:0:
256,192,91776,1,0,0:0:0:0:
256,192,91980,1,0,0:0:0:0:
256,192,92038,1,8,0:0:0:0:
256,192,92154,1,8,0:0:0:0:
256,192,92270,1,8,0:0:0:0:
256,192,92387,1,0,0:0:0:0:
256,192,92619,1,8,0:0:0:0:
256,192,92735,1,8,0:0:0:0:
256,192,92852,1,0,0:0:0:0:
256,192,92968,1,8,0:0:0:0:
256,192,93084,1,8,0:0:0:0:
256,192,93317,1,0,0:0:0:0:
256,192,93549,1,8,0:0:0:0:
256,192,93666,1,8,0:0:0:0:
256,192,93782,1,0,0:0:0:0:
256,192,94131,1,8,0:0:0:0:
256,192,94305,1,0,0:0:0:0:
256,192,94480,1,0,0:0:0:0:
256,192,94567,1,8,0:0:0:0:
256,192,94654,1,0,0:0:0:0:
256,192,94828,1,8,0:0:0:0:
256,192,94916,1,0,0:0:0:0:
256,192,95177,1,0,0:0:0:0:
256,192,95410,1,8,0:0:0:0:
256,192,95526,1,8,0:0:0:0:
256,192,95642,1,0,0:0:0:0:
256,192,95759,1,0,0:0:0:0:
256,192,95875,1,8,0:0:0:0:
256,192,96107,1,0,0:0:0:0:
256,192,96340,1,8,0:0:0:0:
256,192,96456,1,8,0:0:0:0:
256,192,96573,1,0,0:0:0:0:
256,192,96805,1,8,0:0:0:0:
256,192,96921,1,8,0:0:0:0:
256,192,97038,1,0,0:0:0:0:
256,192,97154,1,8,0:0:0:0:
256,192,97270,1,0,0:0:0:0:
256,192,97387,1,0,0:0:0:0:
256,192,97503,1,8,0:0:0:0:
256,192,97735,1,0,0:0:0:0:
256,192,97852,1,8,0:0:0:0:
256,192,97968,1,0,0:0:0:0:
256,192,98200,1,8,0:0:0:0:
256,192,98317,1,8,0:0:0:0:
256,192,98433,1,0,0:0:0:0:
256,192,98549,1,8,0:0:0:0:
256,192,98666,1,8,0:0:0:0:
256,192,98898,1,0,0:0:0:0:
256,192,99131,1,8,0:0:0:0:
256,192,99247,1,8,0:0:0:0:
256,192,99363,1,0,0:0:0:0:
256,192,99712,1,8,0:0:0:0:
256,192,99887,1,0,0:0:0:0:
256,192,100061,1,0,0:0:0:0:
256,192,100148,1,8,0:0:0:0:
256,192,100235,1,0,0:0:0:0:
256,192,100410,1,8,0:0:0:0:
256,192,100497,1,0,0:0:0:0:
256,192,100759,1,0,0:0:0:0:
256,192,100846,1,8,0:0:0:0:
256,192,101020,1,8,0:0:0:0:
256,192,101107,1,0,0:0:0:0:
256,192,101282,1,8,0:0:0:0:
256,192,101456,1,0,0:0:0:0:
256,192,101544,1,0,0:0:0:0:
256,192,101631,1,8,0:0:0:0:
256,192,101718,1,8,0:0:0:0:
256,192,101805,1,0,0:0:0:0:
256,192,101980,1,8,0:0:0:0:
256,192,102154,1,0,0:0:0:0:
256,192,102241,1,8,0:0:0:0:
256,192,102416,1,8,0:0:0:0:
256,192,102503,1,0,0:0:0:0:
256,192,102590,1,0,0:0:0:0:
256,192,102677,1,8,0:0:0:0:
256,192,102852,1,8,0:0:0:0:
256,192,102939,1,0,0:0:0:0:
256,192,103026,1,8,0:0:0:0:
256,192,103113,1,8,0:0:0:0:
256,192,103200,1,0,0:0:0:0:
256,192,103375,1,8,0:0:0:0:
256,192,103549,1,0,0:0:0:0:
256,192,103637,1,8,0:0:0:0:
256,192,103811,1,8,0:0:0:0:
256,192,103898,1,0,0:0:0:0:
256,192,104073,1,8,0:0:0:0:
256,192,104247,1,0,0:0:0:0:
256,192,104334,1,8,0:0:0:0:
256,192,104421,1,8,0:0:0:0:
256,192,104509,1,8,0:0:0:0:
256,192,104596,1,0,0:0:0:0:
256,192,104770,1,8,0:0:0:0:
256,192,104945,1,0,0:0:0:0:
256,192,105032,1,8,0:0:0:0:
256,192,105206,1,0,0:0:0:0:
256,192,105294,1,8,0:0:0:0:
256,192,105381,1,0,0:0:0:0:
256,192,105555,1,8,0:0:0:0:
256,192,105642,1,0,0:0:0:0:
256,192,105730,1,8,0:0:0:0:
256,192,105817,1,0,0:0:0:0:
256,192,105904,1,0,0:0:0:0:
256,192,105991,1,8,0:0:0:0:
256,192,106078,1,0,0:0:0:0:
256,192,106253,1,8,0:0:0:0:
256,192,106340,1,0,0:0:0:0:
256,192,106514,1,0,0:0:0:0:
256,192,106602,1,0,0:0:0:0:
256,192,106689,1,8,0:0:0:0:
256,192,106863,1,0,0:0:0:0:
256,192,106950,1,0,0:0:0:0:
256,192,107038,1,8,0:0:0:0:
256,192,107212,1,0,0:0:0:0:
256,192,107299,1,8,0:0:0:0:
256,192,107387,1,0,0:0:0:0:
256,192,107474,1,0,0:0:0:0:
256,192,107561,1,8,0:0:0:0:
256,192,107735,1,0,0:0:0:0:
256,192,107794,1,0,0:0:0:0:
256,192,107852,1,0,0:0:0:0:
256,192,107910,1,8,0:0:0:0:
256,192,108084,1,0,0:0:0:0:
256,192,108259,1,8,0:0:0:0:
256,192,108317,1,8,0:0:0:0:
256,192,108375,1,8,0:0:0:0:
256,192,108433,1,0,0:0:0:0:
256,192,108520,1,8,0:0:0:0:
256,192,108607,1,0,0:0:0:0:
256,192,108666,1,0,0:0:0:0:
256,192,108724,1,0,0:0:0:0:
256,192,108782,1,8,0:0:0:0:
256,192,108956,1,0,0:0:0:0:
256,192,109014,1,8,0:0:0:0:
256,192,109073,1,8,0:0:0:0:
256,192,109131,1,0,0:0:0:0:
256,192,109247,1,8,0:0:0:0:
256,192,109363,1,8,0:0:0:0:
256,192,109480,1,0,0:0:0:0:
256,192,109596,1,8,0:0:0:0:
256,192,109712,1,8,0:0:0:0:
256,192,109828,1,0,0:0:0:0:
256,192,109945,1,8,0:0:0:0:
256,192,110061,1,8,0:0:0:0:
256,192,110177,1,0,0:0:0:0:
256,192,110264,1,8,0:0:0:0:
256,192,110352,1,8,0:0:0:0:
256,192,110439,1,8,0:0:0:0:
256,192,110526,1,0,0:0:0:0:
256,192,110875,1,8,0:0:0:0:
256,192,111049,1,8,0:0:0:0:
256,192,111137,1,8,0:0:0:0:
256,192,111398,1,8,0:0:0:0:
256,192,111573,1,8,0:0:0:0:
256,192,111660,1,8,0:0:0:0:
256,192,111921,1,0,0:0:0:0:
256,192,112270,1,8,0:0:0:0:
256,192,112532,1,8,0:0:0:0:
256,192,112706,1,8,0:0:0:0:
256,192,112794,1,0,0:0:0:0:
256,192,113055,1,8,0:0:0:0:
256,192,113230,1,8,0:0:0:0:
256,192,113317,1,8,0:0:0:0:
256,192,113578,1,8,0:0:0:0:
256,192,113666,1,8,0:0:0:0:
256,192,113840,1,8,0:0:0:0:
256,192,114102,1,0,0:0:0:0:
256,192,114145,1,0,0:0:0:0:
256,192,114189,1,8,0:0:0:0:
256,192,114363,1,8,0:0:0:0:
256,192,114538,1,0,0:0:0:0:
256,192,114625,1,8,0:0:0:0:
256,192,114712,1,0,0:0:0:0:
256,192,115061,1,8,0:0:0:0:
256,192,115323,1,8,0:0:0:0:
256,192,115497,1,8,0:0:0:0:
256,192,115584,1,0,0:0:0:0:
256,192,115846,1,8,0:0:0:0:
256,192,116020,1,8,0:0:0:0:
256,192,116107,1,8,0:0:0:0:
256,192,116369,1,8,0:0:0:0:
256,192,116456,1,0,0:0:0:0:
256,192,116631,1,8,0:0:0:0:
256,192,116892,1,0,0:0:0:0:
256,192,116936,1,0,0:0:0:0:
256,192,116980,1,8,0:0:0:0:
256,192,117154,1,0,0:0:0:0:
256,192,117241,1,8,0:0:0:0:
256,192,117328,1,0,0:0:0:0:
256,192,117416,1,8,0:0:0:0:
256,192,117503,1,0,0:0:0:0:
256,192,117852,1,8,0:0:0:0:
256,192,118113,1,8,0:0:0:0:
256,192,118288,1,8,0:0:0:0:
256,192,118375,1,0,0:0:0:0:
256,192,118637,1,8,0:0:0:0:
256,192,118811,1,8,0:0:0:0:
256,192,118898,1,8,0:0:0:0:
256,192,119160,1,8,0:0:0:0:
256,192,119247,1,8,0:0:0:0:
256,192,119421,1,8,0:0:0:0:
256,192,119683,1,0,0:0:0:0:
256,192,119727,1,0,0:0:0:0:
256,192,119770,1,8,0:0:0:0:
256,192,119945,1,8,0:0:0:0:
256,192,120119,1,0,0:0:0:0:
256,192,120206,1,8,0:0:0:0:
256,192,120294,1,0,0:0:0:0:
256,192,120642,1,8,0:0:0:0:
256,192,120904,1,8,0:0:0:0:
256,192,121078,1,8,0:0:0:0:
256,192,121166,1,0,0:0:0:0:
256,192,121427,1,8,0:0:0:0:
256,192,121602,1,8,0:0:0:0:
256,192,121689,1,8,0:0:0:0:
256,192,121950,1,8,0:0:0:0:
256,192,122038,1,8,0:0:0:0:
256,192,122212,1,8,0:0:0:0:
256,192,122474,1,0,0:0:0:0:
256,192,122561,1,8,0:0:0:0:
256,192,122735,1,8,0:0:0:0:
256,192,122823,1,8,0:0:0:0:
256,192,122910,1,0,0:0:0:0:
256,192,122997,1,8,0:0:0:0:
256,192,123084,1,0,0:0:0:0:
256,192,123433,1,8,0:0:0:0:
256,192,123695,1,8,0:0:0:0:
256,192,123869,1,8,0:0:0:0:
256,192,123956,1,0,0:0:0:0:
256,192,124218,1,8,0:0:0:0:
256,192,124392,1,8,0:0:0:0:
256,192,124480,1,8,0:0:0:0:
256,192,124741,1,8,0:0:0:0:
256,192,124828,1,8,0:0:0:0:
256,192,125003,1,8,0:0:0:0:
256,192,125264,1,0,0:0:0:0:
256,192,125308,1,0,0:0:0:0:
256,192,125352,1,8,0:0:0:0:
256,192,125526,1,8,0:0:0:0:
256,192,125700,1,0,0:0:0:0:
256,192,125788,1,8,0:0:0:0:
256,192,125875,1,0,0:0:0:0:
256,192,126224,1,8,0:0:0:0:
256,192,126485,1,8,0:0:0:0:
256,192,126660,1,8,0:0:0:0:
256,192,126747,1,0,0:0:0:0:
256,192,127009,1,8,0:0:0:0:
256,192,127183,1,8,0:0:0:0:
256,192,127270,1,8,0:0:0:0:
256,192,127532,1,8,0:0:0:0:
256,192,127619,1,0,0:0:0:0:
256,192,127794,1,8,0:0:0:0:
256,192,128055,1,0,0:0:0:0:
256,192,128099,1,0,0:0:0:0:
256,192,128142,1,8,0:0:0:0:
256,192,128230,1,8,0:0:0:0:
256,192,128317,1,0,0:0:0:0:
256,192,128491,1,0,0:0:0:0:
256,192,128578,1,8,0:0:0:0:
256,192,128666,1,0,0:0:0:0:
256,192,129014,1,8,0:0:0:0:
256,192,129276,1,8,0:0:0:0:
256,192,129450,1,8,0:0:0:0:
256,192,129538,1,0,0:0:0:0:
256,192,129799,1,8,0:0:0:0:
256,192,129974,1,8,0:0:0:0:
256,192,130061,1,8,0:0:0:0:
256,192,130323,1,8,0:0:0:0:
256,192,130410,1,8,0:0:0:0:
256,192,130584,1,8,0:0:0:0:
256,192,130846,1,0,0:0:0:0:
256,192,130889,1,0,0:0:0:0:
256,192,130933,1,8,0:0:0:0:
256,192,131107,1,8,0:0:0:0:
256,192,131282,1,0,0:0:0:0:
256,192,131369,1,8,0:0:0:0:
256,192,131456,1,0,0:0:0:0:
256,192,131805,1,8,0:0:0:0:
256,192,132067,1,8,0:0:0:0:
256,192,132241,1,8,0:0:0:0:
256,192,132328,1,0,0:0:0:0:
256,192,132590,1,8,0:0:0:0:
256,192,132764,1,8,0:0:0:0:
256,192,132852,1,8,0:0:0:0:
256,192,133113,1,8,0:0:0:0:
256,192,133200,1,8,0:0:0:0:
256,192,133375,1,8,0:0:0:0:
256,192,133637,1,0,0:0:0:0:
256,192,133724,1,8,0:0:0:0:
256,192,133898,1,8,0:0:0:0:
256,192,134073,1,8,0:0:0:0:
256,192,134247,1,4,0:0:0:0:
256,192,134421,1,8,0:0:0:0:
256,192,134770,1,8,0:0:0:0:
256,192,134945,1,8,0:0:0:0:
256,192,135206,1,8,0:0:0:0:
256,192,135294,1,8,0:0:0:0:
256,192,135468,1,8,0:0:0:0:
256,192,135642,1,0,0:0:0:0:
256,192,135730,1,8,0:0:0:0:
256,192,135817,1,8,0:0:0:0:
256,192,135991,1,8,0:0:0:0:
256,192,136253,1,8,0:0:0:0:
256,192,136340,1,8,0:0:0:0:
256,192,136514,1,8,0:0:0:0:
256,192,136863,1,8,0:0:0:0:
256,192,137038,1,0,0:0:0:0:
256,192,137212,1,8,0:0:0:0:
256,192,137387,1,8,0:0:0:0:
256,192,137648,1,8,0:0:0:0:
256,192,137735,1,8,0:0:0:0:
256,192,137910,1,8,0:0:0:0:
256,192,138171,1,8,0:0:0:0:
256,192,138259,1,8,0:0:0:0:
256,192,138433,1,0,0:0:0:0:
256,192,138695,1,8,0:0:0:0:
256,192,138782,1,8,0:0:0:0:
256,192,139044,1,8,0:0:0:0:
256,192,139131,1,8,0:0:0:0:
256,192,139392,1,8,0:0:0:0:
256,192,139480,1,8,0:0:0:0:
256,192,139654,1,8,0:0:0:0:
256,192,139741,1,8,0:0:0:0:
256,192,139828,1,0,0:0:0:0:
256,192,140003,1,8,0:0:0:0:
256,192,140090,1,0,0:0:0:0:
256,192,140352,1,8,0:0:0:0:
256,192,140526,1,0,0:0:0:0:
256,192,140875,1,8,0:0:0:0:
256,192,141049,1,8,0:0:0:0:
256,192,141224,1,0,0:0:0:0:
256,192,141311,1,8,0:0:0:0:
256,192,141485,1,8,0:0:0:0:
256,192,141660,1,8,0:0:0:0:
256,192,141834,1,8,0:0:0:0:
256,192,142009,1,8,0:0:0:0:
256,192,142096,1,0,0:0:0:0:
256,192,142270,1,8,0:0:0:0:
256,192,142445,1,8,0:0:0:0:
256,192,142619,1,0,0:0:0:0:
256,192,142794,1,8,0:0:0:0:
256,192,142968,1,8,0:0:0:0:
256,192,143230,1,8,0:0:0:0:
256,192,143491,1,0,0:0:0:0:
256,192,143666,1,8,0:0:0:0:
256,192,143927,1,8,0:0:0:0:
256,192,144014,1,0,0:0:0:0:
256,192,144276,1,8,0:0:0:0:
256,192,144363,1,8,0:0:0:0:
256,192,144450,1,0,0:0:0:0:
256,192,144625,1,0,0:0:0:0:
256,192,144712,1,8,0:0:0:0:
256,192,144974,1,0,0:0:0:0:
256,192,145061,1,8,0:0:0:0:
256,192,145148,1,8,0:0:0:0:
256,192,145235,1,8,0:0:0:0:
256,192,145410,1,0,0:0:0:0:
256,192,145497,1,8,0:0:0:0:
256,192,145671,1,0,0:0:0:0:
256,192,145759,1,8,0:0:0:0:
256,192,145846,1,0,0:0:0:0:
256,192,146020,1,8,0:0:0:0:
256,192,146195,1,0,0:0:0:0:
256,192,146282,1,0,0:0:0:0:
256,192,146369,1,8,0:0:0:0:
256,192,146456,1,8,0:0:0:0:
256,192,146805,1,8,0:0:0:0:
256,192,146892,1,0,0:0:0:0:
256,192,147067,1,8,0:0:0:0:
256,192,147154,1,0,0:0:0:0:
256,192,147241,1,8,0:0:0:0:
256,192,147416,1,0,0:0:0:0:
256,192,147590,1,8,0:0:0:0:
256,192,147677,1,8,0:0:0:0:
256,192,147764,1,0,0:0:0:0:
256,192,147852,1,0,0:0:0:0:
256,192,148200,1,0,0:0:0:0:
256,192,148288,1,8,0:0:0:0:
256,192,148462,1,0,0:0:0:0:
256,192,148549,1,8,0:0:0:0:
256,192,148637,1,0,0:0:0:0:
256,192,148724,1,0,0:0:0:0:
256,192,148811,1,8,0:0:0:0:
256,192,148985,1,0,0:0:0:0:
256,192,149160,1,8,0:0:0:0:
256,192,149247,1,8,0:0:0:0:
256,192,149596,1,8,0:0:0:0:
256,192,149683,1,0,0:0:0:0:
256,192,149857,1,8,0:0:0:0:
256,192,149945,1,0,0:0:0:0:
256,192,150032,1,8,0:0:0:0:
256,192,150119,1,8,0:0:0:0:
256,192,150206,1,0,0:0:0:0:
256,192,150555,1,8,0:0:0:0:
256,192,150730,1,0,0:0:0:0:
256,192,150817,1,8,0:0:0:0:
256,192,150991,1,0,0:0:0:0:
256,192,151078,1,8,0:0:0:0:
256,192,151166,1,0,0:0:0:0:
256,192,151253,1,0,0:0:0:0:
256,192,151340,1,8,0:0:0:0:
256,192,151427,1,0,0:0:0:0:
256,192,151514,1,0,0:0:0:0:
256,192,151602,1,8,0:0:0:0:
256,192,151776,1,0,0:0:0:0:
256,192,151950,1,8,0:0:0:0:
256,192,152038,1,0,0:0:0:0:
256,192,152125,1,8,0:0:0:0:
256,192,152212,1,0,0:0:0:0:
256,192,152387,1,8,0:0:0:0:
256,192,152474,1,0,0:0:0:0:
256,192,152561,1,8,0:0:0:0:
256,192,152648,1,8,0:0:0:0:
256,192,152735,1,0,0:0:0:0:
256,192,152823,1,8,0:0:0:0:
256,192,152910,1,8,0:0:0:0:
256,192,152997,1,0,0:0:0:0:
256,192,153171,1,8,0:0:0:0:
256,192,153346,1,0,0:0:0:0:
256,192,153433,1,8,0:0:0:0:
256,192,153520,1,0,0:0:0:0:
256,192,153607,1,8,0:0:0:0:
256,192,153782,1,0,0:0:0:0:
256,192,153869,1,8,0:0:0:0:
256,192,154044,1,0,0:0:0:0:
256,192,154131,1,8,0:0:0:0:
256,192,154218,1,0,0:0:0:0:
256,192,154392,1,8,0:0:0:0:
256,192,154741,1,8,0:0:0:0:
256,192,154828,1,0,0:0:0:0:
256,192,154916,1,8,0:0:0:0:
256,192,155003,1,8,0:0:0:0:
256,192,155177,8,0,155439,0:0:0:0:
256,192,155700,5,0,0:0:0:0:
256,192,155875,2,0,L|256:160,3,30.6250002920628
256,192,156311,1,0,0:0:0:0:
256,192,156398,1,8,0:0:0:0:
256,192,156485,1,8,0:0:0:0:
256,192,156573,1,0,0:0:0:0:
256,192,156747,1,0,0:0:0:0:
256,192,156921,1,8,0:0:0:0:
256,192,157009,1,8,0:0:0:0:
256,192,157270,1,0,0:0:0:0:
256,192,157357,1,8,0:0:0:0:
256,192,157445,1,8,0:0:0:0:
256,192,157619,1,8,0:0:0:0:
256,192,157706,1,8,0:0:0:0:
256,192,157968,1,0,0:0:0:0:
256,192,158142,1,8,0:0:0:0:
256,192,158317,1,8,0:0:0:0:
256,192,158404,1,8,0:0:0:0:
256,192,158578,1,0,0:0:0:0:
256,192,158666,1,0,0:0:0:0:
256,192,158753,1,8,0:0:0:0:
256,192,158840,1,8,0:0:0:0:
256,192,159014,1,8,0:0:0:0:
256,192,159102,1,8,0:0:0:0:
256,192,159363,1,0,0:0:0:0:
256,192,159538,1,0,0:0:0:0:
256,192,159712,1,8,0:0:0:0:
256,192,159799,1,0,0:0:0:0:
256,192,160061,1,0,0:0:0:0:
256,192,160148,1,8,0:0:0:0:
256,192,160235,1,0,0:0:0:0:
256,192,160410,1,8,0:0:0:0:
256,192,160497,1,0,0:0:0:0:
256,192,160759,1,0,0:0:0:0:
256,192,160933,1,8,0:0:0:0:
256,192,161107,1,8,0:0:0:0:
256,192,161195,1,0,0:0:0:0:
256,192,161369,1,0,0:0:0:0:
256,192,161456,1,0,0:0:0:0:
256,192,161544,1,8,0:0:0:0:
256,192,161631,1,0,0:0:0:0:
256,192,161805,1,8,0:0:0:0:
256,192,161892,1,0,0:0:0:0:
256,192,162154,1,0,0:0:0:0:
256,192,162328,1,0,0:0:0:0:
256,192,162416,1,0,0:0:0:0:
256,192,162503,1,8,0:0:0:0:
256,192,162677,1,8,0:0:0:0:
256,192,162735,1,8,0:0:0:0:
256,192,162794,1,8,0:0:0:0:
256,192,162852,1,0,0:0:0:0:
256,192,163026,1,8,0:0:0:0:
256,192,163113,1,0,0:0:0:0:
256,192,163200,1,8,0:0:0:0:
256,192,163375,1,0,0:0:0:0:
256,192,163433,1,8,0:0:0:0:
256,192,163491,1,8,0:0:0:0:
256,192,163549,1,0,0:0:0:0:
256,192,163724,1,0,0:0:0:0:
256,192,163811,1,0,0:0:0:0:
256,192,163898,1,8,0:0:0:0:
256,192,164073,1,8,0:0:0:0:
256,192,164131,1,8,0:0:0:0:
256,192,164189,1,8,0:0:0:0:
256,192,164247,1,0,0:0:0:0:
256,192,164421,1,8,0:0:0:0:
256,192,164480,1,0,0:0:0:0:
256,192,164538,1,0,0:0:0:0:
256,192,164596,1,8,0:0:0:0:
256,192,164770,1,0,0:0:0:0:
256,192,164828,1,8,0:0:0:0:
256,192,164887,1,8,0:0:0:0:
256,192,164945,1,0,0:0:0:0:
256,192,165119,1,0,0:0:0:0:
256,192,165206,1,0,0:0:0:0:
256,192,165294,1,8,0:0:0:0:
256,192,165468,1,0,0:0:0:0:
256,192,165642,1,8,0:0:0:0:
256,192,165730,1,8,0:0:0:0:
256,192,165817,1,0,0:0:0:0:
256,192,165904,1,0,0:0:0:0:
256,192,165991,1,8,0:0:0:0:
256,192,166166,1,0,0:0:0:0:
256,192,166340,1,8,0:0:0:0:
256,192,166456,1,8,0:0:0:0:
256,192,166573,1,0,0:0:0:0:
256,192,166689,1,8,0:0:0:0:
256,192,166747,1,8,0:0:0:0:
256,192,166805,1,0,0:0:0:0:
256,192,166921,1,0,0:0:0:0:
256,192,167038,1,8,0:0:0:0:
256,192,167154,1,0,0:0:0:0:
256,192,167270,1,0,0:0:0:0:
256,192,167387,1,8,0:0:0:0:
256,192,167503,1,8,0:0:0:0:
256,192,167619,1,8,0:0:0:0:
256,192,167735,1,4,0:0:0:0:
256,192,167968,1,8,0:0:0:0:
256,192,168084,1,8,0:0:0:0:
256,192,168200,1,0,0:0:0:0:
256,192,168317,1,0,0:0:0:0:
256,192,168433,1,8,0:0:0:0:
256,192,168666,1,0,0:0:0:0:
256,192,168898,1,8,0:0:0:0:
256,192,169014,1,8,0:0:0:0:
256,192,169131,1,0,0:0:0:0:
256,192,169363,1,8,0:0:0:0:
256,192,169480,1,8,0:0:0:0:
256,192,169596,1,0,0:0:0:0:
256,192,169712,1,8,0:0:0:0:
256,192,169828,1,0,0:0:0:0:
256,192,169945,1,0,0:0:0:0:
256,192,170061,1,8,0:0:0:0:
256,192,170294,1,0,0:0:0:0:
256,192,170410,1,8,0:0:0:0:
256,192,170526,1,0,0:0:0:0:
256,192,170759,1,8,0:0:0:0:
256,192,170875,1,8,0:0:0:0:
256,192,170991,1,0,0:0:0:0:
256,192,171107,1,8,0:0:0:0:
256,192,171224,1,8,0:0:0:0:
256,192,171456,1,0,0:0:0:0:
256,192,171689,1,8,0:0:0:0:
256,192,171805,1,8,0:0:0:0:
256,192,171921,1,0,0:0:0:0:
256,192,172270,1,8,0:0:0:0:
256,192,172445,1,0,0:0:0:0:
256,192,172619,1,0,0:0:0:0:
256,192,172706,1,8,0:0:0:0:
256,192,172794,1,0,0:0:0:0:
256,192,172968,1,8,0:0:0:0:
256,192,173055,1,0,0:0:0:0:
256,192,173317,1,0,0:0:0:0:
256,192,173549,1,8,0:0:0:0:
256,192,173666,1,8,0:0:0:0:
256,192,173782,1,0,0:0:0:0:
256,192,173898,1,0,0:0:0:0:
256,192,174014,1,8,0:0:0:0:
256,192,174247,1,0,0:0:0:0:
256,192,174480,1,8,0:0:0:0:
256,192,174596,1,8,0:0:0:0:
256,192,174712,1,0,0:0:0:0:
256,192,174945,1,8,0:0:0:0:
256,192,175061,1,8,0:0:0:0:
256,192,175177,1,0,0:0:0:0:
256,192,175294,1,8,0:0:0:0:
256,192,175410,1,0,0:0:0:0:
256,192,175526,1,0,0:0:0:0:
256,192,175642,1,8,0:0:0:0:
256,192,175875,1,0,0:0:0:0:
256,192,175991,1,8,0:0:0:0:
256,192,176107,1,0,0:0:0:0:
256,192,176282,1,8,0:0:0:0:
256,192,176340,1,8,0:0:0:0:
256,192,176398,1,8,0:0:0:0:
256,192,176456,1,0,0:0:0:0:
256,192,176573,1,8,0:0:0:0:
256,192,176689,1,0,0:0:0:0:
256,192,176747,1,0,0:0:0:0:
256,192,176805,1,8,0:0:0:0:
256,192,176921,1,0,0:0:0:0:
256,192,177038,1,0,0:0:0:0:
256,192,177154,1,8,0:0:0:0:
256,192,177212,1,8,0:0:0:0:
256,192,177270,1,0,0:0:0:0:
256,192,177387,1,8,0:0:0:0:
256,192,177445,1,8,0:0:0:0:
256,192,177503,1,0,0:0:0:0:
256,192,177677,1,0,0:0:0:0:
256,192,177735,1,0,0:0:0:0:
256,192,177794,1,0,0:0:0:0:
256,192,177852,1,8,0:0:0:0:
256,192,177939,1,0,0:0:0:0:
256,192,178026,1,8,0:0:0:0:
256,192,178084,1,8,0:0:0:0:
256,192,178142,1,8,0:0:0:0:
256,192,178200,1,0,0:0:0:0:
256,192,178288,1,8,0:0:0:0:
256,192,178375,1,0,0:0:0:0:
256,192,178549,1,8,0:0:0:0:
256,192,178637,1,0,0:0:0:0:
256,192,178898,1,0,0:0:0:0:
256,192,178985,1,8,0:0:0:0:
256,192,179160,1,8,0:0:0:0:
256,192,179247,1,0,0:0:0:0:
256,192,179421,1,8,0:0:0:0:
256,192,179596,1,0,0:0:0:0:
256,192,179683,1,0,0:0:0:0:
256,192,179770,1,8,0:0:0:0:
256,192,179857,1,8,0:0:0:0:
256,192,179945,1,0,0:0:0:0:
256,192,180119,1,8,0:0:0:0:
256,192,180294,1,0,0:0:0:0:
256,192,180381,1,8,0:0:0:0:
256,192,180555,1,8,0:0:0:0:
256,192,180642,1,0,0:0:0:0:
256,192,180730,1,0,0:0:0:0:
256,192,180817,1,8,0:0:0:0:
256,192,180991,1,8,0:0:0:0:
256,192,181078,1,0,0:0:0:0:
256,192,181166,1,8,0:0:0:0:
256,192,181253,1,8,0:0:0:0:
256,192,181340,1,0,0:0:0:0:
256,192,181514,1,8,0:0:0:0:
256,192,181689,1,0,0:0:0:0:
256,192,181776,1,8,0:0:0:0:
256,192,181950,1,8,0:0:0:0:
256,192,182038,1,0,0:0:0:0:
256,192,182212,1,8,0:0:0:0:
256,192,182387,1,0,0:0:0:0:
256,192,182474,1,8,0:0:0:0:
256,192,182561,1,8,0:0:0:0:
256,192,182648,1,8,0:0:0:0:
256,192,182735,1,0,0:0:0:0:
256,192,182910,1,8,0:0:0:0:
256,192,183084,1,0,0:0:0:0:
256,192,183171,1,8,0:0:0:0:
256,192,183346,1,0,0:0:0:0:
256,192,183433,1,8,0:0:0:0:
256,192,183520,1,0,0:0:0:0:
256,192,183695,1,8,0:0:0:0:
256,192,183782,1,0,0:0:0:0:
256,192,183869,1,8,0:0:0:0:
256,192,183956,1,0,0:0:0:0:
256,192,184131,1,8,0:0:0:0:
256,192,184218,1,0,0:0:0:0:
256,192,184480,1,0,0:0:0:0:
256,192,184567,1,8,0:0:0:0:
256,192,184741,1,8,0:0:0:0:
256,192,184828,1,0,0:0:0:0:
256,192,185003,1,8,0:0:0:0:
256,192,185177,1,0,0:0:0:0:
256,192,185264,1,0,0:0:0:0:
256,192,185352,1,8,0:0:0:0:
256,192,185439,1,8,0:0:0:0:
256,192,185526,1,0,0:0:0:0:
256,192,185613,1,0,0:0:0:0:
256,192,185700,1,8,0:0:0:0:
256,192,185875,1,0,0:0:0:0:
256,192,185962,1,8,0:0:0:0:
256,192,186137,1,8,0:0:0:0:
256,192,186224,1,8,0:0:0:0:
256,192,186311,1,0,0:0:0:0:
256,192,186398,1,8,0:0:0:0:
256,192,186573,1,8,0:0:0:0:
256,192,186660,1,0,0:0:0:0:
256,192,186747,1,8,0:0:0:0:
256,192,186834,1,8,0:0:0:0:
256,192,186921,1,0,0:0:0:0:
256,192,187009,1,0,0:0:0:0:
256,192,187096,1,8,0:0:0:0:
256,192,187270,1,0,0:0:0:0:
256,192,187357,1,8,0:0:0:0:
256,192,187532,1,8,0:0:0:0:
256,192,187619,1,0,0:0:0:0:
256,192,187794,1,8,0:0:0:0:
256,192,187968,1,0,0:0:0:0:
256,192,188055,1,8,0:0:0:0:
256,192,188142,1,8,0:0:0:0:
256,192,188230,1,8,0:0:0:0:
256,192,188317,1,0,0:0:0:0:
256,192,188404,1,0,0:0:0:0:
256,192,188491,1,8,0:0:0:0:
256,192,188666,1,0,0:0:0:0:
256,192,189014,1,8,0:0:0:0:
256,192,189189,1,0,0:0:0:0:
256,192,189363,1,0,0:0:0:0:
256,192,189450,1,8,0:0:0:0:
256,192,189538,1,0,0:0:0:0:
256,192,189712,1,8,0:0:0:0:
256,192,189799,1,0,0:0:0:0:
256,192,190061,1,0,0:0:0:0:
256,192,190410,1,8,0:0:0:0:
256,192,190846,1,0,0:0:0:0:
256,192,191107,1,8,0:0:0:0:
256,192,191631,1,0,0:0:0:0:
256,192,191805,1,8,0:0:0:0:
256,192,192241,1,0,0:0:0:0:
256,192,192503,1,8,0:0:0:0:
256,192,192561,1,8,0:0:0:0:
256,192,192619,1,8,0:0:0:0:
256,192,192677,1,8,0:0:0:0:
256,192,192735,1,8,0:0:0:0:
256,192,192794,1,8,0:0:0:0:
256,192,192852,1,0,0:0:0:0:
256,192,193113,1,8,0:0:0:0:
256,192,193200,1,0,0:0:0:0:
256,192,193288,1,8,0:0:0:0:
256,192,193462,1,0,0:0:0:0:
256,192,193549,1,8,0:0:0:0:
256,192,193724,1,0,0:0:0:0:
256,192,193811,1,8,0:0:0:0:
256,192,193898,1,0,0:0:0:0:
256,192,193985,1,8,0:0:0:0:
256,192,194247,1,0,0:0:0:0:
256,192,194596,1,8,0:0:0:0:
256,192,194770,1,0,0:0:0:0:
256,192,194945,1,0,0:0:0:0:
256,192,195032,1,8,0:0:0:0:
256,192,195119,1,0,0:0:0:0:
256,192,195294,1,8,0:0:0:0:
256,192,195381,1,0,0:0:0:0:
256,192,195642,1,0,0:0:0:0:
256,192,195904,1,8,0:0:0:0:
256,192,195991,1,0,0:0:0:0:
256,192,196078,1,8,0:0:0:0:
256,192,196253,1,0,0:0:0:0:
256,192,196340,1,8,0:0:0:0:
256,192,196514,1,0,0:0:0:0:
256,192,196602,1,8,0:0:0:0:
256,192,196689,1,0,0:0:0:0:
256,192,196776,1,8,0:0:0:0:
256,192,197038,1,0,0:0:0:0:
256,192,197299,1,8,0:0:0:0:
256,192,197387,1,0,0:0:0:0:
256,192,197474,1,8,0:0:0:0:
256,192,197648,1,0,0:0:0:0:
256,192,197735,1,8,0:0:0:0:
256,192,197823,1,0,0:0:0:0:
256,192,197910,1,0,0:0:0:0:
256,192,197997,1,8,0:0:0:0:
256,192,198171,1,0,0:0:0:0:
256,192,198259,1,8,0:0:0:0:
256,192,198433,1,0,0:0:0:0:
256,192,198695,1,8,0:0:0:0:
256,192,198782,1,0,0:0:0:0:
256,192,198869,1,8,0:0:0:0:
256,192,199044,1,0,0:0:0:0:
256,192,199131,1,8,0:0:0:0:
256,192,199305,1,0,0:0:0:0:
256,192,199392,1,8,0:0:0:0:
256,192,199480,1,0,0:0:0:0:
256,192,199567,1,8,0:0:0:0:
256,192,199828,1,0,0:0:0:0:
256,192,200177,1,8,0:0:0:0:
256,192,200352,1,0,0:0:0:0:
256,192,200526,1,0,0:0:0:0:
256,192,200613,1,8,0:0:0:0:
256,192,200700,1,0,0:0:0:0:
256,192,200875,1,8,0:0:0:0:
256,192,200962,1,0,0:0:0:0:
256,192,201224,1,0,0:0:0:0:
256,192,201485,1,8,0:0:0:0:
256,192,201573,1,0,0:0:0:0:
256,192,201660,1,8,0:0:0:0:
256,192,201834,1,0,0:0:0:0:
256,192,201921,1,8,0:0:0:0:
256,192,202096,1,0,0:0:0:0:
256,192,202183,1,8,0:0:0:0:
256,192,202270,1,0,0:0:0:0:
256,192,202357,1,8,0:0:0:0:
256,192,202619,1,0,0:0:0:0:
256,192,202881,1,8,0:0:0:0:
256,192,202968,1,0,0:0:0:0:
256,192,203055,1,8,0:0:0:0:
256,192,203230,1,0,0:0:0:0:
256,192,203317,1,8,0:0:0:0:
256,192,203404,1,8,0:0:0:0:
256,192,203491,1,0,0:0:0:0:
256,192,203578,1,8,0:0:0:0:
256,192,203753,1,0,0:0:0:0:
256,192,203840,1,8,0:0:0:0:
256,192,204014,1,0,0:0:0:0:
256,192,204276,1,8,0:0:0:0:
256,192,204363,1,0,0:0:0:0:
256,192,204450,1,8,0:0:0:0:
256,192,204625,1,0,0:0:0:0:
256,192,204712,1,8,0:0:0:0:
256,192,204887,1,0,0:0:0:0:
256,192,204974,1,8,0:0:0:0:
256,192,205061,1,0,0:0:0:0:
256,192,205148,1,8,0:0:0:0:
256,192,205410,1,0,0:0:0:0:
256,192,205497,1,8,0:0:0:0:
256,192,205671,1,0,0:0:0:0:
256,192,205759,1,8,0:0:0:0:
256,192,205846,1,0,0:0:0:0:
256,192,206020,1,8,0:0:0:0:
256,192,206107,1,0,0:0:0:0:
256,192,206195,1,8,0:0:0:0:
256,192,206282,1,0,0:0:0:0:
256,192,206369,1,0,0:0:0:0:
256,192,206456,1,8,0:0:0:0:
256,192,206544,1,0,0:0:0:0:
256,192,206718,1,8,0:0:0:0:
256,192,206805,1,0,0:0:0:0:
256,192,206980,1,0,0:0:0:0:
256,192,207067,1,0,0:0:0:0:
256,192,207154,1,8,0:0:0:0:
256,192,207328,1,0,0:0:0:0:
256,192,207416,1,0,0:0:0:0:
256,192,207503,1,8,0:0:0:0:
256,192,207677,1,0,0:0:0:0:
256,192,207764,1,8,0:0:0:0:
256,192,207852,1,0,0:0:0:0:
256,192,207939,1,0,0:0:0:0:
256,192,208026,1,8,0:0:0:0:
256,192,208200,1,0,0:0:0:0:
256,192,208259,1,0,0:0:0:0:
256,192,208317,1,0,0:0:0:0:
256,192,208375,1,8,0:0:0:0:
256,192,208549,1,0,0:0:0:0:
256,192,208724,1,8,0:0:0:0:
256,192,208782,1,8,0:0:0:0:
256,192,208840,1,8,0:0:0:0:
256,192,208898,1,0,0:0:0:0:
256,192,208985,1,8,0:0:0:0:
256,192,209073,1,0,0:0:0:0:
256,192,209131,1,0,0:0:0:0:
256,192,209189,1,0,0:0:0:0:
256,192,209247,1,8,0:0:0:0:
256,192,209421,1,0,0:0:0:0:
256,192,209480,1,8,0:0:0:0:
256,192,209538,1,8,0:0:0:0:
256,192,209596,1,0,0:0:0:0:
256,192,209683,1,8,0:0:0:0:
256,192,209770,1,8,0:0:0:0:
256,192,209857,1,8,0:0:0:0:
256,192,209945,1,0,0:0:0:0:
256,192,210032,1,8,0:0:0:0:
256,192,210119,1,8,0:0:0:0:
256,192,210206,1,8,0:0:0:0:
256,192,210294,1,0,0:0:0:0:
256,192,210381,1,8,0:0:0:0:
256,192,210468,1,8,0:0:0:0:
256,192,210555,1,8,0:0:0:0:
256,192,210642,1,0,0:0:0:0:
256,192,210730,1,8,0:0:0:0:
256,192,210817,1,8,0:0:0:0:
256,192,210904,1,8,0:0:0:0:
256,192,210991,1,0,0:0:0:0:
256,192,211340,1,8,0:0:0:0:
256,192,211514,1,8,0:0:0:0:
256,192,211689,1,8,0:0:0:0:
256,192,211863,1,8,0:0:0:0:
256,192,212038,1,0,0:0:0:0:
256,192,212212,1,8,0:0:0:0:
256,192,212387,1,0,0:0:0:0:
256,192,212735,1,8,0:0:0:0:
256,192,212997,1,0,0:0:0:0:
256,192,213171,1,0,0:0:0:0:
256,192,213259,1,8,0:0:0:0:
256,192,213520,1,0,0:0:0:0:
256,192,213695,1,8,0:0:0:0:
256,192,213782,1,0,0:0:0:0:
256,192,214131,1,8,0:0:0:0:
256,192,214392,1,0,0:0:0:0:
256,192,214567,1,0,0:0:0:0:
256,192,214654,1,8,0:0:0:0:
256,192,214916,1,8,0:0:0:0:
256,192,215090,1,8,0:0:0:0:
256,192,215177,1,0,0:0:0:0:
256,192,215526,1,8,0:0:0:0:
256,192,215788,1,0,0:0:0:0:
256,192,215962,1,0,0:0:0:0:
256,192,216049,1,8,0:0:0:0:
256,192,216311,1,0,0:0:0:0:
256,192,216485,1,8,0:0:0:0:
256,192,216573,1,0,0:0:0:0:
256,192,216921,1,8,0:0:0:0:
256,192,217183,1,0,0:0:0:0:
256,192,217357,1,0,0:0:0:0:
256,192,217445,1,8,0:0:0:0:
256,192,217706,1,8,0:0:0:0:
256,192,217881,1,8,0:0:0:0:
256,192,217968,1,0,0:0:0:0:
256,192,218317,1,8,0:0:0:0:
256,192,218578,1,0,0:0:0:0:
256,192,218753,1,0,0:0:0:0:
256,192,218840,1,8,0:0:0:0:
256,192,219102,1,0,0:0:0:0:
256,192,219276,1,8,0:0:0:0:
256,192,219363,1,0,0:0:0:0:
256,192,219712,1,8,0:0:0:0:
256,192,219974,1,0,0:0:0:0:
256,192,220148,1,0,0:0:0:0:
256,192,220235,1,8,0:0:0:0:
256,192,220497,1,8,0:0:0:0:
256,192,220671,1,8,0:0:0:0:
256,192,220759,1,0,0:0:0:0:
256,192,221107,1,8,0:0:0:0:
256,192,221369,1,0,0:0:0:0:
256,192,221544,1,0,0:0:0:0:
256,192,221631,1,8,0:0:0:0:
256,192,221892,1,0,0:0:0:0:
256,192,222067,1,8,0:0:0:0:
256,192,222154,1,0,0:0:0:0:
256,192,222503,1,8,0:0:0:0:
256,192,222764,1,0,0:0:0:0:
256,192,222939,1,0,0:0:0:0:
256,192,223026,1,8,0:0:0:0:
256,192,223288,1,8,0:0:0:0:
256,192,223462,1,8,0:0:0:0:
256,192,223549,1,0,0:0:0:0:
256,192,223898,1,8,0:0:0:0:
256,192,224160,1,0,0:0:0:0:
256,192,224334,1,0,0:0:0:0:
256,192,224421,1,8,0:0:0:0:
256,192,224683,1,0,0:0:0:0:
256,192,224857,1,8,0:0:0:0:
256,192,224945,1,0,0:0:0:0:
256,192,225294,1,8,0:0:0:0:
256,192,225555,1,0,0:0:0:0:
256,192,225730,1,0,0:0:0:0:
256,192,225817,1,8,0:0:0:0:
256,192,226078,1,8,0:0:0:0:
256,192,226253,1,8,0:0:0:0:
256,192,226340,1,0,0:0:0:0:
256,192,226689,1,8,0:0:0:0:
256,192,226950,1,0,0:0:0:0:
256,192,227125,1,0,0:0:0:0:
256,192,227212,1,8,0:0:0:0:
256,192,227474,1,0,0:0:0:0:
256,192,227648,1,8,0:0:0:0:
256,192,227735,1,0,0:0:0:0:
256,192,228084,1,8,0:0:0:0:
256,192,228346,1,0,0:0:0:0:
256,192,228520,1,0,0:0:0:0:
256,192,228607,1,8,0:0:0:0:
256,192,228869,1,8,0:0:0:0:
256,192,229044,1,8,0:0:0:0:
256,192,229131,1,0,0:0:0:0:
256,192,229480,12,0,234712,0:0:0:0:
