osu file format v14

[General]
AudioFilename: audio.mp3
AudioLeadIn: 0
PreviewTime: 164512
Countdown: 0
SampleSet: None
StackLeniency: 0.7
Mode: 0
LetterboxInBreaks: 0
WidescreenStoryboard: 0

[Editor]
DistanceSpacing: 0.1
BeatDivisor: 4
GridSize: 32
TimelineZoom: 1.7

[Metadata]
Title:Pulse
TitleUnicode:Pulse
Artist:Noisestorm
ArtistUnicode:Noisestorm
Creator:Nuolong
Version:Intense
Source:
Tags:
BeatmapID:2087721
BeatmapSetID:998117

[Difficulty]
HPDrainRate:7
CircleSize:4
OverallDifficulty:9
ApproachRate:9.2
SliderMultiplier:1.4
SliderTickRate:1

[Events]
//Background and Video events
0,0,"LMAO.jpg",0,0
//Break Periods
2,11883,15884
2,17369,21369
2,109941,120112
//Storyboard Layer 0 (Background)
//Storyboard Layer 1 (Fail)
//Storyboard Layer 2 (Pass)
//Storyboard Layer 3 (Foreground)
//Storyboard Sound Samples

[TimingPoints]
27,342.857142857143,4,3,1,100,1,0
10998,-200,4,3,1,100,0,0
21969,-100,4,3,1,70,0,0
43912,-80,4,3,1,100,0,1
49398,-50,4,3,1,100,0,1
49741,-80,4,3,1,100,0,1
57627,-66.6666666666667,4,3,1,100,0,1
60369,-50,4,3,1,100,0,1
60712,-80,4,3,1,100,0,1
63112,-66.6666666666667,4,3,1,100,0,1
65855,-50,4,3,1,100,0,0
66198,-80,4,3,1,100,0,0
68598,-50,4,3,1,100,0,0
68855,-80,4,3,1,100,0,0
71341,-50,4,3,1,100,0,0
71598,-80,4,3,1,100,0,0
74084,-50,4,3,1,100,0,0
74341,-80,4,3,1,100,0,0
76827,-50,4,3,1,100,0,0
77084,-80,4,3,1,100,0,0
79569,-50,4,3,1,100,0,0
79827,-80,4,3,1,100,0,0
82312,-50,4,3,1,100,0,0
82569,-80,4,3,1,100,0,0
87798,-80,4,3,1,100,0,1
93284,-50,4,3,1,100,0,1
93541,-80,4,3,1,100,0,1
101512,-66.6666666666667,4,3,1,100,0,1
104255,-50,4,3,1,100,0,1
104512,-80,4,3,1,100,0,1
106998,-66.6666666666667,4,3,1,100,0,1
109741,-66.6666666666667,4,3,1,100,0,0
120712,-100,4,3,1,70,0,0
142655,-80,4,3,1,100,0,1
148141,-50,4,3,1,100,0,1
148398,-80,4,3,1,100,0,1
156369,-66.6666666666667,4,3,1,100,0,1
159112,-50,4,3,1,100,0,1
159369,-80,4,3,1,100,0,1
161855,-66.6666666666667,4,3,1,100,0,1
163912,-66.6666666666667,4,3,1,100,0,0
164598,-80,4,3,1,100,0,1
170084,-50,4,3,1,100,0,1
170341,-80,4,3,1,100,0,1
178312,-66.6666666666667,4,3,1,100,0,1
181055,-50,4,3,1,100,0,1
181312,-66.6666666666667,4,3,1,100,0,1
186541,-66.6666666666667,4,3,1,100,0,0

[Colours]
Combo1 : 255,0,128
Combo2 : 255,0,0
Combo3 : 255,128,0
Combo4 : 255,255,0

[HitObjects]
185,191,10998,6,0,L|337:191,1,140,4|8,0:0|0:0,0:0:0:0:
325,191,16484,6,0,L|185:191,1,140,4|8,0:0|0:0,0:0:0:0:
185,191,21969,6,0,P|176:231|197:274,1,70,4|0,0:0|0:0,0:0:0:0:
307,223,22312,2,0,P|316:183|295:140,1,70
214,62,22655,2,0,L|299:67,1,70,8|0,0:0|0:0,0:0:0:0:
376,217,22998,2,0,L|304:223,1,70
284,228,23255,1,0,0:0:0:0:
284,228,23341,6,0,P|280:273|307:313,1,70
376,217,23684,2,0,B|393:180|369:139,1,70
376,217,24027,2,0,P|425:223|451:212,1,70
284,228,24369,2,0,P|244:221|197:237,1,70
187,242,24627,1,0,0:0:0:0:
187,242,24712,6,0,P|197:209|186:167,1,70
132,91,25055,1,0,0:0:0:0:
92,208,25227,1,0,0:0:0:0:
92,208,25312,1,0,0:0:0:0:
92,208,25398,2,0,P|83:250|95:290,1,70
155,344,25741,1,0,0:0:0:0:
258,343,25912,1,0,0:0:0:0:
258,343,25998,1,0,0:0:0:0:
258,343,26084,6,0,L|350:334,1,70
424,327,26427,1,0,0:0:0:0:
320,253,26598,1,0,0:0:0:0:
320,253,26684,1,0,0:0:0:0:
320,253,26769,2,0,P|307:216|320:173,1,70
378,113,27112,1,0,0:0:0:0:
378,113,27284,1,0,0:0:0:0:
320,253,27455,6,0,L|234:253,1,70,4|0,0:0|0:0,0:0:0:0:
155,253,27798,1,0,0:0:0:0:
50,152,27969,1,2,0:0:0:0:
64,152,28055,1,2,0:0:0:0:
79,152,28141,2,0,L|156:152,1,70,8|0,0:0|0:0,0:0:0:0:
249,153,28484,1,0,0:0:0:0:
155,253,28655,1,0,0:0:0:0:
155,253,28741,1,0,0:0:0:0:
155,253,28827,6,0,P|146:296|168:342,1,70
273,320,29169,2,0,P|282:277|260:231,1,70
249,153,29512,2,0,P|283:162|333:143,1,70
369,70,29855,1,0,0:0:0:0:
249,153,30027,1,0,0:0:0:0:
249,153,30112,1,0,0:0:0:0:
249,153,30198,6,0,P|215:162|165:143,1,70
130,71,30541,1,0,0:0:0:0:
249,153,30712,1,0,0:0:0:0:
249,153,30798,1,0,0:0:0:0:
249,153,30884,6,0,P|282:161|316:154,1,70
423,109,31227,2,0,P|412:151|428:191,1,70
444,210,31484,1,0,0:0:0:0:
444,210,31569,6,0,P|455:252|439:292,1,70
303,319,31912,2,0,P|292:277|308:237,1,70
313,216,32169,1,0,0:0:0:0:
313,216,32255,6,0,P|319:181|308:149,1,70
217,103,32598,1,0,0:0:0:0:
366,75,32769,1,0,0:0:0:0:
313,216,32941,5,4,0:0:0:0:
256,192,33027,12,4,35684,0:0:0:0:
256,192,35769,12,4,38427,0:0:0:0:
256,192,39112,5,4,0:0:0:0:
256,192,39798,1,4,0:0:0:0:
256,192,40484,1,4,0:0:0:0:
256,192,41169,5,4,0:0:0:0:
256,63,41512,1,4,0:0:0:0:
256,321,41855,1,4,0:0:0:0:
142,194,42198,1,4,0:0:0:0:
370,194,42541,5,4,0:0:0:0:
190,263,42712,1,4,0:0:0:0:
317,127,42884,1,4,0:0:0:0:
321,261,43055,1,4,0:0:0:0:
197,127,43227,1,2,0:0:0:0:
163,109,43312,1,2,0:0:0:0:
124,108,43398,1,2,0:0:0:0:
89,122,43484,1,2,0:0:0:0:
63,150,43569,1,2,0:0:0:0:
52,187,43655,1,2,0:0:0:0:
56,224,43741,1,2,0:0:0:0:
76,257,43826,1,2,0:0:0:0:
108,278,43912,6,0,P|120:324|101:376,1,87.5,4|0,0:0|0:0,0:0:0:0:
52,187,44255,1,8,0:0:0:0:
205,229,44427,1,0,0:0:0:0:
205,229,44512,1,0,0:0:0:0:
205,229,44598,1,0,0:0:0:0:
27,320,44769,1,4,0:0:0:0:
65,104,44941,1,8,0:0:0:0:
34,286,45112,1,0,0:0:0:0:
205,96,45284,6,0,P|246:85|293:101,1,87.5,4|0,0:0|0:0,0:0:0:0:
331,178,45627,1,8,0:0:0:0:
159,179,45798,1,0,0:0:0:0:
127,149,45883,1,0,0:0:0:0:
111,109,45969,1,0,0:0:0:0:
116,66,46055,1,0,0:0:0:0:
140,29,46140,1,4,0:0:0:0:
245,176,46312,2,0,P|238:225|207:256,1,87.5,8|0,0:0|0:0,0:0:0:0:
205,96,46655,5,6,0:0:0:0:
205,96,46741,1,0,0:0:0:0:
205,96,46827,1,0,0:0:0:0:
134,304,46998,1,10,0:0:0:0:
134,304,47084,1,0,0:0:0:0:
134,304,47169,1,0,0:0:0:0:
413,198,47341,2,0,P|437:193|475:206,1,43.75,2|2,0:0|0:0,0:0:0:0:
352,291,47512,2,0,P|331:296|286:277,1,43.75,2|2,0:0|0:0,0:0:0:0:
430,276,47684,2,0,P|431:306|416:336,1,43.75,10|2,0:0|0:0,0:0:0:0:
334,215,47855,2,0,P|334:179|351:150,1,43.75,2|2,0:0|0:0,0:0:0:0:
405,54,48027,5,6,0:0:0:0:
405,54,48112,1,0,0:0:0:0:
405,54,48198,1,0,0:0:0:0:
139,109,48369,1,10,0:0:0:0:
139,109,48455,1,0,0:0:0:0:
139,109,48541,1,0,0:0:0:0:
363,162,48712,2,0,L|421:175,1,43.75,2|2,0:0|0:0,0:0:0:0:
366,242,48884,2,0,L|386:290,1,43.75,2|2,0:0|0:0,0:0:0:0:
303,303,49055,2,0,L|304:351,1,43.75,10|2,0:0|0:0,0:0:0:0:
216,331,49227,2,0,L|186:371,1,43.75,2|2,0:0|0:0,0:0:0:0:
128,300,49398,6,0,P|68:297|141:209,1,210,4|0,0:0|0:0,0:0:0:0:
135,191,49741,6,0,P|150:155|137:106,1,87.5,8|0,0:0|0:0,0:0:0:0:
61,52,50084,1,0,0:0:0:0:
40,248,50255,1,4,0:0:0:0:
40,248,50341,1,0,0:0:0:0:
40,248,50427,1,8,0:0:0:0:
227,151,50598,1,0,0:0:0:0:
56,79,50769,5,4,0:0:0:0:
30,329,50941,1,0,0:0:0:0:
222,181,51112,1,8,0:0:0:0:
54,105,51284,1,0,0:0:0:0:
50,135,51369,1,0,0:0:0:0:
47,165,51455,1,0,0:0:0:0:
43,196,51541,1,0,0:0:0:0:
40,226,51626,1,4,0:0:0:0:
30,329,51798,1,8,0:0:0:0:
197,203,51969,1,0,0:0:0:0:
355,327,52141,5,6,0:0:0:0:
355,327,52227,1,0,0:0:0:0:
355,327,52312,1,0,0:0:0:0:
394,90,52484,1,10,0:0:0:0:
394,90,52569,1,0,0:0:0:0:
394,90,52655,1,0,0:0:0:0:
197,203,52827,2,0,P|172:206|141:195,1,43.75,2|2,0:0|0:0,0:0:0:0:
70,221,52998,2,0,P|67:196|78:165,1,43.75,6|2,0:0|0:0,0:0:0:0:
54,99,53169,2,0,P|75:95|96:99,1,43.75,10|2,0:0|0:0,0:0:0:0:
184,78,53341,2,0,P|187:103|176:134,1,43.75,2|2,0:0|0:0,0:0:0:0:
73,266,53512,5,6,0:0:0:0:
73,266,53598,1,0,0:0:0:0:
73,266,53684,1,0,0:0:0:0:
322,155,53855,1,10,0:0:0:0:
322,155,53941,1,0,0:0:0:0:
322,155,54027,1,0,0:0:0:0:
169,335,54198,2,0,L|164:279,1,43.75,8|0,0:0|0:0,0:0:0:0:
322,155,54369,2,0,L|321:225,1,43.75,4|0,0:0|0:0,0:0:0:0:
76,309,54541,2,0,L|71:253,1,43.75,8|0,0:0|0:0,0:0:0:0:
229,129,54712,2,0,L|228:199,1,43.75,4|0,0:0|0:0,0:0:0:0:
221,348,54884,5,4,0:0:0:0:
393,254,55055,1,0,0:0:0:0:
229,129,55227,1,8,0:0:0:0:
254,329,55398,1,0,0:0:0:0:
254,329,55484,1,0,0:0:0:0:
254,329,55569,1,0,0:0:0:0:
393,215,55740,1,4,0:0:0:0:
206,148,55912,1,8,0:0:0:0:
288,306,56083,1,0,0:0:0:0:
393,178,56255,5,4,0:0:0:0:
184,167,56426,1,0,0:0:0:0:
316,286,56598,1,8,0:0:0:0:
392,137,56769,1,0,0:0:0:0:
372,127,56854,1,0,0:0:0:0:
352,118,56940,1,0,0:0:0:0:
332,108,57026,1,0,0:0:0:0:
312,99,57112,1,4,0:0:0:0:
184,167,57284,2,0,B|154:212|193:263,1,87.5,8|0,0:0|0:0,0:0:0:0:
184,167,57627,6,0,L|22:167,1,157.500006008148,4|0,0:0|0:0,0:0:0:0:
0,167,57969,1,8,0:0:0:0:
95,39,58141,1,0,0:0:0:0:
94,269,58312,2,0,P|157:302|234:268,1,157.500006008148,4|0,0:0|0:0,0:0:0:0:
232,240,58655,1,8,0:0:0:0:
0,167,58827,1,0,0:0:0:0:
232,82,58998,6,0,L|232:249,1,157.500006008148,4|0,0:0|0:0,0:0:0:0:
231,270,59341,1,8,0:0:0:0:
0,167,59512,1,0,0:0:0:0:
232,82,59684,1,4,0:0:0:0:
259,67,59769,1,0,0:0:0:0:
290,59,59855,1,4,0:0:0:0:
321,61,59941,1,0,0:0:0:0:
350,73,60027,1,10,0:0:0:0:
378,88,60112,1,2,0:0:0:0:
407,98,60198,1,2,0:0:0:0:
439,98,60283,1,2,0:0:0:0:
469,89,60369,6,0,P|427:200|481:278,1,210,4|0,0:0|0:0,0:0:0:0:
499,295,60712,6,0,P|456:285|408:303,1,87.5,8|0,0:0|0:0,0:0:0:0:
329,360,61055,1,0,0:0:0:0:
352,139,61227,1,4,0:0:0:0:
352,139,61312,1,0,0:0:0:0:
352,139,61398,1,8,0:0:0:0:
329,360,61569,1,0,0:0:0:0:
163,239,61741,6,0,P|112:230|67:248,1,87.5,4|0,0:0|0:0,0:0:0:0:
238,301,62084,1,8,0:0:0:0:
352,139,62255,1,0,0:0:0:0:
389,117,62340,1,0,0:0:0:0:
432,116,62426,1,0,0:0:0:0:
471,135,62512,1,0,0:0:0:0:
496,170,62597,1,4,0:0:0:0:
268,166,62769,2,0,P|273:97|298:72,1,87.5,8|0,0:0|0:0,0:0:0:0:
315,246,63112,6,0,P|262:262|179:178,1,157.500006008148,4|0,0:0|0:0,0:0:0:0:
183,172,63455,1,8,0:0:0:0:
238,371,63627,1,0,0:0:0:0:
268,166,63798,2,0,P|337:111|408:145,1,157.500006008148,4|0,0:0|0:0,0:0:0:0:
412,157,64141,1,8,0:0:0:0:
183,172,64312,1,0,0:0:0:0:
498,153,64484,6,0,L|482:311,1,157.500006008148,4|0,0:0|0:0,0:0:0:0:
478,343,64827,1,8,0:0:0:0:
268,166,64998,1,0,0:0:0:0:
512,24,65169,2,0,L|506:85,1,52.5000020027161,12|0,0:0|0:0,0:0:0:0:
498,153,65341,2,0,L|492:214,1,52.5000020027161,4|0,0:0|0:0,0:0:0:0:
287,347,65512,2,0,L|281:286,1,52.5000020027161,8|0,0:0|0:0,0:0:0:0:
273,218,65684,2,0,L|267:157,1,52.5000020027161,4|0,0:0|0:0,0:0:0:0:
250,20,65855,6,0,B|77:39|77:39|103:73,1,210,4|0,0:0|0:0,0:0:0:0:
117,106,66198,6,0,L|91:194,1,87.5,8|0,0:0|0:0,0:0:0:0:
53,331,66541,5,0,0:0:0:0:
0,131,66712,1,4,0:0:0:0:
0,131,66798,1,0,0:0:0:0:
0,131,66884,1,8,0:0:0:0:
177,216,67055,1,0,0:0:0:0:
15,333,67227,5,4,0:0:0:0:
81,88,67398,1,0,0:0:0:0:
81,88,67484,1,0,0:0:0:0:
81,88,67569,1,8,0:0:0:0:
230,282,67741,1,0,0:0:0:0:
5,210,67912,5,0,0:0:0:0:
162,46,68084,1,4,0:0:0:0:
162,46,68169,1,0,0:0:0:0:
162,46,68255,1,8,0:0:0:0:
230,282,68427,1,0,0:0:0:0:
5,210,68598,6,0,B|84:218|84:218|128:253|128:253|211:260,1,210,4|0,0:0|0:0,0:0:0:0:
230,282,68941,1,8,0:0:0:0:
162,46,69112,1,0,0:0:0:0:
5,210,69284,5,0,0:0:0:0:
230,282,69455,1,4,0:0:0:0:
230,282,69541,1,0,0:0:0:0:
230,282,69627,1,8,0:0:0:0:
126,46,69798,1,0,0:0:0:0:
127,312,69969,5,4,0:0:0:0:
370,227,70141,1,0,0:0:0:0:
370,227,70227,1,0,0:0:0:0:
370,227,70312,1,8,0:0:0:0:
126,130,70484,1,0,0:0:0:0:
269,350,70655,5,0,0:0:0:0:
288,102,70827,1,4,0:0:0:0:
288,102,70912,1,4,0:0:0:0:
288,102,70998,1,8,0:0:0:0:
85,139,71169,1,4,0:0:0:0:
85,139,71341,6,0,B|85:310|85:310|103:290|128:279,1,210,4|0,0:0|0:0,0:0:0:0:
146,275,71684,6,0,P|187:265|241:281,1,87.5,8|0,0:0|0:0,0:0:0:0:
330,347,72027,5,0,0:0:0:0:
283,103,72198,1,4,0:0:0:0:
283,103,72284,1,2,0:0:0:0:
283,103,72369,1,8,0:0:0:0:
326,332,72541,1,0,0:0:0:0:
348,45,72712,5,4,0:0:0:0:
157,219,72884,1,0,0:0:0:0:
157,219,72969,1,0,0:0:0:0:
157,219,73055,1,8,0:0:0:0:
400,274,73227,1,0,0:0:0:0:
283,103,73398,5,0,0:0:0:0:
326,332,73569,1,4,0:0:0:0:
326,332,73655,1,2,0:0:0:0:
326,332,73741,1,8,0:0:0:0:
348,45,73912,1,0,0:0:0:0:
157,219,74084,6,0,P|90:203|150:80,1,210,4|0,0:0|0:0,0:0:0:0:
150,82,74427,1,8,0:0:0:0:
165,316,74598,1,0,0:0:0:0:
283,103,74769,5,0,0:0:0:0:
35,151,74941,1,4,0:0:0:0:
35,151,75027,1,0,0:0:0:0:
35,151,75112,1,8,0:0:0:0:
276,244,75284,1,0,0:0:0:0:
224,23,75455,5,4,0:0:0:0:
165,316,75627,1,0,0:0:0:0:
165,316,75712,1,0,0:0:0:0:
165,316,75798,1,8,0:0:0:0:
283,103,75969,1,0,0:0:0:0:
78,143,76141,6,0,L|8:156,1,43.75,8|0,0:0|0:0,0:0:0:0:
276,244,76312,2,0,L|319:251,1,43.75,4|0,0:0|0:0,0:0:0:0:
68,64,76484,2,0,L|-2:77,1,43.75,8|0,0:0|0:0,0:0:0:0:
280,163,76655,2,0,L|323:170,1,43.75,4|0,0:0|0:0,0:0:0:0:
494,199,76827,6,0,P|432:141|495:52,1,210,4|0,0:0|0:0,0:0:0:0:
493,53,77169,6,0,P|443:65|400:45,1,87.5,8|0,0:0|0:0,0:0:0:0:
315,8,77512,5,0,0:0:0:0:
275,216,77684,1,4,0:0:0:0:
275,216,77769,1,0,0:0:0:0:
275,216,77855,1,8,0:0:0:0:
493,53,78027,1,0,0:0:0:0:
231,57,78198,5,4,0:0:0:0:
310,311,78369,1,0,0:0:0:0:
310,311,78455,1,0,0:0:0:0:
310,311,78541,1,8,0:0:0:0:
442,123,78712,1,0,0:0:0:0:
180,122,78884,5,0,0:0:0:0:
388,352,79055,1,4,0:0:0:0:
397,302,79140,1,0,0:0:0:0:
377,256,79226,1,10,0:0:0:0:
335,228,79312,1,2,0:0:0:0:
285,228,79397,1,2,0:0:0:0:
243,255,79483,1,2,0:0:0:0:
223,301,79569,6,0,P|153:326|98:206,1,210,4|0,0:0|0:0,0:0:0:0:
94,186,79912,1,8,0:0:0:0:
335,228,80084,1,0,0:0:0:0:
53,198,80255,5,0,0:0:0:0:
337,136,80427,1,4,0:0:0:0:
337,136,80512,1,0,0:0:0:0:
337,136,80598,1,8,0:0:0:0:
21,209,80769,1,0,0:0:0:0:
223,301,80941,5,4,0:0:0:0:
160,48,81112,1,0,0:0:0:0:
160,48,81198,1,0,0:0:0:0:
160,48,81284,1,8,0:0:0:0:
337,136,81455,1,0,0:0:0:0:
223,301,81627,5,0,0:0:0:0:
337,136,81798,1,4,0:0:0:0:
366,106,81884,1,4,0:0:0:0:
406,95,81969,1,10,0:0:0:0:
447,103,82055,1,2,0:0:0:0:
479,129,82140,1,2,0:0:0:0:
495,167,82226,1,2,0:0:0:0:
492,209,82312,6,0,B|477:360|477:360|438:312,1,210,4|0,0:0|0:0,0:0:0:0:
412,287,82655,6,0,P|365:277|318:291,1,87.5,8|0,0:0|0:0,0:0:0:0:
236,359,82998,5,0,0:0:0:0:
237,115,83169,1,4,0:0:0:0:
237,115,83255,1,0,0:0:0:0:
237,115,83341,1,8,0:0:0:0:
412,287,83512,1,0,0:0:0:0:
196,360,83684,5,4,0:0:0:0:
325,116,83855,1,0,0:0:0:0:
325,116,83941,1,0,0:0:0:0:
325,116,84027,1,8,0:0:0:0:
428,316,84198,1,0,0:0:0:0:
161,360,84369,5,0,0:0:0:0:
404,115,84541,1,4,0:0:0:0:
404,115,84627,1,0,0:0:0:0:
404,115,84712,1,8,0:0:0:0:
446,346,84884,1,0,0:0:0:0:
161,360,85055,6,0,L|67:364,1,87.5,4|0,0:0|0:0,0:0:0:0:
226,203,85398,2,0,P|237:251|215:314,1,87.5,4|0,0:0|0:0,0:0:0:0:
141,154,85741,2,0,P|130:106|152:43,1,87.5,4|0,0:0|0:0,0:0:0:0:
311,58,86084,2,0,P|322:106|300:169,1,87.5,4|0,0:0|0:0,0:0:0:0:
226,203,86427,5,4,0:0:0:0:
393,213,86598,1,4,0:0:0:0:
191,229,86769,5,4,0:0:0:0:
392,291,86941,1,4,0:0:0:0:
311,58,87112,1,2,0:0:0:0:
279,58,87197,1,2,0:0:0:0:
248,58,87283,1,2,0:0:0:0:
216,58,87369,1,2,0:0:0:0:
184,63,87454,1,4,0:0:0:0:
184,63,87798,6,0,P|194:103|169:162,1,87.5,4|0,0:0|0:0,0:0:0:0:
99,198,88141,1,8,0:0:0:0:
278,204,88312,1,0,0:0:0:0:
278,204,88398,1,0,0:0:0:0:
278,204,88484,1,0,0:0:0:0:
99,91,88655,1,4,0:0:0:0:
94,298,88827,1,8,0:0:0:0:
99,113,88998,1,0,0:0:0:0:
276,228,89169,6,0,P|328:242|373:223,1,87.5,4|0,0:0|0:0,0:0:0:0:
423,161,89512,1,8,0:0:0:0:
250,143,89684,1,0,0:0:0:0:
212,164,89769,1,0,0:0:0:0:
189,201,89855,1,0,0:0:0:0:
185,244,89941,1,0,0:0:0:0:
202,284,90026,1,4,0:0:0:0:
326,188,90198,2,0,P|339:139|316:84,1,87.5,8|0,0:0|0:0,0:0:0:0:
91,109,90541,5,6,0:0:0:0:
91,109,90627,1,0,0:0:0:0:
91,109,90712,1,0,0:0:0:0:
131,362,90884,1,10,0:0:0:0:
131,362,90969,1,0,0:0:0:0:
131,362,91055,1,0,0:0:0:0:
326,188,91227,2,0,L|389:184,1,43.75,2|2,0:0|0:0,0:0:0:0:
464,139,91398,2,0,L|468:202,1,43.75,6|2,0:0|0:0,0:0:0:0:
512,273,91569,2,0,L|449:277,1,43.75,10|2,0:0|0:0,0:0:0:0:
382,326,91741,2,0,L|378:263,1,43.75,2|2,0:0|0:0,0:0:0:0:
367,103,91912,5,6,0:0:0:0:
367,103,91998,1,0,0:0:0:0:
367,103,92084,1,0,0:0:0:0:
87,207,92255,1,10,0:0:0:0:
87,207,92341,1,0,0:0:0:0:
87,207,92427,1,0,0:0:0:0:
382,326,92598,2,0,P|387:306|377:270,1,43.75,2|2,0:0|0:0,0:0:0:0:
289,281,92769,2,0,P|267:266|241:267,1,43.75,6|2,0:0|0:0,0:0:0:0:
292,157,92941,2,0,B|284:149|253:85|257:73,1,43.75,10|2,0:0|0:0,0:0:0:0:
367,103,93112,2,0,P|375:76|402:50,1,43.75,2|2,0:0|0:0,0:0:0:0:
292,157,93284,6,0,B|193:181|193:181|85:151,1,210,4|0,0:0|0:0,0:0:0:0:
47,139,93627,6,0,P|56:203|35:241,1,87.5,8|0,0:0|0:0,0:0:0:0:
8,61,93969,1,0,0:0:0:0:
195,88,94141,1,4,0:0:0:0:
195,88,94227,1,0,0:0:0:0:
195,88,94312,1,8,0:0:0:0:
1,293,94484,1,0,0:0:0:0:
10,29,94655,5,4,0:0:0:0:
188,179,94827,1,0,0:0:0:0:
18,284,94998,1,8,0:0:0:0:
213,164,95169,1,0,0:0:0:0:
209,207,95254,1,0,0:0:0:0:
205,251,95340,1,0,0:0:0:0:
202,294,95426,1,0,0:0:0:0:
198,338,95511,1,4,0:0:0:0:
40,272,95684,1,8,0:0:0:0:
213,166,95855,1,0,0:0:0:0:
354,316,96027,5,6,0:0:0:0:
354,316,96112,1,0,0:0:0:0:
354,316,96198,1,0,0:0:0:0:
224,36,96369,1,10,0:0:0:0:
224,36,96455,1,0,0:0:0:0:
224,36,96541,1,0,0:0:0:0:
202,294,96712,2,0,L|145:297,1,43.75,2|2,0:0|0:0,0:0:0:0:
80,323,96884,2,0,L|60:271,1,43.75,6|2,0:0|0:0,0:0:0:0:
1,224,97055,2,0,L|27:177,1,43.75,10|2,0:0|0:0,0:0:0:0:
19,99,97227,2,0,L|76:80,1,43.75,2|2,0:0|0:0,0:0:0:0:
224,36,97398,5,6,0:0:0:0:
224,36,97484,1,0,0:0:0:0:
224,36,97569,1,0,0:0:0:0:
198,338,97741,1,10,0:0:0:0:
198,338,97827,1,0,0:0:0:0:
198,338,97912,1,0,0:0:0:0:
323,97,98084,2,0,L|369:93,1,43.75,8|0,0:0|0:0,0:0:0:0:
433,223,98255,2,0,L|377:220,1,43.75,4|0,0:0|0:0,0:0:0:0:
372,44,98427,2,0,L|418:40,1,43.75,8|0,0:0|0:0,0:0:0:0:
391,268,98598,2,0,L|347:265,1,43.75,4|0,0:0|0:0,0:0:0:0:
213,258,98769,5,4,0:0:0:0:
239,99,98941,1,0,0:0:0:0:
391,268,99112,1,8,0:0:0:0:
214,295,99284,1,0,0:0:0:0:
214,295,99369,1,0,0:0:0:0:
214,295,99455,1,0,0:0:0:0:
244,64,99627,1,4,0:0:0:0:
372,239,99798,1,8,0:0:0:0:
204,328,99969,1,0,0:0:0:0:
239,99,100141,5,4,0:0:0:0:
391,268,100312,1,0,0:0:0:0:
214,295,100484,1,8,0:0:0:0:
244,64,100655,1,0,0:0:0:0:
265,61,100740,1,0,0:0:0:0:
287,59,100826,1,0,0:0:0:0:
309,57,100912,1,0,0:0:0:0:
331,54,100997,1,4,0:0:0:0:
214,295,101169,2,0,L|116:305,1,87.5,8|0,0:0|0:0,0:0:0:0:
262,221,101512,6,0,P|302:280|276:361,1,157.500006008148,4|0,0:0|0:0,0:0:0:0:
234,359,101855,1,8,0:0:0:0:
424,357,102027,1,0,0:0:0:0:
262,221,102198,2,0,P|190:192|118:219,1,157.500006008148,4|0,0:0|0:0,0:0:0:0:
118,260,102541,1,8,0:0:0:0:
117,53,102712,1,0,0:0:0:0:
262,221,102884,6,0,P|347:253|421:212,1,157.500006008148,4|0,0:0|0:0,0:0:0:0:
405,176,103227,1,8,0:0:0:0:
430,354,103398,1,0,0:0:0:0:
396,89,103569,1,4,0:0:0:0:
363,89,103654,1,0,0:0:0:0:
330,89,103740,1,4,0:0:0:0:
297,89,103826,1,0,0:0:0:0:
264,89,103911,1,10,0:0:0:0:
231,89,103997,1,2,0:0:0:0:
199,89,104083,1,2,0:0:0:0:
166,89,104169,1,2,0:0:0:0:
133,89,104255,6,0,B|144:251|144:251|152:227|176:208,1,210,4|0,0:0|0:0,0:0:0:0:
200,197,104598,6,0,P|246:210|302:188,1,87.5,8|0,0:0|0:0,0:0:0:0:
330,89,104941,1,0,0:0:0:0:
335,284,105112,1,4,0:0:0:0:
335,284,105198,1,0,0:0:0:0:
335,284,105284,1,8,0:0:0:0:
329,54,105455,1,0,0:0:0:0:
200,197,105627,6,0,P|160:208|100:185,1,87.5,4|0,0:0|0:0,0:0:0:0:
85,53,105969,1,8,0:0:0:0:
243,122,106141,1,0,0:0:0:0:
274,151,106226,1,0,0:0:0:0:
287,192,106312,1,0,0:0:0:0:
278,235,106398,1,0,0:0:0:0:
249,267,106483,1,4,0:0:0:0:
243,122,106655,2,0,P|291:108|342:133,1,87.5,8|0,0:0|0:0,0:0:0:0:
442,186,106998,6,0,L|417:356,1,157.500006008148,4|0,0:0|0:0,0:0:0:0:
377,345,107341,1,8,0:0:0:0:
249,267,107512,1,0,0:0:0:0:
408,147,107684,2,0,L|383:317,1,157.500006008148,4|0,0:0|0:0,0:0:0:0:
377,345,108027,1,8,0:0:0:0:
150,200,108198,1,0,0:0:0:0:
373,110,108369,6,0,L|348:280,1,157.500006008148,4|0,0:0|0:0,0:0:0:0:
345,307,108712,1,8,0:0:0:0:
80,153,108884,1,0,0:0:0:0:
373,110,109055,2,0,P|399:107|437:115,1,52.5000020027161,8|0,0:0|0:0,0:0:0:0:
442,208,109227,2,0,P|461:259|457:273,1,52.5000020027161,4|0,0:0|0:0,0:0:0:0:
168,297,109398,2,0,P|142:300|104:292,1,52.5000020027161,8|0,0:0|0:0,0:0:0:0:
99,199,109570,2,0,P|80:148|84:134,1,52.5000020027161,4|0,0:0|0:0,0:0:0:0:
100,54,109741,5,4,0:0:0:0:
100,54,120712,6,0,L|183:59,1,70
276,63,121055,2,0,P|280:105|264:142,1,70
179,172,121398,2,0,P|169:205|174:239,1,70
245,313,121741,2,0,L|329:301,1,70
352,297,121998,1,0,0:0:0:0:
352,297,122084,6,0,P|355:256|333:213,1,70
245,313,122427,2,0,P|214:305|161:320,1,70
352,297,122769,2,0,P|383:305|436:290,1,70
471,216,123112,2,0,L|461:136,1,70
457,103,123369,1,0,0:0:0:0:
457,103,123455,6,0,P|403:110|369:90,1,70
320,36,123798,1,0,0:0:0:0:
263,110,123969,1,0,0:0:0:0:
263,110,124055,1,0,0:0:0:0:
263,110,124141,2,0,P|227:117|178:99,1,70
125,42,124484,1,0,0:0:0:0:
263,110,124655,1,0,0:0:0:0:
263,110,124741,1,0,0:0:0:0:
263,110,124827,6,0,P|267:150|246:193,1,70
358,177,125169,2,0,L|442:177,1,70
462,176,125427,1,0,0:0:0:0:
462,176,125512,2,0,P|469:218|460:248,1,70
356,296,125855,1,0,0:0:0:0:
358,177,126027,1,0,0:0:0:0:
461,243,126198,6,0,P|468:285|459:315,1,70
358,177,126541,2,0,P|351:135|360:105,1,70
411,13,126884,2,0,P|363:20|325:1,1,70
259,81,127227,2,0,P|225:73|191:81,1,70
157,105,127484,1,0,0:0:0:0:
157,105,127570,6,0,P|166:65|149:20,1,70
57,70,127912,2,0,P|48:110|65:155,1,70
105,221,128255,2,0,L|184:233,1,70
268,187,128598,2,0,L|337:176,1,70
370,171,128855,1,0,0:0:0:0:
370,171,128941,6,0,P|372:135|352:91,1,70
268,187,129284,2,0,P|266:223|286:267,1,70
302,289,129541,1,0,0:0:0:0:
302,289,129627,2,0,L|371:278,1,70
467,262,129969,1,0,0:0:0:0:
511,169,130141,1,0,0:0:0:0:
511,169,130227,1,0,0:0:0:0:
511,169,130312,6,0,P|520:136|504:89,1,70
429,50,130655,1,0,0:0:0:0:
359,108,130827,1,0,0:0:0:0:
359,108,130912,1,0,0:0:0:0:
359,108,130998,2,0,P|327:115|278:98,1,70
199,48,131341,1,0,0:0:0:0:
259,180,131512,1,0,0:0:0:0:
168,283,131684,5,4,0:0:0:0:
256,192,131769,12,4,134427,0:0:0:0:
256,192,134512,12,4,137169,0:0:0:0:
256,193,137855,5,4,0:0:0:0:
256,193,138541,1,4,0:0:0:0:
256,193,139227,1,4,0:0:0:0:
256,193,139912,5,4,0:0:0:0:
412,191,140255,1,4,0:0:0:0:
100,191,140598,1,4,0:0:0:0:
256,44,140941,1,4,0:0:0:0:
255,331,141284,5,4,0:0:0:0:
256,44,141455,1,4,0:0:0:0:
218,353,141627,5,4,0:0:0:0:
221,18,141798,1,4,0:0:0:0:
100,191,141969,1,2,0:0:0:0:
130,208,142054,1,2,0:0:0:0:
164,217,142140,1,2,0:0:0:0:
198,214,142226,1,2,0:0:0:0:
230,200,142311,1,2,0:0:0:0:
262,185,142397,1,2,0:0:0:0:
296,179,142483,1,2,0:0:0:0:
330,187,142569,1,2,0:0:0:0:
361,202,142655,6,0,P|373:245|349:302,1,87.5,4|0,0:0|0:0,0:0:0:0:
164,217,142998,1,8,0:0:0:0:
256,41,143169,1,0,0:0:0:0:
256,41,143255,1,0,0:0:0:0:
256,41,143341,1,0,0:0:0:0:
93,168,143512,1,4,0:0:0:0:
275,299,143684,2,0,L|377:282,1,87.5,8|0,0:0|0:0,0:0:0:0:
484,261,144027,5,4,0:0:0:0:
354,140,144198,1,0,0:0:0:0:
354,374,144369,1,8,0:0:0:0:
438,107,144541,1,0,0:0:0:0:
415,69,144626,1,0,0:0:0:0:
378,48,144712,1,0,0:0:0:0:
334,47,144798,1,0,0:0:0:0:
296,67,144883,1,4,0:0:0:0:
228,253,145055,2,0,P|179:267|143:253,1,87.5,8|0,0:0|0:0,0:0:0:0:
105,95,145398,5,6,0:0:0:0:
105,95,145484,1,0,0:0:0:0:
105,95,145569,1,0,0:0:0:0:
55,355,145741,1,10,0:0:0:0:
55,355,145827,1,0,0:0:0:0:
55,355,145912,1,0,0:0:0:0:
292,182,146084,2,0,P|320:230|320:239,1,43.75,2|2,0:0|0:0,0:0:0:0:
229,251,146255,2,0,P|205:258|166:250,1,43.75,6|2,0:0|0:0,0:0:0:0:
192,136,146427,2,0,P|177:111|178:71,1,43.75,10|2,0:0|0:0,0:0:0:0:
310,75,146598,2,0,P|331:68|372:74,1,43.75,2|2,0:0|0:0,0:0:0:0:
462,106,146769,5,6,0:0:0:0:
462,106,146855,1,0,0:0:0:0:
462,106,146941,1,0,0:0:0:0:
232,14,147112,1,10,0:0:0:0:
232,14,147198,1,0,0:0:0:0:
232,14,147284,1,0,0:0:0:0:
229,251,147455,2,0,L|228:304,1,43.75,2|2,0:0|0:0,0:0:0:0:
96,251,147627,2,0,L|96:203,1,43.75,6|2,0:0|0:0,0:0:0:0:
277,183,147798,2,0,L|277:235,1,43.75,10|2,0:0|0:0,0:0:0:0:
156,120,147969,2,0,L|156:62,1,43.75,2|2,0:0|0:0,0:0:0:0:
328,112,148141,6,0,L|328:325,1,210,4|0,0:0|0:0,0:0:0:0:
328,360,148484,6,0,P|369:371|416:362,1,87.5,8|0,0:0|0:0,0:0:0:0:
451,245,148827,1,0,0:0:0:0:
239,333,148998,1,4,0:0:0:0:
239,333,149084,1,0,0:0:0:0:
239,333,149169,1,8,0:0:0:0:
412,363,149341,1,0,0:0:0:0:
415,155,149512,5,4,0:0:0:0:
502,361,149684,1,0,0:0:0:0:
486,96,149855,1,8,0:0:0:0:
341,212,150027,1,0,0:0:0:0:
308,213,150112,1,0,0:0:0:0:
275,215,150198,1,0,0:0:0:0:
242,217,150284,1,0,0:0:0:0:
209,219,150369,1,4,0:0:0:0:
77,227,150541,1,8,0:0:0:0:
281,126,150712,1,0,0:0:0:0:
271,353,150884,5,6,0:0:0:0:
271,353,150969,1,0,0:0:0:0:
271,353,151055,1,0,0:0:0:0:
195,72,151227,1,10,0:0:0:0:
195,72,151312,1,0,0:0:0:0:
195,72,151398,1,0,0:0:0:0:
351,287,151569,2,0,L|394:286,1,43.75,2|2,0:0|0:0,0:0:0:0:
261,245,151741,2,0,L|216:245,1,43.75,6|2,0:0|0:0,0:0:0:0:
373,202,151912,2,0,L|425:202,1,43.75,10|2,0:0|0:0,0:0:0:0:
215,158,152084,2,0,L|169:158,1,43.75,2|2,0:0|0:0,0:0:0:0:
50,164,152255,5,6,0:0:0:0:
50,164,152341,1,0,0:0:0:0:
50,164,152427,1,0,0:0:0:0:
324,29,152598,1,10,0:0:0:0:
324,29,152684,1,0,0:0:0:0:
324,29,152769,1,0,0:0:0:0:
132,216,152941,2,0,P|128:245|142:281,1,43.75,8|0,0:0|0:0,0:0:0:0:
283,160,153112,2,0,P|287:131|273:95,1,43.75,4|0,0:0|0:0,0:0:0:0:
209,299,153284,2,0,P|205:328|219:364,1,43.75,8|0,0:0|0:0,0:0:0:0:
360,243,153455,2,0,P|364:214|350:178,1,43.75,4|0,0:0|0:0,0:0:0:0:
324,29,153627,5,4,0:0:0:0:
199,137,153798,1,0,0:0:0:0:
360,243,153969,1,8,0:0:0:0:
300,30,154141,1,0,0:0:0:0:
299,31,154227,1,0,0:0:0:0:
299,31,154312,1,0,0:0:0:0:
172,138,154484,1,4,0:0:0:0:
331,246,154655,1,8,0:0:0:0:
263,30,154827,1,0,0:0:0:0:
141,140,154998,5,4,0:0:0:0:
296,250,155169,1,0,0:0:0:0:
228,32,155341,1,8,0:0:0:0:
104,141,155512,1,0,0:0:0:0:
107,173,155597,1,0,0:0:0:0:
110,206,155683,1,0,0:0:0:0:
114,238,155769,1,0,0:0:0:0:
117,271,155854,1,2,0:0:0:0:
262,334,156027,2,0,B|309:359|354:331,1,87.5,8|0,0:0|0:0,0:0:0:0:
262,334,156369,6,0,P|294:270|262:190,1,157.500006008148,4|0,0:0|0:0,0:0:0:0:
219,196,156712,1,8,0:0:0:0:
166,368,156884,1,0,0:0:0:0:
265,193,157055,2,0,P|341:162|420:201,1,157.500006008148,4|0,0:0|0:0,0:0:0:0:
410,238,157398,1,8,0:0:0:0:
412,29,157569,1,0,0:0:0:0:
265,193,157741,6,0,P|189:224|110:185,1,157.500006008148,4|0,0:0|0:0,0:0:0:0:
118,153,158084,1,8,0:0:0:0:
410,152,158255,1,0,0:0:0:0:
118,153,158427,1,0,0:0:0:0:
93,179,158512,1,0,0:0:0:0:
79,213,158598,1,4,0:0:0:0:
79,250,158684,1,0,0:0:0:0:
92,284,158769,1,10,0:0:0:0:
116,311,158855,1,2,0:0:0:0:
149,327,158941,1,2,0:0:0:0:
185,331,159027,1,2,0:0:0:0:
220,321,159112,6,0,P|324:295|425:322,1,210,4|0,0:0|0:0,0:0:0:0:
458,341,159455,6,0,L|452:247,1,87.5,8|0,0:0|0:0,0:0:0:0:
444,120,159798,1,0,0:0:0:0:
287,205,159969,1,4,0:0:0:0:
287,205,160055,1,0,0:0:0:0:
287,205,160141,1,8,0:0:0:0:
474,104,160312,1,0,0:0:0:0:
314,26,160484,6,0,P|272:13|222:29,1,87.5,4|0,0:0|0:0,0:0:0:0:
162,167,160827,1,8,0:0:0:0:
328,282,160998,1,0,0:0:0:0:
361,254,161083,1,0,0:0:0:0:
376,213,161169,1,0,0:0:0:0:
370,170,161255,1,0,0:0:0:0:
344,136,161340,1,4,0:0:0:0:
239,286,161512,2,0,P|258:345|294:368,1,87.5,8|0,0:0|0:0,0:0:0:0:
310,231,161855,6,0,P|227:198|163:245,1,157.500006008148,4|0,0:0|0:0,0:0:0:0:
154,270,162198,1,8,0:0:0:0:
307,349,162369,1,0,0:0:0:0:
310,174,162541,2,0,P|227:141|163:188,1,157.500006008148,4|0,0:0|0:0,0:0:0:0:
154,213,162884,1,8,0:0:0:0:
389,288,163055,1,0,0:0:0:0:
309,118,163227,6,0,P|226:85|162:132,1,157.500006008148,4|0,0:0|0:0,0:0:0:0:
153,157,163570,1,8,0:0:0:0:
467,226,163741,1,0,0:0:0:0:
191,319,163912,2,0,L|136:323,1,52.5000020027161,8|0,0:0|0:0,0:0:0:0:
153,157,164084,2,0,L|208:153,1,52.5000020027161,4|0,0:0|0:0,0:0:0:0:
286,340,164255,2,0,L|231:344,1,52.5000020027161,8|0,0:0|0:0,0:0:0:0:
280,71,164427,2,0,L|335:67,1,52.5000020027161,4|0,0:0|0:0,0:0:0:0:
478,56,164598,5,4,0:0:0:0:
346,260,164769,1,0,0:0:0:0:
346,260,164855,1,0,0:0:0:0:
346,260,164941,1,8,0:0:0:0:
492,139,165112,1,0,0:0:0:0:
279,69,165284,5,0,0:0:0:0:
380,342,165455,1,4,0:0:0:0:
380,342,165541,1,0,0:0:0:0:
380,342,165627,1,8,0:0:0:0:
407,108,165798,1,0,0:0:0:0:
251,265,165969,5,4,0:0:0:0:
509,248,166141,1,0,0:0:0:0:
509,248,166227,1,0,0:0:0:0:
509,248,166312,1,8,0:0:0:0:
356,42,166484,1,0,0:0:0:0:
251,265,166655,5,0,0:0:0:0:
467,172,166827,1,4,0:0:0:0:
467,172,166912,1,0,0:0:0:0:
467,172,166998,1,8,0:0:0:0:
326,6,167169,1,0,0:0:0:0:
241,301,167341,5,6,0:0:0:0:
241,301,167427,1,0,0:0:0:0:
241,301,167512,1,0,0:0:0:0:
316,41,167684,1,10,0:0:0:0:
316,41,167769,1,0,0:0:0:0:
316,41,167855,1,0,0:0:0:0:
119,215,168027,6,0,P|94:220|53:201,1,43.75,2|2,0:0|0:0,0:0:0:0:
159,87,168198,2,0,P|154:62|173:21,1,43.75,6|2,0:0|0:0,0:0:0:0:
281,127,168369,2,0,P|303:122|324:125,1,43.75,10|2,0:0|0:0,0:0:0:0:
238,257,168541,2,0,P|243:279|240:300,1,43.75,2|2,0:0|0:0,0:0:0:0:
139,339,168712,5,6,0:0:0:0:
139,339,168798,1,0,0:0:0:0:
139,339,168884,1,0,0:0:0:0:
432,284,169055,1,10,0:0:0:0:
432,284,169141,1,0,0:0:0:0:
432,284,169227,1,0,0:0:0:0:
238,257,169398,6,0,P|233:235|236:214,1,43.75,2|2,0:0|0:0,0:0:0:0:
430,241,169569,2,0,P|434:262|431:283,1,43.75,6|2,0:0|0:0,0:0:0:0:
180,147,169741,2,0,P|175:125|178:104,1,43.75,10|2,0:0|0:0,0:0:0:0:
372,131,169912,2,0,P|376:152|373:173,1,43.75,2|2,0:0|0:0,0:0:0:0:
238,257,170084,6,0,L|10:271,1,210,4|0,0:0|0:0,0:0:0:0:
0,271,170427,1,8,0:0:0:0:
64,71,170598,1,0,0:0:0:0:
238,148,170769,5,0,0:0:0:0:
63,275,170941,1,4,0:0:0:0:
63,275,171027,1,0,0:0:0:0:
63,275,171112,1,8,0:0:0:0:
65,32,171284,1,0,0:0:0:0:
239,183,171455,5,4,0:0:0:0:
32,328,171627,1,0,0:0:0:0:
32,328,171712,1,0,0:0:0:0:
32,328,171798,1,8,0:0:0:0:
24,54,171969,1,0,0:0:0:0:
193,168,172141,5,0,0:0:0:0:
0,368,172312,1,4,0:0:0:0:
0,368,172398,1,0,0:0:0:0:
0,368,172484,1,8,0:0:0:0:
19,98,172655,1,0,0:0:0:0:
254,237,172827,5,6,0:0:0:0:
254,237,172912,1,0,0:0:0:0:
254,237,172998,1,0,0:0:0:0:
6,181,173169,1,10,0:0:0:0:
6,181,173255,1,0,0:0:0:0:
6,181,173341,1,0,0:0:0:0:
302,155,173512,6,0,L|358:149,1,43.75,2|2,0:0|0:0,0:0:0:0:
480,262,173684,2,0,L|428:258,1,43.75,6|2,0:0|0:0,0:0:0:0:
292,106,173855,2,0,L|348:100,1,43.75,10|2,0:0|0:0,0:0:0:0:
472,305,174027,2,0,L|420:301,1,43.75,2|2,0:0|0:0,0:0:0:0:
273,294,174198,5,6,0:0:0:0:
273,294,174284,1,0,0:0:0:0:
273,294,174369,1,0,0:0:0:0:
470,43,174541,1,10,0:0:0:0:
470,43,174627,1,0,0:0:0:0:
470,43,174712,1,0,0:0:0:0:
201,136,174884,6,0,L|152:138,1,43.75,8|0,0:0|0:0,0:0:0:0:
273,294,175055,2,0,L|322:292,1,43.75,4|0,0:0|0:0,0:0:0:0:
149,98,175227,2,0,L|102:99,1,43.75,8|0,0:0|0:0,0:0:0:0:
151,349,175398,2,0,L|200:347,1,43.75,4|0,0:0|0:0,0:0:0:0:
383,338,175569,5,4,0:0:0:0:
314,151,175741,1,0,0:0:0:0:
150,257,175912,1,8,0:0:0:0:
424,357,176084,1,0,0:0:0:0:
424,357,176169,1,0,0:0:0:0:
424,357,176255,5,0,0:0:0:0:
379,105,176427,1,4,0:0:0:0:
219,215,176598,1,8,0:0:0:0:
491,298,176769,1,0,0:0:0:0:
491,298,176855,1,0,0:0:0:0:
491,298,176941,1,4,0:0:0:0:
451,50,177112,1,0,0:0:0:0:
292,167,177284,1,8,0:0:0:0:
424,357,177455,1,0,0:0:0:0:
424,357,177540,1,0,0:0:0:0:
424,357,177626,5,0,0:0:0:0:
379,105,177798,1,4,0:0:0:0:
219,215,177969,1,8,0:0:0:0:
330,354,178141,1,0,0:0:0:0:
330,354,178312,5,4,0:0:0:0:
293,81,178484,1,0,0:0:0:0:
293,81,178569,1,0,0:0:0:0:
293,81,178655,1,8,0:0:0:0:
272,282,178827,1,0,0:0:0:0:
379,105,178998,5,0,0:0:0:0:
122,255,179169,1,4,0:0:0:0:
122,255,179255,1,0,0:0:0:0:
122,255,179341,1,8,0:0:0:0:
335,181,179512,1,0,0:0:0:0:
202,55,179684,5,4,0:0:0:0:
311,356,179855,1,0,0:0:0:0:
311,356,179941,1,0,0:0:0:0:
311,356,180027,1,8,0:0:0:0:
269,117,180198,1,0,0:0:0:0:
122,255,180369,2,0,L|48:247,1,52.5000020027161
121,163,180541,2,0,L|71:115,1,52.5000020027161,4|0,0:0|0:0,0:0:0:0:
173,90,180712,2,0,L|161:38,1,52.5000020027161,10|2,0:0|0:0,0:0:0:0:
261,62,180884,2,0,L|287:8,1,52.5000020027161,2|2,0:0|0:0,0:0:0:0:
357,81,181055,6,0,P|428:76|396:198,1,210,4|0,0:0|0:0,0:0:0:0:
389,204,181398,1,8,0:0:0:0:
489,21,181569,1,0,0:0:0:0:
489,21,181655,1,0,0:0:0:0:
489,21,181741,1,0,0:0:0:0:
486,257,181912,1,4,0:0:0:0:
293,150,182084,1,8,0:0:0:0:
491,110,182255,1,0,0:0:0:0:
491,110,182341,1,0,0:0:0:0:
491,110,182427,5,4,0:0:0:0:
399,320,182598,1,0,0:0:0:0:
399,67,182769,1,8,0:0:0:0:
487,298,182941,1,0,0:0:0:0:
487,298,183027,1,0,0:0:0:0:
487,298,183112,1,0,0:0:0:0:
282,354,183284,1,4,0:0:0:0:
387,101,183455,1,8,0:0:0:0:
194,241,183627,1,0,0:0:0:0:
194,241,183798,5,4,0:0:0:0:
445,194,183969,1,0,0:0:0:0:
445,194,184055,1,0,0:0:0:0:
445,194,184141,1,8,0:0:0:0:
144,166,184312,1,0,0:0:0:0:
249,314,184484,5,0,0:0:0:0:
387,101,184655,1,4,0:0:0:0:
387,101,184741,1,0,0:0:0:0:
387,101,184827,1,8,0:0:0:0:
159,325,184998,1,0,0:0:0:0:
350,300,185169,5,4,0:0:0:0:
327,10,185341,1,0,0:0:0:0:
327,10,185427,1,0,0:0:0:0:
327,10,185512,1,8,0:0:0:0:
270,335,185684,1,0,0:0:0:0:
387,101,185855,2,0,L|460:107,1,52.5000020027161,8|0,0:0|0:0,0:0:0:0:
213,82,186027,2,0,L|286:88,1,52.5000020027161,4|0,0:0|0:0,0:0:0:0:
115,225,186198,2,0,L|42:231,1,52.5000020027161,8|0,0:0|0:0,0:0:0:0:
290,210,186369,2,0,L|217:216,1,52.5000020027161,4|0,0:0|0:0,0:0:0:0:
421,196,186541,5,4,0:0:0:0:
