osu file format v14

[General]
AudioFilename: audio.mp3
AudioLeadIn: 0
PreviewTime: 125695
Countdown: 1
SampleSet: Normal
StackLeniency: 0.7
Mode: 0
LetterboxInBreaks: 0
WidescreenStoryboard: 0

[Editor]
DistanceSpacing: 1
BeatDivisor: 4
GridSize: 8
TimelineZoom: 1.8

[Metadata]
Title:Heist
TitleUnicode:Heist
Artist:Noisestorm
ArtistUnicode:Noisestorm
Creator:EnOT_237
Version:RAGE
Source:
Tags:
BeatmapID:1248099
BeatmapSetID:589662

[Difficulty]
HPDrainRate:6.5
CircleSize:4
OverallDifficulty:7
ApproachRate:9
SliderMultiplier:1.5
SliderTickRate:1

[Events]
//Background and Video events
0,0,"47-ronin-samurai-wallpaper-1.jpg",0,0
//Break Periods
//Storyboard Layer 0 (Background)
//Storyboard Layer 1 (Fail)
//Storyboard Layer 2 (Pass)
//Storyboard Layer 3 (Foreground)
//Storyboard Layer 4 (Overlay)
//Storyboard Sound Samples

[TimingPoints]
1460,352.941176470588,4,1,0,100,1,0
1460,-100,4,1,0,65,0,0
12754,-83.3333333333333,4,1,0,85,0,0
35518,-83.3333333333333,4,1,0,20,0,0
36577,-83.3333333333333,4,1,0,25,0,0
37989,-83.3333333333333,4,1,0,30,0,0
39401,-83.3333333333333,4,1,0,40,0,0
40812,-83.3333333333333,4,1,0,50,0,0
42224,-83.3333333333333,4,1,0,60,0,0
43636,-83.3333333333333,4,1,0,70,0,0
45048,-83.3333333333333,4,1,0,80,0,0
46636,-133.333333333333,4,1,0,90,0,0
52283,-66.6666666666667,4,1,0,65,0,0
53254,-66.6666666666667,4,1,0,65,0,0
54224,-66.6666666666667,4,1,0,70,0,0
55107,-66.6666666666667,4,1,0,80,0,0
57754,-66.6666666666667,4,1,0,90,0,0
80871,-133.333333333333,4,1,0,65,0,0
82989,-66.6666666666667,4,1,0,90,0,0
83342,-133.333333333333,4,1,0,90,0,0
86518,-133.333333333333,4,1,0,65,0,0
88989,-66.6666666666667,4,1,0,90,0,0
92165,-133.333333333333,4,1,0,65,0,0
94283,-66.6666666666667,4,1,0,90,0,0
94636,-133.333333333333,4,1,0,90,0,0
97812,-133.333333333333,4,1,0,65,0,0
100283,-66.6666666666667,4,1,0,90,0,0
103107,-142.857142857143,4,1,0,20,0,0
104518,-125,4,1,0,25,0,0
105930,-111.111111111111,4,1,0,30,0,0
107342,-100,4,1,0,40,0,0
108754,-90.9090909090909,4,1,0,50,0,0
110165,-83.3333333333333,4,1,0,60,0,0
111577,-76.9230769230769,4,1,0,70,0,0
112989,-71.4285714285714,4,1,0,80,0,0
114401,-133.333333333333,4,1,0,55,0,0
120048,-66.6666666666667,4,1,0,40,0,0
122871,-100,4,1,0,75,0,0
125695,-66.6666666666667,4,1,0,60,0,1
133371,-66.6666666666667,4,1,0,85,0,1
136195,-66.6666666666667,4,1,0,60,0,1
144665,-66.6666666666667,4,1,0,85,0,1
147401,-66.6666666666667,4,3,0,75,0,1
156754,-66.6666666666667,4,1,0,85,0,1
159577,-66.6666666666667,4,3,0,75,0,1
167959,-66.6666666666667,4,1,0,85,0,1
170871,-66.6666666666667,4,1,0,5,0,0

[Colours]
Combo1 : 255,128,128
Combo2 : 65,129,129
Combo3 : 170,0,0
Combo4 : 121,0,121
Combo5 : 0,0,166

[HitObjects]
176,112,1460,5,0,0:0:0:0:
360,96,1812,2,0,P|368:136|352:168,1,75
296,232,2342,2,0,P|264:256|216:264,1,75
328,88,2871,1,0,0:0:0:0:
128,96,3224,2,0,P|136:152|160:176,1,75
224,232,3754,2,0,P|256:256|304:264,1,75
352,136,4283,5,0,0:0:0:0:
168,128,4636,1,0,0:0:0:0:
168,256,4812,1,0,0:0:0:0:
296,312,5165,1,0,0:0:0:0:
296,200,5342,1,0,0:0:0:0:
128,112,5695,5,0,0:0:0:0:
160,248,6048,2,0,P|208:232|224:184,1,75
288,88,6401,5,0,0:0:0:0:
352,216,6754,1,0,0:0:0:0:
408,96,7107,1,0,0:0:0:0:
152,88,7459,5,0,0:0:0:0:
152,88,7636,1,0,0:0:0:0:
208,200,7989,1,0,0:0:0:0:
208,200,8165,1,0,0:0:0:0:
328,112,8518,5,0,0:0:0:0:
344,216,8871,2,0,P|328:256|296:280,1,75
176,240,9401,1,0,0:0:0:0:
176,240,9577,1,0,0:0:0:0:
304,88,9930,5,0,0:0:0:0:
72,96,10283,1,0,0:0:0:0:
152,128,10459,1,0,0:0:0:0:
128,240,10812,1,0,0:0:0:0:
200,264,10989,1,0,0:0:0:0:
352,256,11342,5,0,0:0:0:0:
384,168,11695,2,0,P|392:128|376:96,1,75
256,40,12048,1,0,0:0:0:0:
120,40,12401,1,0,0:0:0:0:
192,152,12754,1,0,0:0:0:0:
224,232,13107,5,0,0:0:0:0:
216,232,13283,1,0,0:0:0:0:
80,184,13459,2,0,P|72:240|96:280,1,89.9999972534181
136,328,13812,2,0,P|184:352|224:336,1,89.9999972534181
320,272,14165,5,0,0:0:0:0:
272,72,14342,1,0,0:0:0:0:
176,232,14518,1,0,0:0:0:0:
192,128,14695,1,0,0:0:0:0:
256,224,14871,2,0,B|264:280|304:304|304:304|352:224,1,179.999994506836
432,208,15401,1,0,0:0:0:0:
424,112,15577,5,0,0:0:0:0:
272,32,15754,1,0,0:0:0:0:
336,152,15930,1,0,0:0:0:0:
176,64,16107,1,0,0:0:0:0:
208,160,16283,2,0,L|112:160,1,89.9999972534181
160,232,16636,2,0,L|64:232,1,89.9999972534181
240,304,16989,5,0,0:0:0:0:
344,224,17165,1,0,0:0:0:0:
376,328,17342,1,0,0:0:0:0:
256,208,17518,1,0,0:0:0:0:
272,136,17695,2,0,B|304:160|328:152|360:176|376:136|368:96|368:96|304:64,1,179.999994506836
288,24,18224,1,0,0:0:0:0:
160,48,18401,5,0,0:0:0:0:
88,192,18577,1,0,0:0:0:0:
216,256,18754,1,0,0:0:0:0:
120,48,18930,1,0,0:0:0:0:
56,192,19107,1,0,0:0:0:0:
184,240,19283,1,0,0:0:0:0:
304,152,19459,1,0,0:0:0:0:
304,152,19636,1,0,0:0:0:0:
248,56,19812,6,0,B|192:72|192:72|192:112,1,89.9999972534181
192,176,20165,2,0,B|192:224|192:224|248:256,1,89.9999972534181
296,256,20518,2,0,B|344:256|344:256|344:176|376:168|376:168|432:200,1,179.999994506836
472,208,21048,1,0,0:0:0:0:
440,312,21224,5,0,0:0:0:0:
352,232,21401,1,0,0:0:0:0:
248,208,21577,1,0,0:0:0:0:
152,240,21754,1,0,0:0:0:0:
64,256,21930,2,0,B|48:192|48:192|80:160,1,89.9999972534181
120,128,22283,2,0,B|168:96|168:96|208:120,1,89.9999972534181
296,152,22636,5,0,0:0:0:0:
376,296,22812,1,0,0:0:0:0:
224,296,22989,1,0,0:0:0:0:
336,152,23165,1,0,0:0:0:0:
408,296,23342,2,0,B|368:320|368:320|320:256|320:256|264:288,1,179.999994506836
184,328,23871,1,0,0:0:0:0:
112,264,24048,5,0,0:0:0:0:
112,152,24224,1,0,0:0:0:0:
224,152,24401,1,0,0:0:0:0:
224,264,24577,1,0,0:0:0:0:
80,192,24754,1,0,0:0:0:0:
176,120,24930,1,0,0:0:0:0:
256,216,25107,1,0,0:0:0:0:
160,296,25283,1,0,0:0:0:0:
72,280,25459,6,0,B|48:240|48:240|104:208,1,89.9999972534181
152,200,25812,2,0,B|200:176|200:176|184:144,1,89.9999972534181
112,112,26165,2,0,B|80:80|80:80|120:48|120:48|192:72|232:48,1,179.999994506836
280,64,26695,1,0,0:0:0:0:
256,168,26871,6,0,B|320:168|320:168|320:208,1,89.9999972534181
320,280,27224,2,0,B|320:336|320:336|272:336,1,89.9999972534181
208,336,27577,2,0,B|152:336|152:336|152:288,1,89.9999972534181
144,224,27930,2,0,B|144:176|144:176|200:176,1,89.9999972534181
288,200,28283,5,0,0:0:0:0:
400,304,28459,1,0,0:0:0:0:
424,128,28636,1,0,0:0:0:0:
320,248,28812,1,0,0:0:0:0:
256,312,28989,2,0,B|208:272|208:272|144:312|144:312|96:264,1,179.999994506836
48,208,29518,1,0,0:0:0:0:
160,160,29695,5,0,0:0:0:0:
200,256,29871,1,0,0:0:0:0:
208,96,30048,1,0,0:0:0:0:
272,280,30224,1,0,0:0:0:0:
256,40,30401,1,0,0:0:0:0:
344,312,30577,1,0,0:0:0:0:
400,232,30754,2,0,B|416:176|416:176|352:176,1,89.9999972534181
320,192,31107,5,0,0:0:0:0:
320,192,31283,1,0,0:0:0:0:
248,72,31459,1,0,0:0:0:0:
248,72,31636,1,0,0:0:0:0:
128,112,31812,2,0,B|104:152|104:152|88:216|160:200|160:200|208:256,1,179.999994506836
192,320,32342,1,0,0:0:0:0:
256,192,32518,12,0,35342,0:0:0:0:
352,96,35695,5,0,0:0:0:0:
352,96,35871,1,0,0:0:0:0:
336,248,36224,1,0,0:0:0:0:
344,256,36401,1,0,0:0:0:0:
152,208,36754,5,0,0:0:0:0:
208,64,37107,1,0,0:0:0:0:
224,72,37283,1,0,0:0:0:0:
344,160,37636,1,0,0:0:0:0:
360,176,37812,1,0,0:0:0:0:
224,248,38165,5,0,0:0:0:0:
112,136,38518,1,0,0:0:0:0:
96,112,38695,1,0,0:0:0:0:
272,32,39047,1,0,0:0:0:0:
296,64,39224,1,0,0:0:0:0:
376,184,39577,5,0,0:0:0:0:
288,248,39930,1,0,0:0:0:0:
240,288,40107,1,0,0:0:0:0:
384,152,40459,1,0,0:0:0:0:
440,104,40636,1,0,0:0:0:0:
352,184,40989,5,0,0:0:0:0:
280,312,41342,1,0,0:0:0:0:
200,296,41518,1,0,0:0:0:0:
136,120,41871,1,0,0:0:0:0:
224,88,42048,1,0,0:0:0:0:
344,200,42401,5,0,0:0:0:0:
248,304,42754,1,0,0:0:0:0:
144,328,42930,1,0,0:0:0:0:
224,112,43283,1,0,0:0:0:0:
96,48,43459,1,0,0:0:0:0:
272,304,43812,5,0,0:0:0:0:
112,240,44165,1,0,0:0:0:0:
160,96,44342,1,0,0:0:0:0:
328,200,44695,1,0,0:0:0:0:
400,48,44871,1,0,0:0:0:0:
368,80,45224,5,0,0:0:0:0:
160,128,45577,1,0,0:0:0:0:
96,304,45754,1,0,0:0:0:0:
256,272,46107,1,0,0:0:0:0:
64,152,46283,1,0,0:0:0:0:
352,120,46636,5,0,0:0:0:0:
184,96,46812,2,0,L|152:96,2,28.1250010728836
256,224,47165,2,0,L|296:224,2,28.1250010728836
72,288,47518,2,0,L|112:288,2,28.1250010728836
312,40,47871,5,0,0:0:0:0:
320,32,47959,1,0,0:0:0:0:
328,24,48048,1,0,0:0:0:0:
112,72,48224,1,0,0:0:0:0:
104,64,48312,1,0,0:0:0:0:
96,56,48401,1,0,0:0:0:0:
320,160,48577,1,0,0:0:0:0:
328,152,48665,1,0,0:0:0:0:
336,144,48754,1,0,0:0:0:0:
112,208,48930,1,0,0:0:0:0:
104,200,49018,1,0,0:0:0:0:
96,192,49107,1,0,0:0:0:0:
368,64,49283,6,0,L|408:40,2,28.1250010728836
112,64,49636,2,0,L|72:40,2,28.1250010728836
112,304,49989,2,0,L|72:328,2,28.1250010728836
368,304,50342,2,0,L|408:328,2,28.1250010728836
328,144,50695,5,0,0:0:0:0:
312,136,50783,1,0,0:0:0:0:
296,128,50871,1,0,0:0:0:0:
176,104,51048,1,0,0:0:0:0:
160,112,51136,1,0,0:0:0:0:
144,120,51224,1,0,0:0:0:0:
112,240,51401,1,0,0:0:0:0:
128,248,51489,1,0,0:0:0:0:
144,256,51577,1,0,0:0:0:0:
272,248,51754,1,0,0:0:0:0:
288,240,51842,1,0,0:0:0:0:
304,232,51930,1,0,0:0:0:0:
368,160,52107,1,0,0:0:0:0:
256,80,52283,5,0,0:0:0:0:
88,184,52459,1,0,0:0:0:0:
264,296,52636,1,0,0:0:0:0:
168,96,52812,1,0,0:0:0:0:
128,280,52989,1,0,0:0:0:0:
320,208,53165,1,0,0:0:0:0:
376,104,53342,6,0,B|304:64|304:64|264:80,1,112.500004291535
160,128,53695,1,0,0:0:0:0:
96,264,53871,1,0,0:0:0:0:
272,96,54048,1,0,0:0:0:0:
192,240,54224,1,0,0:0:0:0:
296,320,54401,1,0,0:0:0:0:
296,320,54577,1,0,0:0:0:0:
368,264,54754,2,0,B|384:208|384:208|344:144,1,112.500004291535
264,88,55107,5,0,0:0:0:0:
248,80,55195,1,0,0:0:0:0:
232,72,55283,1,0,0:0:0:0:
208,64,55371,1,0,0:0:0:0:
184,64,55459,1,0,0:0:0:0:
160,72,55548,1,0,0:0:0:0:
136,88,55636,1,0,0:0:0:0:
120,112,55724,1,0,0:0:0:0:
120,152,55812,1,0,0:0:0:0:
136,192,55901,1,0,0:0:0:0:
136,232,55989,1,0,0:0:0:0:
120,272,56077,1,0,0:0:0:0:
112,320,56165,1,0,0:0:0:0:
136,352,56254,1,0,0:0:0:0:
184,360,56342,1,0,0:0:0:0:
232,344,56430,1,0,0:0:0:0:
264,320,56518,1,0,0:0:0:0:
304,176,57930,5,0,0:0:0:0:
88,88,58283,5,0,0:0:0:0:
240,344,58636,1,0,0:0:0:0:
328,48,58989,1,0,0:0:0:0:
120,144,59342,1,0,0:0:0:0:
296,312,59518,1,0,0:0:0:0:
248,136,59695,1,0,0:0:0:0:
336,64,60048,2,0,B|384:96|384:128|336:160|336:160|408:240,1,225.000008583069
320,288,60754,1,0,0:0:0:0:
112,288,61107,5,0,0:0:0:0:
328,56,61459,1,0,0:0:0:0:
280,336,61812,1,0,0:0:0:0:
144,96,62165,1,0,0:0:0:0:
312,176,62342,1,0,0:0:0:0:
80,296,62518,1,0,0:0:0:0:
328,72,62871,5,0,0:0:0:0:
328,72,63224,1,0,0:0:0:0:
328,72,63577,1,0,0:0:0:0:
344,248,63930,5,0,0:0:0:0:
120,80,64283,1,0,0:0:0:0:
168,312,64636,1,0,0:0:0:0:
376,304,64989,1,0,0:0:0:0:
168,176,65165,1,0,0:0:0:0:
392,216,65342,1,0,0:0:0:0:
224,80,65695,2,0,B|160:72|112:88|112:88|80:224,1,225.000008583069
416,184,66401,5,0,0:0:0:0:
296,288,66754,2,0,B|240:336|240:336|192:312,1,112.500004291535
112,272,67107,2,0,B|64:248|64:248|104:160|104:160|192:184,1,225.000008583069
384,240,67812,1,0,0:0:0:0:
400,64,67989,1,0,0:0:0:0:
256,160,68165,1,0,0:0:0:0:
160,64,68518,6,0,B|96:88|96:88|96:192|96:192|152:176,1,225.000008583069
328,128,69224,1,0,0:0:0:0:
296,296,69577,5,0,0:0:0:0:
72,80,69930,1,0,0:0:0:0:
272,64,70283,1,0,0:0:0:0:
184,192,70636,1,0,0:0:0:0:
360,344,70812,1,0,0:0:0:0:
288,160,70989,1,0,0:0:0:0:
416,184,71342,2,0,B|440:128|440:128|352:48|352:48|288:72,1,225.000008583069
112,128,72048,1,0,0:0:0:0:
264,320,72401,5,0,0:0:0:0:
400,80,72754,1,0,0:0:0:0:
240,320,73107,1,0,0:0:0:0:
88,72,73459,1,0,0:0:0:0:
240,128,73636,1,0,0:0:0:0:
104,224,73812,1,0,0:0:0:0:
168,320,74165,6,0,B|224:312|224:312|224:192|224:192|312:176,1,225.000008583069
360,168,74871,1,0,0:0:0:0:
88,72,75224,5,0,0:0:0:0:
264,304,75577,1,0,0:0:0:0:
400,48,75930,1,0,0:0:0:0:
144,184,76283,1,0,0:0:0:0:
376,320,76459,1,0,0:0:0:0:
264,160,76636,1,0,0:0:0:0:
112,144,76989,1,0,0:0:0:0:
112,144,77342,1,0,0:0:0:0:
192,304,77695,6,0,B|248:320|248:320|312:224|312:224|248:208,1,225.000008583069
200,192,78224,2,0,B|144:176|144:176|168:120,1,112.500004291535
256,40,78754,1,0,0:0:0:0:
416,120,79107,2,0,B|368:192|368:192|392:264,1,112.500004291535
432,320,79459,1,0,0:0:0:0:
336,240,79812,6,0,B|288:232|288:232|272:192|272:192|208:192|208:192|168:256,1,225.000008583069
104,344,80518,1,0,0:0:0:0:
88,96,80871,6,0,L|112:112,1,18.7500007152558
184,72,81048,2,0,L|208:88,1,18.7500007152558
280,56,81224,2,0,L|304:72,1,18.7500007152558
376,40,81401,2,0,L|400:56,1,18.7500007152558
432,128,81577,2,0,L|408:144,1,18.7500007152558
336,168,81754,2,0,L|312:184,1,18.7500007152558
240,208,81930,6,0,L|216:224,1,18.7500007152558
144,248,82107,2,0,L|120:264,1,18.7500007152558
112,336,82283,2,0,L|144:336,1,18.7500007152558
224,336,82459,2,0,L|256:336,1,18.7500007152558
336,336,82636,2,0,L|368:336,1,18.7500007152558
432,320,82812,2,0,L|456:296,1,18.7500007152558
416,208,82989,6,0,B|440:168|440:168|432:128|432:128|384:112,1,112.500004291535
272,64,83342,1,0,0:0:0:0:
104,88,83695,5,0,0:0:0:0:
96,96,83754,1,0,0:0:0:0:
144,288,84048,5,0,0:0:0:0:
136,296,84107,1,0,0:0:0:0:
336,224,84401,5,0,0:0:0:0:
344,232,84459,1,0,0:0:0:0:
176,64,84754,5,0,0:0:0:0:
168,56,84812,1,0,0:0:0:0:
256,296,85107,5,0,0:0:0:0:
264,304,85165,1,0,0:0:0:0:
360,112,85459,5,0,0:0:0:0:
360,112,85812,1,0,0:0:0:0:
360,112,86165,1,0,0:0:0:0:
176,72,86518,6,0,L|160:64,1,18.7500007152558
264,104,86695,2,0,L|296:96,1,18.7500007152558
144,152,86871,2,0,L|112:144,1,18.7500007152558
272,208,87048,2,0,L|296:200,1,18.7500007152558
104,240,87224,2,0,L|80:232,1,18.7500007152558
272,304,87401,2,0,L|296:296,1,18.7500007152558
448,192,87577,6,0,L|424:208,1,18.7500007152558
274,191,87754,2,0,L|298:207,1,18.7500007152558
448,320,87930,2,0,L|424:304,1,18.7500007152558
368,128,88107,2,0,L|344:112,1,18.7500007152558
256,80,88283,2,0,B|192:80|192:80|168:136|168:136|176:192,1,168.750006437302
80,248,88989,6,0,B|112:296|112:296|184:304|184:304|248:216,1,225.000008583069
392,120,89518,1,0,0:0:0:0:
240,40,89695,1,0,0:0:0:0:
384,288,90048,1,0,0:0:0:0:
152,248,90401,2,0,B|200:288|200:288|264:256,1,112.500004291535
384,192,90754,1,0,0:0:0:0:
312,56,91107,6,0,B|272:112|248:152|248:152|208:96|208:96|136:96,1,225.000008583069
16,120,91812,1,0,0:0:0:0:
80,264,92165,6,0,L|104:280,1,18.7500007152558
128,192,92342,2,0,L|152:208,1,18.7500007152558
184,128,92518,2,0,L|208:144,1,18.7500007152558
232,64,92695,2,0,L|256:80,1,18.7500007152558
304,160,92871,2,0,L|328:176,1,18.7500007152558
248,224,93048,2,0,L|272:240,1,18.7500007152558
200,288,93224,6,0,L|224:304,1,18.7500007152558
112,232,93401,2,0,L|136:248,1,18.7500007152558
32,176,93577,2,0,L|56:192,1,18.7500007152558
80,120,93754,2,0,L|104:136,1,18.7500007152558
128,64,93930,2,0,L|152:80,1,18.7500007152558
184,16,94107,2,0,L|208:32,1,18.7500007152558
320,80,94283,6,0,B|360:112|360:112|312:168,1,112.500004291535
248,248,94636,1,0,0:0:0:0:
136,136,94989,5,0,0:0:0:0:
128,128,95048,1,0,0:0:0:0:
376,104,95342,5,0,0:0:0:0:
384,112,95401,1,0,0:0:0:0:
328,264,95695,5,0,0:0:0:0:
320,272,95754,1,0,0:0:0:0:
128,80,96048,5,0,0:0:0:0:
136,88,96107,1,0,0:0:0:0:
352,64,96401,5,0,0:0:0:0:
344,72,96459,1,0,0:0:0:0:
464,192,96754,5,0,0:0:0:0:
144,320,97107,1,0,0:0:0:0:
72,56,97459,1,0,0:0:0:0:
256,80,97812,6,0,L|256:48,1,18.7500007152558
256,304,97989,2,0,L|256:328,1,18.7500007152558
168,112,98165,2,0,L|144:96,1,18.7500007152558
336,272,98342,2,0,L|360:288,1,18.7500007152558
136,192,98518,2,0,L|104:192,1,18.7500007152558
376,192,98695,2,0,L|400:192,1,18.7500007152558
168,272,98871,2,0,L|144:288,1,18.7500007152558
336,112,99048,2,0,L|360:96,1,18.7500007152558
440,56,99224,2,0,L|464:40,1,18.7500007152558
464,144,99401,2,0,L|464:176,1,18.7500007152558
464,240,99577,6,0,B|464:272|464:272|400:312|400:312|336:280,1,168.750006437302
360,208,100283,2,0,B|288:168|288:168|216:200|216:200|160:152,1,225.000008583069
136,56,100812,1,0,0:0:0:0:
40,232,100989,1,0,0:0:0:0:
416,200,101342,1,0,0:0:0:0:
352,96,101695,2,0,P|304:64|224:72,1,112.500004291535
136,128,102048,1,0,0:0:0:0:
208,256,102401,5,0,0:0:0:0:
208,256,102754,1,0,0:0:0:0:
208,256,103107,1,0,0:0:0:0:
240,96,103459,6,8,L|304:72,1,52.4999983978272
432,168,103989,2,8,L|376:192,1,52.4999983978272
280,176,104342,5,0,0:0:0:0:
264,184,104430,1,0,0:0:0:0:
248,192,104518,1,8,0:0:0:0:
200,320,104871,2,8,L|272:288,1,60
392,288,105224,1,0,0:0:0:0:
288,216,105401,2,8,L|360:184,1,60
416,120,105754,6,0,L|368:88,1,30
352,80,105930,1,8,0:0:0:0:
248,32,106107,1,0,0:0:0:0:
160,120,106283,2,8,B|120:112|120:112|88:136,1,67.4999979400635
80,192,106636,1,0,0:0:0:0:
176,240,106812,2,8,B|144:264|144:264|96:248,1,67.4999979400635
88,80,107165,6,0,L|136:80,2,33.7499989700318,0|0|8,0:0|0:0|0:0,0:0:0:0:
232,160,107518,1,0,0:0:0:0:
296,64,107695,2,8,P|344:48|384:56,1,75
440,104,108048,1,0,0:0:0:0:
448,192,108224,2,8,P|400:216|360:216,1,75
64,80,108577,5,0,0:0:0:0:
64,80,108665,1,0,0:0:0:0:
64,80,108754,2,0,P|136:80|152:104,1,82.5000025177003,8|0,0:0|0:0,0:0:0:0:
152,176,109107,2,8,B|200:224|200:224|240:224,1,82.5000025177003
304,232,109459,1,0,0:0:0:0:
448,240,109636,2,8,B|416:288|416:288|368:288,1,82.5000025177003
120,304,109989,6,0,L|72:304,2,41.2500012588501,0|0|8,0:0|0:0|0:0,0:0:0:0:
280,328,110342,1,0,0:0:0:0:
288,192,110518,2,8,L|288:96,1,89.9999972534181
216,24,110871,1,0,0:0:0:0:
136,72,111048,2,8,L|136:176,1,89.9999972534181
224,232,111401,5,0,0:0:0:0:
224,232,111489,1,0,0:0:0:0:
224,232,111577,1,8,0:0:0:0:
368,144,111754,1,0,0:0:0:0:
352,40,111930,2,8,B|272:40|272:40|240:72,1,97.4999955368044
208,112,112283,1,0,0:0:0:0:
152,176,112459,2,8,B|120:216|120:216|40:216,1,97.4999955368044
40,288,112812,5,0,0:0:0:0:
48,304,112901,1,0,0:0:0:0:
64,320,112989,1,8,0:0:0:0:
184,336,113165,1,0,0:0:0:0:
304,320,113342,2,8,P|360:296|384:240,1,104.999996795654
392,160,113695,1,0,0:0:0:0:
376,64,113871,2,8,P|304:72|280:120,1,104.999996795654
232,184,114401,5,2,0:0:0:0:
368,112,114577,2,2,L|336:112,2,28.1250010728836
168,48,114930,2,2,L|200:48,2,28.1250010728836
272,256,115283,2,2,L|232:256,2,28.1250010728836
80,256,115636,5,2,0:0:0:0:
80,256,115724,1,2,0:0:0:0:
80,256,115812,1,2,0:0:0:0:
288,56,115989,1,2,0:0:0:0:
288,56,116077,1,2,0:0:0:0:
288,56,116165,1,2,0:0:0:0:
344,248,116342,1,2,0:0:0:0:
344,248,116430,1,2,0:0:0:0:
344,248,116518,1,2,0:0:0:0:
128,104,116695,1,2,0:0:0:0:
128,104,116783,1,2,0:0:0:0:
128,104,116871,1,2,0:0:0:0:
344,80,117048,5,2,0:0:0:0:
344,80,117136,2,2,L|376:80,1,28.1250010728836
168,240,117401,1,2,0:0:0:0:
168,240,117489,2,2,L|120:240,1,28.1250010728836
128,64,117754,1,2,0:0:0:0:
128,64,117842,2,2,L|88:64,1,28.1250010728836
352,240,118107,1,2,0:0:0:0:
352,240,118195,2,2,L|392:240,1,28.1250010728836
152,320,118459,5,2,0:0:0:0:
128,312,118548,1,2,0:0:0:0:
104,304,118636,1,2,0:0:0:0:
176,128,118812,1,2,0:0:0:0:
200,120,118901,1,2,0:0:0:0:
232,112,118989,1,2,0:0:0:0:
368,224,119165,1,2,0:0:0:0:
392,240,119254,1,2,0:0:0:0:
416,256,119342,1,2,0:0:0:0:
160,240,119518,1,2,0:0:0:0:
136,224,119607,1,2,0:0:0:0:
112,208,119695,1,2,0:0:0:0:
80,64,119871,1,2,0:0:0:0:
288,32,120048,5,10,0:0:0:0:
384,240,120224,1,10,0:0:0:0:
152,240,120401,1,10,0:0:0:0:
304,32,120577,1,10,0:0:0:0:
408,240,120754,1,10,0:0:0:0:
176,240,120930,1,10,0:0:0:0:
112,160,121107,2,10,B|104:96|104:96|160:80,1,112.500004291535
280,80,121459,5,10,0:0:0:0:
424,176,121636,1,10,0:0:0:0:
320,304,121812,1,10,0:0:0:0:
176,200,121989,1,10,0:0:0:0:
368,96,122165,1,10,0:0:0:0:
408,272,122342,1,10,0:0:0:0:
240,256,122518,2,10,B|296:208|296:208|264:144,1,112.500004291535
128,64,122871,6,0,L|184:64,3,37.5
264,160,123224,2,0,L|224:160,3,37.5
80,304,123577,2,0,L|120:304,7,37.5
96,288,125165,6,0,L|168:240,1,75
248,192,125518,1,0,0:0:0:0:
400,104,125695,5,10,0:0:0:0:
160,104,125871,1,0,0:0:0:0:
312,312,126048,1,10,0:0:0:0:
304,56,126224,1,2,0:0:0:0:
144,264,126401,1,0,0:0:0:0:
112,96,126577,1,2,0:0:0:0:
112,96,126754,1,10,0:0:0:0:
304,48,126930,1,0,0:0:0:0:
72,200,127107,6,2,B|80:272|80:272|128:280,1,112.500004291535,10|2,0:0|0:0,0:0:0:0:
232,280,127459,2,0,B|296:256|296:256|320:208,1,112.500004291535,10|0,0:0|0:0,0:0:0:0:
360,144,127812,2,0,B|392:96|392:96|328:64,1,112.500004291535,2|0,0:0|0:0,0:0:0:0:
240,40,128165,2,0,L|176:152,1,112.500004291535,10|0,0:0|0:0,0:0:0:0:
88,248,128518,5,10,0:0:0:0:
296,232,128695,1,0,0:0:0:0:
32,192,128871,1,10,0:0:0:0:
320,168,129048,1,2,0:0:0:0:
304,72,129224,2,0,B|208:88|208:88|200:152,1,112.500004291535,0|2,0:0|0:0,0:0:0:0:
200,192,129577,2,0,B|192:256|192:256|136:248,1,112.500004291535,10|0,0:0|0:0,0:0:0:0:
304,312,129930,6,2,B|392:296|392:296|400:232,1,112.500004291535,10|2,0:0|0:0,0:0:0:0:
416,192,130283,2,0,B|432:96|432:96|376:80,1,112.500004291535,10|0,0:0|0:0,0:0:0:0:
264,80,130636,1,14,0:0:0:0:
80,112,130812,1,0,0:0:0:0:
128,304,130989,1,14,0:0:0:0:
304,264,131165,1,0,0:0:0:0:
344,96,131342,5,10,0:0:0:0:
184,272,131518,1,0,0:0:0:0:
72,56,131695,1,10,0:0:0:0:
208,272,131871,1,2,0:0:0:0:
400,120,132048,1,0,0:0:0:0:
136,184,132224,1,2,0:0:0:0:
48,32,132401,1,10,0:0:0:0:
160,184,132577,1,0,0:0:0:0:
280,256,132754,6,2,B|352:240|352:240|352:176,1,112.500004291535,10|2,0:0|0:0,0:0:0:0:
360,120,133107,1,10,0:0:0:0:
336,32,133283,2,0,B|264:56|264:56|264:112,1,112.500004291535,0|6,0:0|0:0,0:0:0:0:
272,232,133636,5,0,0:0:0:0:
272,232,133812,1,6,0:0:0:0:
144,232,133989,1,0,0:0:0:0:
144,144,134165,2,0,B|144:80|144:80|192:64,1,112.500004291535,6|0,0:0|0:0,0:0:0:0:
280,56,134518,1,6,0:0:0:0:
360,64,134695,2,2,B|416:80|416:80|416:136,1,112.500004291535,6|2,0:0|0:0,0:0:0:0:
400,224,135048,6,6,B|328:224|328:224|296:272,1,112.500004291535
376,296,135401,2,2,B|336:344|336:344|256:344,1,112.500004291535,2|6,0:0|0:0,0:0:0:0:
208,256,135754,2,6,B|248:200|248:200|216:152,1,112.500004291535
168,88,136107,2,2,B|128:136|128:136|160:200,1,112.500004291535,2|14,0:0|0:0,0:0:0:0:
312,88,136459,5,0,0:0:0:0:
408,200,136636,1,14,0:0:0:0:
208,264,136812,1,0,0:0:0:0:
408,304,136989,6,0,B|320:336|320:336|304:288,1,112.500004291535,10|0,0:0|0:0,0:0:0:0:
304,256,137342,1,10,0:0:0:0:
104,160,137518,1,2,0:0:0:0:
264,48,137695,1,0,0:0:0:0:
280,248,137871,1,2,0:0:0:0:
88,152,138048,1,10,0:0:0:0:
248,40,138224,1,0,0:0:0:0:
368,80,138401,6,2,B|416:120|416:120|384:176,1,112.500004291535,10|2,0:0|0:0,0:0:0:0:
336,240,138754,2,0,B|296:288|296:288|240:248,1,112.500004291535,10|0,0:0|0:0,0:0:0:0:
248,88,139107,1,2,0:0:0:0:
144,232,139283,1,0,0:0:0:0:
232,24,139459,1,10,0:0:0:0:
64,256,139636,1,0,0:0:0:0:
168,304,139812,5,10,0:0:0:0:
320,240,139989,1,0,0:0:0:0:
240,80,140165,1,10,0:0:0:0:
88,160,140342,1,2,0:0:0:0:
248,280,140518,1,0,0:0:0:0:
320,88,140695,1,2,0:0:0:0:
152,112,140871,2,0,B|200:152|200:152|152:232,1,112.500004291535,10|0,0:0|0:0,0:0:0:0:
280,320,141224,6,2,B|368:296|368:296|376:240,1,112.500004291535,10|2,0:0|0:0,0:0:0:0:
400,96,141577,1,10,0:0:0:0:
400,96,141754,1,0,0:0:0:0:
320,80,141930,6,0,B|312:152|312:152|264:184,1,112.500004291535,14|0,0:0|0:0,0:0:0:0:
232,32,142283,2,0,B|232:96|232:96|192:136,1,112.500004291535,14|0,0:0|0:0,0:0:0:0:
112,48,142636,5,10,0:0:0:0:
64,192,142812,1,0,0:0:0:0:
160,328,142989,1,10,0:0:0:0:
192,176,143165,1,2,0:0:0:0:
128,328,143342,1,0,0:0:0:0:
48,200,143518,1,2,0:0:0:0:
88,48,143695,1,10,0:0:0:0:
184,176,143871,1,0,0:0:0:0:
264,264,144048,6,2,B|328:240|328:240|360:200|360:192,1,112.500004291535,10|2,0:0|0:0,0:0:0:0:
384,120,144401,2,0,B|368:184|368:184|336:232,1,112.500004291535,10|0,0:0|0:0,0:0:0:0:
288,272,144754,6,0,B|232:288|232:288|192:240|160:240,1,112.500004291535,6|0,0:0|0:0,0:0:0:0:
208,160,145107,1,6,0:0:0:0:
360,72,145283,1,0,0:0:0:0:
192,16,145459,1,6,0:0:0:0:
104,96,145636,2,0,B|64:144|64:144|80:200,1,112.500004291535,0|6,0:0|0:0,0:0:0:0:
112,328,145989,1,6,0:0:0:0:
208,256,146165,2,0,B|168:176|168:176|200:128,1,112.500004291535,0|6,0:0|0:0,0:0:0:0:
248,72,146518,5,6,0:0:0:0:
352,152,146695,1,0,0:0:0:0:
304,328,146871,1,6,0:0:0:0:
216,168,147048,1,6,0:0:0:0:
400,272,147224,1,6,0:0:0:0:
416,168,147401,6,0,B|424:96|424:96|352:80,1,112.500004291535,0|6,0:0|0:0,0:0:0:0:
320,64,147754,2,0,B|256:48|256:48|208:80,1,112.500004291535,0|6,0:0|0:0,0:0:0:0:
168,144,148107,1,0,0:0:0:0:
176,144,148283,6,0,B|240:136|240:136|296:160,1,112.500004291535
368,208,148636,1,0,0:0:0:0:
304,264,148812,1,0,0:0:0:0:
272,264,148901,1,0,0:0:0:0:
240,264,148989,1,0,0:0:0:0:
208,264,149077,2,0,L|152:232,1,56.2500021457673
72,208,149342,1,0,0:0:0:0:
160,88,149519,5,0,0:0:0:0:
168,88,149607,1,0,0:0:0:0:
176,88,149695,1,0,0:0:0:0:
288,48,149871,1,0,0:0:0:0:
336,200,150048,1,0,0:0:0:0:
240,200,150224,2,0,L|176:200,1,56.2500021457673
152,208,150401,2,0,L|96:232,1,56.2500021457673
80,256,150577,2,0,B|96:312|96:312|160:304,1,112.500004291535
304,280,150930,5,0,0:0:0:0:
336,272,151018,1,0,0:0:0:0:
368,256,151107,1,0,0:0:0:0:
400,144,151283,1,0,0:0:0:0:
400,144,151459,1,0,0:0:0:0:
232,48,151636,5,0,0:0:0:0:
192,48,151724,1,0,0:0:0:0:
152,56,151812,1,0,0:0:0:0:
112,80,151901,1,0,0:0:0:0:
88,112,151989,1,0,0:0:0:0:
96,240,152165,1,0,0:0:0:0:
216,272,152342,5,0,0:0:0:0:
248,264,152430,1,0,0:0:0:0:
288,248,152518,1,0,0:0:0:0:
384,128,152695,1,0,0:0:0:0:
248,80,152871,1,0,0:0:0:0:
144,112,153048,1,0,0:0:0:0:
136,120,153136,1,0,0:0:0:0:
128,128,153224,6,0,B|96:184|96:184|88:248|88:248|144:280|144:280|176:240,1,225.000008583069
163,255,153930,1,0,0:0:0:0:
360,88,154283,5,0,0:0:0:0:
232,80,154459,2,0,L|256:144,1,56.2500021457673
240,168,154636,2,0,L|200:208,1,56.2500021457673
160,232,154812,2,0,B|96:216|96:216|112:160,1,112.500004291535
128,104,155165,5,0,0:0:0:0:
144,104,155254,1,0,0:0:0:0:
160,104,155342,1,0,0:0:0:0:
232,104,155518,2,0,B|272:64|272:64|352:104,1,112.500004291535
408,176,155871,5,0,0:0:0:0:
368,176,155959,1,0,0:0:0:0:
328,192,156048,1,0,0:0:0:0:
296,216,156136,1,0,0:0:0:0:
288,264,156224,2,0,B|336:296|336:296|288:352,1,112.500004291535
176,320,156577,1,0,0:0:0:0:
120,224,156754,5,10,0:0:0:0:
216,64,156930,1,0,0:0:0:0:
288,232,157107,1,10,0:0:0:0:
224,288,157283,2,2,B|192:232|192:232|248:152,1,112.500004291535
224,48,157636,1,0,0:0:0:0:
408,88,157812,1,10,0:0:0:0:
336,200,157989,2,0,B|272:168|272:168|192:184,2,112.500004291535,0|2|2,0:0|0:0|0:0,0:0:0:0:
424,272,158518,1,10,0:0:0:0:
304,320,158695,5,0,0:0:0:0:
216,304,158871,2,10,B|112:280|112:280|136:224|136:224|192:192,1,225.000008583069
256,192,159577,5,0,0:0:0:0:
352,80,159930,1,0,0:0:0:0:
216,72,160107,1,0,0:0:0:0:
184,80,160195,1,0,0:0:0:0:
160,96,160283,1,0,0:0:0:0:
144,120,160371,2,0,L|160:176,1,56.2500021457673
200,280,160636,1,0,0:0:0:0:
344,192,160812,5,0,0:0:0:0:
344,192,160901,2,0,L|344:112,1,56.2500021457673
400,56,161165,1,0,0:0:0:0:
448,152,161342,1,0,0:0:0:0:
432,240,161518,1,0,0:0:0:0:
416,264,161607,1,0,0:0:0:0:
392,288,161695,1,0,0:0:0:0:
368,304,161783,1,0,0:0:0:0:
344,320,161871,1,0,0:0:0:0:
264,240,162048,1,0,0:0:0:0:
168,296,162224,5,0,0:0:0:0:
144,296,162312,1,0,0:0:0:0:
128,296,162401,2,0,B|56:304|56:304|40:256|40:256|104:184,1,168.750006437302
96,200,162754,1,0,0:0:0:0:
168,104,162931,5,0,0:0:0:0:
208,96,163019,1,0,0:0:0:0:
240,72,163107,1,0,0:0:0:0:
264,40,163195,1,0,0:0:0:0:
304,32,163283,2,0,B|368:24|368:24|424:48,1,112.500004291535
408,112,163636,5,0,0:0:0:0:
376,136,163724,1,0,0:0:0:0:
352,168,163812,1,0,0:0:0:0:
200,176,163989,1,0,0:0:0:0:
344,328,164165,1,0,0:0:0:0:
208,304,164342,5,0,0:0:0:0:
176,296,164430,1,0,0:0:0:0:
136,288,164518,1,0,0:0:0:0:
96,280,164607,2,0,B|32:256|32:256|72:160,1,168.750006437302
160,72,165224,1,0,0:0:0:0:
440,152,165577,5,0,0:0:0:0:
328,208,165754,2,0,L|272:192,1,56.2500021457673
224,192,165930,2,0,L|168:264,1,56.2500021457673
176,280,166107,2,0,B|240:320|240:320|272:280,1,112.500004291535
392,216,166459,5,0,0:0:0:0:
408,192,166548,1,0,0:0:0:0:
416,160,166636,1,0,0:0:0:0:
360,64,166812,1,0,0:0:0:0:
360,64,166989,1,0,0:0:0:0:
264,80,167165,5,0,0:0:0:0:
224,88,167254,1,0,0:0:0:0:
184,104,167342,1,0,0:0:0:0:
160,136,167430,1,0,0:0:0:0:
144,176,167518,1,0,0:0:0:0:
192,240,167695,1,0,0:0:0:0:
192,240,167871,1,0,0:0:0:0:
296,248,168048,6,4,B|360:224|360:224|360:176,1,112.500004291535,0|0,0:0|0:0,0:0:0:0:
360,96,168401,1,4,0:0:0:0:
272,40,168577,2,4,B|200:64|200:64|192:112,1,112.500004291535
176,232,169107,1,4,0:0:0:0:
64,216,169459,2,0,B|64:296|64:296|120:320,1,112.500004291535
216,320,169812,1,4,0:0:0:0:
304,272,170165,2,4,B|392:272|392:272|448:192|448:192|400:192,1,225.000008583069
256,192,170871,5,4,0:0:0:0:
256,192,171224,12,0,175283,0:0:0:0:
