osu file format v14

[General]
AudioFilename: audio.mp3
AudioLeadIn: 0
PreviewTime: 74960
Countdown: 0
SampleSet: Soft
StackLeniency: 0.7
Mode: 0
LetterboxInBreaks: 0
WidescreenStoryboard: 1

[Editor]
DistanceSpacing: 0.7
BeatDivisor: 8
GridSize: 32
TimelineZoom: 1

[Metadata]
Title:Crab Rave
TitleUnicode:Crab Rave
Artist:Noisestorm
ArtistUnicode:Noisestorm
Creator:VINXIS
Version:OBAMA IS GONE
Source:
Tags:troll the libtards monstercat
BeatmapID:1728333
BeatmapSetID:824773

[Difficulty]
HPDrainRate:6
CircleSize:4
OverallDifficulty:10
ApproachRate:7
SliderMultiplier:1.4
SliderTickRate:1

[Events]
//Background and Video events
0,0,"hqdefault (1).jpg",0,0
Video,140,"videoplayback (1) (1).mp4"
//Break Periods
2,105940,120200
//Storyboard Layer 0 (Background)
//Storyboard Layer 1 (Fail)
//Storyboard Layer 2 (Pass)
//Storyboard Layer 3 (Foreground)
//Storyboard Sound Samples

[TimingPoints]
140,480,4,2,1,50,1,0
59660,-83.3333333333333,4,2,1,50,0,0
75020,-45.4545454545455,4,2,1,80,0,0
121100,-83.3333333333333,4,2,1,80,0,0
136460,-45.4545454545455,4,2,1,80,0,0
167180,-100,4,2,1,50,0,0

[HitObjects]
102,285,28940,5,2,0:0:0:0:
102,285,29420,1,2,0:0:0:0:
66,369,29900,5,2,0:0:0:0:
102,285,30140,1,2,0:0:0:0:
138,201,30380,1,2,0:0:0:0:
60,118,30860,5,2,0:0:0:0:
60,118,31340,1,2,0:0:0:0:
96,34,31820,5,2,0:0:0:0:
60,118,32060,1,2,0:0:0:0:
24,202,32300,1,2,0:0:0:0:
410,99,32780,5,2,0:0:0:0:
410,99,33260,1,2,0:0:0:0:
446,15,33740,5,2,0:0:0:0:
410,99,33980,1,2,0:0:0:0:
374,183,34220,1,2,0:0:0:0:
452,266,34700,5,2,0:0:0:0:
452,266,35180,1,2,0:0:0:0:
416,350,35660,5,2,0:0:0:0:
452,266,35900,1,2,0:0:0:0:
488,182,36140,1,2,0:0:0:0:
256,96,36620,5,2,0:0:0:0:
332,38,36860,1,0,0:0:0:0:
332,38,36980,1,0,0:0:0:0:
332,38,37100,2,0,L|396:46,3,35,2|0|0|0,0:0|0:0|0:0|0:0,0:0:0:0:
180,38,37580,2,0,L|116:46,1,35,2|0,0:0|0:0,0:0:0:0:
122,145,37820,2,0,L|157:141,1,35,2|0,0:0|0:0,0:0:0:0:
57,69,38060,2,0,L|-7:77,3,35,2|0|0|0,0:0|0:0|0:0|0:0,0:0:0:0:
0,183,38540,6,0,L|8:247,3,35,2|0|0|0,0:0|0:0|0:0|0:0,0:0:0:0:
101,269,39020,2,0,L|96:234,3,35,2|0|0|0,0:0|0:0|0:0|0:0,0:0:0:0:
122,145,39500,2,0,L|156:140,1,35,2|0,0:0|0:0,0:0:0:0:
247,227,39740,2,0,L|212:231,1,35,2|0,0:0|0:0,0:0:0:0:
298,146,39980,2,0,L|332:141,3,35,2|0|0|0,0:0|0:0|0:0|0:0,0:0:0:0:
399,201,40460,6,0,L|403:235,3,35,2|0|0|0,0:0|0:0|0:0|0:0,0:0:0:0:
494,221,40940,2,0,L|489:186,3,35,2|0|0|0,0:0|0:0|0:0|0:0,0:0:0:0:
472,310,41420,2,0,L|526:297,1,35,2|0,0:0|0:0,0:0:0:0:
380,319,41660,2,0,L|345:327,1,35,2|0,0:0|0:0,0:0:0:0:
220,315,41900,2,0,L|274:302,3,35,2|0|0|0,0:0|0:0|0:0|0:0,0:0:0:0:
321,253,42380,6,0,L|320:197,3,35,2|0|0|0,0:0|0:0|0:0|0:0,0:0:0:0:
235,199,42860,2,0,L|235:233,3,35,2|0|0|0,0:0|0:0|0:0|0:0,0:0:0:0:
312,121,43340,2,0,L|355:130,1,35,2|0,0:0|0:0,0:0:0:0:
364,44,43580,2,0,L|329:36,1,35,2|0,0:0|0:0,0:0:0:0:
245,58,43820,2,0,L|232:110,3,35,2|0|0|0,0:0|0:0|0:0|0:0,0:0:0:0:
183,9,44300,5,6,1:2:0:0:
125,83,45260,1,2,0:0:0:0:
329,9,46220,5,2,0:0:0:0:
387,83,47180,1,2,0:0:0:0:
183,375,48140,5,2,0:0:0:0:
125,301,49100,1,2,0:0:0:0:
329,375,50060,5,2,0:0:0:0:
387,301,51020,1,2,0:0:0:0:
93,169,51980,5,2,0:0:0:0:
167,161,52940,1,2,0:0:0:0:
419,169,53900,5,2,0:0:0:0:
345,161,54860,1,2,0:0:0:0:
42,99,55820,5,2,0:0:0:0:
345,161,56780,1,2,0:0:0:0:
154,303,57740,5,2,0:0:0:0:
216,0,58700,1,2,0:0:0:0:
176,148,59660,5,2,0:0:0:0:
176,148,60140,2,0,P|245:165|295:156,1,83.9999974365235,2|0,0:0|0:0,0:0:0:0:
324,118,60500,2,0,P|330:71|315:2,1,83.9999974365235,2|2,0:0|0:0,0:0:0:0:
268,347,61100,1,2,0:0:0:0:
325,34,61580,6,0,P|371:55|438:60,1,83.9999974365235,2|0,0:0|0:0,0:0:0:0:
280,256,62060,2,0,P|238:264|201:282,1,83.9999974365235,2|0,0:0|0:0,0:0:0:0:
155,209,62420,2,0,P|173:171|178:80,1,125.999996154785,2|2,0:0|0:0,0:0:0:0:
50,27,63020,1,2,0:0:0:0:
271,78,63260,1,2,0:0:0:0:
492,129,63500,5,2,0:0:0:0:
492,129,63980,2,0,P|428:129|386:151,1,83.9999974365235,2|0,0:0|0:0,0:0:0:0:
350,195,64340,2,0,P|336:242|326:308,1,83.9999974365235,2|2,0:0|0:0,0:0:0:0:
184,12,64940,1,2,0:0:0:0:
329,276,65420,6,0,P|353:311|394:333,1,83.9999974365235,2|0,0:0|0:0,0:0:0:0:
220,242,65900,2,0,P|183:262|160:297,1,83.9999974365235,2|0,0:0|0:0,0:0:0:0:
83,311,66260,2,0,P|85:259|71:156,1,125.999996154785,2|2,0:0|0:0,0:0:0:0:
16,363,66860,1,2,0:0:0:0:
140,110,67100,1,2,0:0:0:0:
413,126,67340,6,0,P|412:44|403:7,1,83.9999974365235,10|0,1:1|0:0,0:0:0:0:
379,207,67700,1,0,0:0:0:0:
431,277,67820,2,0,P|502:317|539:327,1,83.9999974365235,10|0,1:1|0:0,0:0:0:0:
504,317,68180,1,2,1:1:0:0:
445,371,68300,2,0,L|392:374,1,41.9999987182618,8|2,1:1|0:1,0:0:0:0:
387,214,68540,1,0,0:0:0:0:
387,214,68660,1,0,0:0:0:0:
387,214,68780,2,0,L|334:217,1,41.9999987182618,10|0,1:1|0:0,0:0:0:0:
230,321,69020,1,0,0:0:0:0:
230,321,69140,1,0,0:0:0:0:
230,321,69260,6,0,P|263:322|336:344,1,83.9999974365235,10|0,1:1|0:0,0:0:0:0:
183,239,69620,1,0,0:0:0:0:
111,290,69740,2,0,P|70:300|28:303,1,83.9999974365235,10|0,1:1|0:0,0:0:0:0:
28,303,70100,1,2,0:1:0:0:
5,229,70220,2,0,L|9:187,1,41.9999987182618,8|0,0:1|0:1,0:1:0:0:
116,66,70460,2,0,L|111:107,1,41.9999987182618,2|0,0:1|0:1,0:1:0:0:
196,109,70700,2,0,L|191:150,1,41.9999987182618,10|0,0:1|0:1,0:1:0:0:
276,152,70940,2,0,L|271:193,1,41.9999987182618,2|0,0:1|0:1,0:1:0:0:
356,195,71180,5,8,1:1:0:0:
356,195,71300,1,8,1:1:0:0:
356,195,71420,1,8,1:1:0:0:
356,195,71540,1,8,1:1:0:0:
364,215,71660,5,8,1:1:0:0:
376,191,71780,1,8,1:1:0:0:
364,215,71900,1,8,1:1:0:0:
376,191,72020,1,8,1:1:0:0:
372,235,72140,5,8,1:1:0:0:
390,189,72260,1,8,1:1:0:0:
372,235,72380,1,8,1:1:0:0:
390,189,72500,1,8,1:1:0:0:
372,235,72620,1,8,1:1:0:0:
390,189,72740,1,8,1:1:0:0:
372,235,72860,1,8,1:1:0:0:
390,189,72980,1,8,1:1:0:0:
390,189,73100,5,8,0:0:0:0:
113,221,73340,1,0,1:0:0:0:
390,189,73580,1,8,0:0:0:0:
113,221,73820,1,0,1:0:0:0:
390,189,74060,1,8,0:0:0:0:
113,221,74300,1,0,1:0:0:0:
482,226,74540,6,0,P|487:159|477:84,1,125.999996154785,8|0,0:0|0:0,0:0:0:0:
477,21,75020,6,0,L|377:33,1,77.0000023498536,6|0,1:2|0:0,0:0:0:0:
325,43,75260,2,0,L|225:55,1,77.0000023498536,2|0,0:0|0:0,0:0:0:0:
173,65,75500,2,0,L|185:165,1,77.0000023498536,10|0,1:2|0:0,0:0:0:0:
195,217,75740,1,0,0:0:0:0:
270,204,75860,6,0,L|346:194,1,77.0000023498536,2|0,0:2|1:0,0:0:0:0:
421,181,76100,1,2,0:0:0:0:
434,256,76220,2,0,L|443:332,1,77.0000023498536,2|0,0:2|0:0,0:0:0:0:
366,347,76460,2,0,L|356:270,1,77.0000023498536,10|0,1:2|0:0,0:0:0:0:
346,194,76700,1,2,0:0:0:0:
338,117,76820,6,0,L|261:107,1,77.0000023498536,2|0,0:2|1:0,0:0:0:0:
187,94,77060,1,2,0:0:0:0:
174,169,77180,2,0,L|164:245,1,77.0000023498536,2|0,0:2|0:0,0:0:0:0:
242,260,77420,2,0,L|251:183,1,77.0000023498536,10|0,1:2|0:0,0:0:0:0:
262,107,77660,1,2,0:0:0:0:
265,30,77780,6,0,L|165:42,1,77.0000023498536,2|0,0:0|1:0,0:0:0:0:
111,51,78020,2,0,L|11:63,1,77.0000023498536,2|0,0:0|0:0,0:0:0:0:
32,138,78260,2,0,L|132:126,1,77.0000023498536,2|10,0:0|1:2,0:0:0:0:
185,118,78500,1,0,0:0:0:0:
262,107,78620,2,0,L|362:95,1,77.0000023498536,2|0,0:0|0:0,0:0:0:0:
484,327,78860,6,0,L|384:315,1,77.0000023498536,6|0,1:2|0:0,0:0:0:0:
332,305,79100,2,0,L|232:293,1,77.0000023498536,2|0,0:0|0:0,0:0:0:0:
180,283,79340,2,0,L|192:183,1,77.0000023498536,10|0,1:2|0:0,0:0:0:0:
202,131,79580,1,0,0:0:0:0:
277,144,79700,6,0,L|353:153,1,77.0000023498536,2|0,0:2|1:0,0:0:0:0:
428,167,79940,1,2,0:0:0:0:
441,92,80060,2,0,L|450:15,1,77.0000023498536,2|0,0:2|0:0,0:0:0:0:
373,1,80300,2,0,L|363:77,1,77.0000023498536,10|0,1:2|0:0,0:0:0:0:
353,154,80540,1,2,0:0:0:0:
345,231,80660,6,0,L|268:240,1,77.0000023498536,2|0,0:2|1:0,0:0:0:0:
194,254,80900,1,2,0:0:0:0:
181,179,81020,2,0,L|171:102,1,77.0000023498536,2|0,0:2|0:0,0:0:0:0:
249,88,81260,2,0,L|258:164,1,77.0000023498536,10|0,1:2|0:0,0:0:0:0:
269,241,81500,1,2,0:0:0:0:
272,318,81620,6,0,L|172:306,1,77.0000023498536,2|0,0:0|1:0,0:0:0:0:
118,297,81860,2,0,L|18:285,1,77.0000023498536,2|0,0:0|0:0,0:0:0:0:
39,210,82100,2,0,L|139:222,1,77.0000023498536,2|10,0:0|1:2,0:0:0:0:
192,230,82340,1,0,0:0:0:0:
269,241,82460,2,0,L|369:253,1,77.0000023498536,2|0,0:0|0:0,0:0:0:0:
35,21,82700,6,0,L|135:33,1,77.0000023498536,6|0,1:2|0:0,0:0:0:0:
187,43,82940,2,0,L|287:55,1,77.0000023498536,2|0,0:0|0:0,0:0:0:0:
339,65,83180,2,0,L|327:165,1,77.0000023498536,10|0,1:2|0:0,0:0:0:0:
317,217,83420,1,0,0:0:0:0:
242,204,83540,6,0,L|165:194,1,77.0000023498536,2|0,0:2|1:0,0:0:0:0:
91,181,83780,1,2,0:0:0:0:
78,256,83900,2,0,L|68:332,1,77.0000023498536,2|0,0:2|0:0,0:0:0:0:
146,347,84140,2,0,L|155:270,1,77.0000023498536,10|0,1:2|0:0,0:0:0:0:
166,194,84380,1,2,0:0:0:0:
174,117,84500,6,0,L|250:107,1,77.0000023498536,2|0,0:2|1:0,0:0:0:0:
325,94,84740,1,2,0:0:0:0:
338,169,84860,2,0,L|347:245,1,77.0000023498536,2|0,0:2|0:0,0:0:0:0:
270,260,85100,2,0,L|260:183,1,77.0000023498536,10|0,1:2|0:0,0:0:0:0:
250,107,85340,1,2,0:0:0:0:
247,30,85460,6,0,L|347:42,1,77.0000023498536,2|0,0:0|1:0,0:0:0:0:
401,51,85700,2,0,L|501:63,1,77.0000023498536,2|0,0:0|0:0,0:0:0:0:
480,138,85940,2,0,L|380:126,1,77.0000023498536,2|10,0:0|1:2,0:0:0:0:
327,118,86180,1,0,0:0:0:0:
250,107,86300,2,0,L|150:95,1,77.0000023498536,2|0,0:0|0:0,0:0:0:0:
28,327,86540,6,0,L|128:315,1,77.0000023498536,6|0,1:2|0:0,0:0:0:0:
180,305,86780,2,0,L|280:293,1,77.0000023498536,2|0,0:0|0:0,0:0:0:0:
332,283,87020,2,0,L|320:183,1,77.0000023498536,10|0,1:2|0:0,0:0:0:0:
310,131,87260,1,0,0:0:0:0:
235,144,87380,6,0,L|158:153,1,77.0000023498536,2|0,0:2|1:0,0:0:0:0:
84,167,87620,1,2,0:0:0:0:
71,92,87740,2,0,L|61:15,1,77.0000023498536,2|0,0:2|0:0,0:0:0:0:
139,1,87980,2,0,L|148:77,1,77.0000023498536,10|0,1:2|0:0,0:0:0:0:
159,154,88220,1,2,0:0:0:0:
167,231,88340,6,0,L|243:240,1,77.0000023498536,2|0,0:2|1:0,0:0:0:0:
318,254,88580,1,2,0:0:0:0:
331,179,88700,2,0,L|340:102,1,77.0000023498536,2|0,0:2|0:0,0:0:0:0:
263,88,88940,2,0,L|253:164,1,77.0000023498536,10|0,1:2|0:0,0:0:0:0:
243,241,89180,1,2,0:0:0:0:
240,318,89300,6,0,L|340:306,1,77.0000023498536,2|0,0:0|1:0,0:0:0:0:
394,297,89540,2,0,L|494:285,1,77.0000023498536,2|0,0:0|0:0,0:0:0:0:
473,210,89780,2,0,L|373:222,1,77.0000023498536,2|10,0:0|1:2,0:0:0:0:
320,230,90020,1,0,0:0:0:0:
243,241,90140,2,0,L|143:253,1,77.0000023498536,2|0,0:0|0:0,0:0:0:0:
477,21,90380,6,0,L|377:33,1,77.0000023498536,6|0,1:2|0:0,0:0:0:0:
325,43,90620,2,0,L|225:55,1,77.0000023498536,2|0,0:0|0:0,0:0:0:0:
173,65,90860,2,0,L|185:165,1,77.0000023498536,10|0,1:2|0:0,0:0:0:0:
195,217,91100,1,0,0:0:0:0:
270,204,91220,6,0,L|346:194,1,77.0000023498536,2|0,0:2|1:0,0:0:0:0:
421,181,91460,1,2,0:0:0:0:
434,256,91580,2,0,L|443:332,1,77.0000023498536,2|0,0:2|0:0,0:0:0:0:
366,347,91820,2,0,L|356:270,1,77.0000023498536,10|0,1:2|0:0,0:0:0:0:
346,194,92060,1,2,0:0:0:0:
338,117,92180,6,0,L|261:107,1,77.0000023498536,2|0,0:2|1:0,0:0:0:0:
187,94,92420,1,2,0:0:0:0:
174,169,92540,2,0,L|164:245,1,77.0000023498536,2|0,0:2|0:0,0:0:0:0:
242,260,92780,2,0,L|251:183,1,77.0000023498536,10|0,1:2|0:0,0:0:0:0:
262,107,93020,1,2,0:0:0:0:
265,30,93140,6,0,L|165:42,1,77.0000023498536,2|0,0:0|1:0,0:0:0:0:
111,51,93380,2,0,L|11:63,1,77.0000023498536,2|0,0:0|0:0,0:0:0:0:
32,138,93620,2,0,L|132:126,1,77.0000023498536,2|10,0:0|1:2,0:0:0:0:
185,118,93860,1,0,0:0:0:0:
262,107,93980,2,0,L|362:95,1,77.0000023498536,2|0,0:0|0:0,0:0:0:0:
484,327,94220,6,0,L|384:315,1,77.0000023498536,6|0,1:2|0:0,0:0:0:0:
332,305,94460,2,0,L|232:293,1,77.0000023498536,2|0,0:0|0:0,0:0:0:0:
180,283,94700,2,0,L|192:183,1,77.0000023498536,10|0,1:2|0:0,0:0:0:0:
202,131,94940,1,0,0:0:0:0:
277,144,95060,6,0,L|353:153,1,77.0000023498536,2|0,0:2|1:0,0:0:0:0:
428,167,95300,1,2,0:0:0:0:
441,92,95420,2,0,L|450:15,1,77.0000023498536,2|0,0:2|0:0,0:0:0:0:
373,1,95660,2,0,L|363:77,1,77.0000023498536,10|0,1:2|0:0,0:0:0:0:
353,154,95900,1,2,0:0:0:0:
345,231,96020,6,0,L|268:240,1,77.0000023498536,2|0,0:2|1:0,0:0:0:0:
194,254,96260,1,2,0:0:0:0:
181,179,96380,2,0,L|171:102,1,77.0000023498536,2|0,0:2|0:0,0:0:0:0:
249,88,96620,2,0,L|258:164,1,77.0000023498536,10|0,1:2|0:0,0:0:0:0:
269,241,96860,1,2,0:0:0:0:
272,318,96980,6,0,L|172:306,1,77.0000023498536,2|0,0:0|1:0,0:0:0:0:
118,297,97220,2,0,L|18:285,1,77.0000023498536,2|0,0:0|0:0,0:0:0:0:
39,210,97460,2,0,L|139:222,1,77.0000023498536,2|10,0:0|1:2,0:0:0:0:
192,230,97700,1,0,0:0:0:0:
269,241,97820,2,0,L|369:253,1,77.0000023498536,2|0,0:0|0:0,0:0:0:0:
35,21,98060,6,0,L|135:33,1,77.0000023498536,6|0,1:2|0:0,0:0:0:0:
187,43,98300,2,0,L|287:55,1,77.0000023498536,2|0,0:0|0:0,0:0:0:0:
339,65,98540,2,0,L|327:165,1,77.0000023498536,10|0,1:2|0:0,0:0:0:0:
317,217,98780,1,0,0:0:0:0:
242,204,98900,6,0,L|165:194,1,77.0000023498536,2|0,0:2|1:0,0:0:0:0:
91,181,99140,1,2,0:0:0:0:
78,256,99260,2,0,L|68:332,1,77.0000023498536,2|0,0:2|0:0,0:0:0:0:
146,347,99500,2,0,L|155:270,1,77.0000023498536,10|0,1:2|0:0,0:0:0:0:
166,194,99740,1,2,0:0:0:0:
174,117,99860,6,0,L|250:107,1,77.0000023498536,2|0,0:2|1:0,0:0:0:0:
325,94,100100,1,2,0:0:0:0:
338,169,100220,2,0,L|347:245,1,77.0000023498536,2|0,0:2|0:0,0:0:0:0:
270,260,100460,2,0,L|260:183,1,77.0000023498536,10|0,1:2|0:0,0:0:0:0:
250,107,100700,1,2,0:0:0:0:
247,30,100820,6,0,L|347:42,1,77.0000023498536,2|0,0:0|1:0,0:0:0:0:
401,51,101060,2,0,L|501:63,1,77.0000023498536,2|0,0:0|0:0,0:0:0:0:
480,138,101300,2,0,L|380:126,1,77.0000023498536,2|10,0:0|1:2,0:0:0:0:
327,118,101540,1,0,0:0:0:0:
250,107,101660,2,0,L|150:95,1,77.0000023498536,2|0,0:0|0:0,0:0:0:0:
28,327,101900,6,0,L|128:315,1,77.0000023498536,6|0,1:2|0:0,0:0:0:0:
180,305,102140,2,0,L|280:293,1,77.0000023498536,2|0,0:0|0:0,0:0:0:0:
332,283,102380,2,0,L|320:183,1,77.0000023498536,10|0,1:2|0:0,0:0:0:0:
310,131,102620,1,0,0:0:0:0:
235,144,102740,6,0,L|158:153,1,77.0000023498536,2|0,0:2|1:0,0:0:0:0:
84,167,102980,1,2,0:0:0:0:
71,92,103100,2,0,L|61:15,1,77.0000023498536,2|0,0:2|0:0,0:0:0:0:
139,1,103340,2,0,L|148:77,1,77.0000023498536,10|0,1:2|0:0,0:0:0:0:
159,154,103580,1,2,0:0:0:0:
167,231,103700,6,0,L|243:240,1,77.0000023498536,2|0,0:2|1:0,0:0:0:0:
318,254,103940,1,2,0:0:0:0:
331,179,104060,2,0,L|340:102,1,77.0000023498536,2|0,0:2|0:0,0:0:0:0:
263,88,104300,2,0,L|253:164,1,77.0000023498536,10|0,1:2|0:0,0:0:0:0:
243,241,104540,1,2,0:0:0:0:
240,318,104660,6,0,L|340:306,1,77.0000023498536,2|0,0:0|1:0,0:0:0:0:
394,297,104900,2,0,L|494:285,1,77.0000023498536,2|0,0:0|0:0,0:0:0:0:
473,210,105140,2,0,L|373:222,1,77.0000023498536,2|10,0:0|1:2,0:0:0:0:
320,230,105380,1,0,0:0:0:0:
243,241,105500,2,0,L|143:253,1,77.0000023498536,2|0,0:0|0:0,0:0:0:0:
256,128,105740,5,2,0:0:0:0:
336,236,121100,5,2,0:0:0:0:
336,236,121580,2,0,P|267:219|217:228,1,83.9999974365235,2|0,0:0|0:0,0:0:0:0:
188,266,121940,2,0,P|182:313|197:382,1,83.9999974365235,2|2,0:0|0:0,0:0:0:0:
244,37,122540,1,2,0:0:0:0:
187,350,123020,6,0,P|141:329|74:324,1,83.9999974365235,2|0,0:0|0:0,0:0:0:0:
232,128,123500,2,0,P|274:120|311:102,1,83.9999974365235,2|0,0:0|0:0,0:0:0:0:
357,175,123860,2,0,P|339:213|334:304,1,125.999996154785,2|2,0:0|0:0,0:0:0:0:
462,357,124460,1,2,0:0:0:0:
241,306,124700,1,2,0:0:0:0:
20,255,124940,5,2,0:0:0:0:
20,255,125420,2,0,P|84:255|126:233,1,83.9999974365235,2|0,0:0|0:0,0:0:0:0:
162,189,125780,2,0,P|176:142|186:76,1,83.9999974365235,2|2,0:0|0:0,0:0:0:0:
328,372,126380,1,2,0:0:0:0:
183,108,126860,6,0,P|159:73|118:51,1,83.9999974365235,2|0,0:0|0:0,0:0:0:0:
292,142,127340,2,0,P|329:122|352:87,1,83.9999974365235,2|0,0:0|0:0,0:0:0:0:
429,73,127700,2,0,P|427:125|441:228,1,125.999996154785,2|2,0:0|0:0,0:0:0:0:
496,21,128300,1,2,0:0:0:0:
372,274,128540,1,2,0:0:0:0:
99,258,128780,6,0,P|100:340|109:377,1,83.9999974365235,10|0,1:1|0:0,0:0:0:0:
133,177,129140,1,0,0:0:0:0:
81,107,129260,2,0,P|10:67|-27:57,1,83.9999974365235,10|0,1:1|0:0,0:0:0:0:
8,67,129620,1,2,1:1:0:0:
67,13,129740,2,0,L|120:10,1,41.9999987182618,8|2,1:1|0:1,0:0:0:0:
125,170,129980,1,0,0:0:0:0:
125,170,130100,1,0,0:0:0:0:
125,170,130220,2,0,L|178:167,1,41.9999987182618,10|0,1:1|0:0,0:0:0:0:
282,63,130460,1,0,0:0:0:0:
282,63,130580,1,0,0:0:0:0:
282,63,130700,6,0,P|249:62|176:40,1,83.9999974365235,10|0,1:1|0:0,0:0:0:0:
329,145,131060,1,0,0:0:0:0:
401,94,131180,2,0,P|442:84|484:81,1,83.9999974365235,10|0,1:1|0:0,0:0:0:0:
484,81,131540,1,2,0:1:0:0:
507,155,131660,2,0,L|503:197,1,41.9999987182618,8|0,0:1|0:1,0:1:0:0:
396,318,131900,2,0,L|401:277,1,41.9999987182618,2|0,0:1|0:1,0:1:0:0:
316,275,132140,2,0,L|321:234,1,41.9999987182618,10|0,0:1|0:1,0:1:0:0:
236,232,132380,2,0,L|241:191,1,41.9999987182618,2|0,0:1|0:1,0:1:0:0:
156,189,132620,5,8,1:1:0:0:
156,189,132740,1,8,1:1:0:0:
156,189,132860,1,8,1:1:0:0:
156,189,132980,1,8,1:1:0:0:
148,169,133100,5,8,1:1:0:0:
136,193,133220,1,8,1:1:0:0:
148,169,133340,1,8,1:1:0:0:
136,193,133460,1,8,1:1:0:0:
140,149,133580,5,8,1:1:0:0:
122,195,133700,1,8,1:1:0:0:
140,149,133820,1,8,1:1:0:0:
122,195,133940,1,8,1:1:0:0:
140,149,134060,1,8,1:1:0:0:
122,195,134180,1,8,1:1:0:0:
140,149,134300,1,8,1:1:0:0:
122,195,134420,1,8,1:1:0:0:
122,195,134540,5,8,0:0:0:0:
399,163,134780,1,0,1:0:0:0:
122,195,135020,1,8,0:0:0:0:
399,163,135260,1,0,1:0:0:0:
122,195,135500,1,8,0:0:0:0:
399,163,135740,1,0,1:0:0:0:
30,158,135980,6,0,P|25:225|35:300,1,125.999996154785,8|0,0:0|0:0,0:0:0:0:
35,363,136460,5,2,0:0:0:0:
187,341,136700,1,2,0:0:0:0:
339,319,136940,1,2,0:0:0:0:
317,167,137180,1,0,0:0:0:0:
242,180,137300,5,2,0:0:0:0:
91,203,137540,1,2,0:0:0:0:
78,128,137660,1,2,0:0:0:0:
146,37,137900,2,0,L|156:114,1,77.0000023498536,10|0,1:2|0:0,0:0:0:0:
166,190,138140,1,2,0:0:0:0:
174,267,138260,6,0,L|251:277,1,77.0000023498536,2|0,0:2|1:0,0:0:0:0:
325,290,138500,1,2,0:0:0:0:
338,215,138620,2,0,L|348:139,1,77.0000023498536,2|0,0:2|0:0,0:0:0:0:
270,124,138860,2,0,L|261:201,1,77.0000023498536,10|0,1:2|0:0,0:0:0:0:
250,277,139100,1,2,0:0:0:0:
247,354,139220,6,0,L|347:342,1,77.0000023498536,2|0,0:0|1:0,0:0:0:0:
401,333,139460,2,0,L|501:321,1,77.0000023498536,2|0,0:0|0:0,0:0:0:0:
480,246,139700,2,0,L|380:258,1,77.0000023498536,2|10,0:0|1:2,0:0:0:0:
327,266,139940,1,0,0:0:0:0:
250,277,140060,2,0,L|150:289,1,77.0000023498536,2|0,0:0|0:0,0:0:0:0:
28,57,140300,6,0,L|128:69,1,77.0000023498536,6|0,1:2|0:0,0:0:0:0:
180,79,140540,2,0,L|280:91,1,77.0000023498536,2|0,0:0|0:0,0:0:0:0:
332,101,140780,2,0,L|320:201,1,77.0000023498536,10|0,1:2|0:0,0:0:0:0:
310,253,141020,1,0,0:0:0:0:
235,240,141140,6,0,L|159:231,1,77.0000023498536,2|0,0:2|1:0,0:0:0:0:
84,217,141380,1,2,0:0:0:0:
71,292,141500,2,0,L|62:369,1,77.0000023498536,2|0,0:2|0:0,0:0:0:0:
139,383,141740,2,0,L|149:307,1,77.0000023498536,10|0,1:2|0:0,0:0:0:0:
159,230,141980,1,2,0:0:0:0:
167,153,142100,6,0,L|244:144,1,77.0000023498536,2|0,0:2|1:0,0:0:0:0:
318,130,142340,1,2,0:0:0:0:
331,205,142460,2,0,L|341:282,1,77.0000023498536,2|0,0:2|0:0,0:0:0:0:
263,296,142700,2,0,L|254:220,1,77.0000023498536,10|0,1:2|0:0,0:0:0:0:
243,143,142940,1,2,0:0:0:0:
240,66,143060,6,0,L|340:78,1,77.0000023498536,2|0,0:0|1:0,0:0:0:0:
394,87,143300,2,0,L|494:99,1,77.0000023498536,2|0,0:0|0:0,0:0:0:0:
473,174,143540,2,0,L|373:162,1,77.0000023498536,2|10,0:0|1:2,0:0:0:0:
320,154,143780,1,0,0:0:0:0:
243,143,143900,2,0,L|143:131,1,77.0000023498536,2|0,0:0|0:0,0:0:0:0:
477,363,144140,6,0,L|377:351,1,77.0000023498536,6|0,1:2|0:0,0:0:0:0:
325,341,144380,2,0,L|225:329,1,77.0000023498536,2|0,0:0|0:0,0:0:0:0:
173,319,144620,2,0,L|185:219,1,77.0000023498536,10|0,1:2|0:0,0:0:0:0:
195,167,144860,1,0,0:0:0:0:
270,180,144980,6,0,L|347:190,1,77.0000023498536,2|0,0:2|1:0,0:0:0:0:
421,203,145220,1,2,0:0:0:0:
434,128,145340,2,0,L|444:52,1,77.0000023498536,2|0,0:2|0:0,0:0:0:0:
366,37,145580,2,0,L|357:114,1,77.0000023498536,10|0,1:2|0:0,0:0:0:0:
346,190,145820,1,2,0:0:0:0:
338,267,145940,6,0,L|262:277,1,77.0000023498536,2|0,0:2|1:0,0:0:0:0:
187,290,146180,1,2,0:0:0:0:
174,215,146300,2,0,L|165:139,1,77.0000023498536,2|0,0:2|0:0,0:0:0:0:
242,124,146540,2,0,L|252:201,1,77.0000023498536,10|0,1:2|0:0,0:0:0:0:
262,277,146780,1,2,0:0:0:0:
265,354,146900,6,0,L|165:342,1,77.0000023498536,2|0,0:0|1:0,0:0:0:0:
111,333,147140,2,0,L|11:321,1,77.0000023498536,2|0,0:0|0:0,0:0:0:0:
32,246,147380,2,0,L|132:258,1,77.0000023498536,2|10,0:0|1:2,0:0:0:0:
185,266,147620,1,0,0:0:0:0:
262,277,147740,2,0,L|362:289,1,77.0000023498536,2|0,0:0|0:0,0:0:0:0:
484,57,147980,6,0,L|384:69,1,77.0000023498536,6|0,1:2|0:0,0:0:0:0:
332,79,148220,2,0,L|232:91,1,77.0000023498536,2|0,0:0|0:0,0:0:0:0:
180,101,148460,2,0,L|192:201,1,77.0000023498536,10|0,1:2|0:0,0:0:0:0:
202,253,148700,1,0,0:0:0:0:
277,240,148820,6,0,L|354:231,1,77.0000023498536,2|0,0:2|1:0,0:0:0:0:
428,217,149060,1,2,0:0:0:0:
441,292,149180,2,0,L|451:369,1,77.0000023498536,2|0,0:2|0:0,0:0:0:0:
373,383,149420,2,0,L|364:307,1,77.0000023498536,10|0,1:2|0:0,0:0:0:0:
353,230,149660,1,2,0:0:0:0:
345,153,149780,6,0,L|269:144,1,77.0000023498536,2|0,0:2|1:0,0:0:0:0:
194,130,150020,1,2,0:0:0:0:
181,205,150140,2,0,L|172:282,1,77.0000023498536,2|0,0:2|0:0,0:0:0:0:
249,296,150380,2,0,L|259:220,1,77.0000023498536,10|0,1:2|0:0,0:0:0:0:
269,143,150620,1,2,0:0:0:0:
272,66,150740,6,0,L|172:78,1,77.0000023498536,2|0,0:0|1:0,0:0:0:0:
118,87,150980,2,0,L|18:99,1,77.0000023498536,2|0,0:0|0:0,0:0:0:0:
39,174,151220,2,0,L|139:162,1,77.0000023498536,2|10,0:0|1:2,0:0:0:0:
192,154,151460,1,0,0:0:0:0:
269,143,151580,2,0,L|369:131,1,77.0000023498536,2|0,0:0|0:0,0:0:0:0:
35,363,151820,6,0,L|135:351,1,77.0000023498536,6|0,1:2|0:0,0:0:0:0:
187,341,152060,2,0,L|287:329,1,77.0000023498536,2|0,0:0|0:0,0:0:0:0:
339,319,152300,2,0,L|327:219,1,77.0000023498536,10|0,1:2|0:0,0:0:0:0:
317,167,152540,1,0,0:0:0:0:
242,180,152660,6,0,L|166:190,1,77.0000023498536,2|0,0:2|1:0,0:0:0:0:
91,203,152900,1,2,0:0:0:0:
78,128,153020,2,0,L|69:52,1,77.0000023498536,2|0,0:2|0:0,0:0:0:0:
146,37,153260,2,0,L|156:114,1,77.0000023498536,10|0,1:2|0:0,0:0:0:0:
166,190,153500,1,2,0:0:0:0:
174,267,153620,6,0,L|251:277,1,77.0000023498536,2|0,0:2|1:0,0:0:0:0:
325,290,153860,1,2,0:0:0:0:
338,215,153980,2,0,L|348:139,1,77.0000023498536,2|0,0:2|0:0,0:0:0:0:
270,124,154220,2,0,L|261:201,1,77.0000023498536,10|0,1:2|0:0,0:0:0:0:
250,277,154460,1,2,0:0:0:0:
247,354,154580,6,0,L|347:342,1,77.0000023498536,2|0,0:0|1:0,0:0:0:0:
401,333,154820,2,0,L|501:321,1,77.0000023498536,2|0,0:0|0:0,0:0:0:0:
480,246,155060,2,0,L|380:258,1,77.0000023498536,2|10,0:0|1:2,0:0:0:0:
327,266,155300,1,0,0:0:0:0:
250,277,155420,2,0,L|150:289,1,77.0000023498536,2|0,0:0|0:0,0:0:0:0:
28,57,155660,6,0,L|128:69,1,77.0000023498536,6|0,1:2|0:0,0:0:0:0:
180,79,155900,2,0,L|280:91,1,77.0000023498536,2|0,0:0|0:0,0:0:0:0:
332,101,156140,2,0,L|320:201,1,77.0000023498536,10|0,1:2|0:0,0:0:0:0:
310,253,156380,1,0,0:0:0:0:
235,240,156500,6,0,L|159:231,1,77.0000023498536,2|0,0:2|1:0,0:0:0:0:
84,217,156740,1,2,0:0:0:0:
71,292,156860,2,0,L|62:369,1,77.0000023498536,2|0,0:2|0:0,0:0:0:0:
139,383,157100,2,0,L|149:307,1,77.0000023498536,10|0,1:2|0:0,0:0:0:0:
159,230,157340,1,2,0:0:0:0:
167,153,157460,6,0,L|244:144,1,77.0000023498536,2|0,0:2|1:0,0:0:0:0:
318,130,157700,1,2,0:0:0:0:
331,205,157820,2,0,L|341:282,1,77.0000023498536,2|0,0:2|0:0,0:0:0:0:
263,296,158060,2,0,L|254:220,1,77.0000023498536,10|0,1:2|0:0,0:0:0:0:
243,143,158300,1,2,0:0:0:0:
240,66,158420,6,0,L|340:78,1,77.0000023498536,2|0,0:0|1:0,0:0:0:0:
394,87,158660,2,0,L|494:99,1,77.0000023498536,2|0,0:0|0:0,0:0:0:0:
473,174,158900,2,0,L|373:162,1,77.0000023498536,2|10,0:0|1:2,0:0:0:0:
320,154,159140,1,0,0:0:0:0:
243,143,159260,2,0,L|143:131,1,77.0000023498536,2|0,0:0|0:0,0:0:0:0:
477,363,159500,6,0,L|377:351,1,77.0000023498536,6|0,1:2|0:0,0:0:0:0:
325,341,159740,2,0,L|225:329,1,77.0000023498536,2|0,0:0|0:0,0:0:0:0:
173,319,159980,2,0,L|185:219,1,77.0000023498536,10|0,1:2|0:0,0:0:0:0:
195,167,160220,1,0,0:0:0:0:
270,180,160340,6,0,L|347:190,1,77.0000023498536,2|0,0:2|1:0,0:0:0:0:
421,203,160580,1,2,0:0:0:0:
434,128,160700,2,0,L|444:52,1,77.0000023498536,2|0,0:2|0:0,0:0:0:0:
366,37,160940,2,0,L|357:114,1,77.0000023498536,10|0,1:2|0:0,0:0:0:0:
346,190,161180,1,2,0:0:0:0:
338,267,161300,6,0,L|262:277,1,77.0000023498536,2|0,0:2|1:0,0:0:0:0:
187,290,161540,1,2,0:0:0:0:
174,215,161660,2,0,L|165:139,1,77.0000023498536,2|0,0:2|0:0,0:0:0:0:
242,124,161900,2,0,L|252:201,1,77.0000023498536,10|0,1:2|0:0,0:0:0:0:
262,277,162140,1,2,0:0:0:0:
265,354,162260,6,0,L|165:342,1,77.0000023498536,2|0,0:0|1:0,0:0:0:0:
111,333,162500,2,0,L|11:321,1,77.0000023498536,2|0,0:0|0:0,0:0:0:0:
32,246,162740,2,0,L|132:258,1,77.0000023498536,2|10,0:0|1:2,0:0:0:0:
185,266,162980,1,0,0:0:0:0:
262,277,163100,2,0,L|362:289,1,77.0000023498536,2|0,0:0|0:0,0:0:0:0:
484,57,163340,6,0,L|384:69,1,77.0000023498536,6|0,1:2|0:0,0:0:0:0:
332,79,163580,2,0,L|232:91,1,77.0000023498536,2|0,0:0|0:0,0:0:0:0:
180,101,163820,2,0,L|192:201,1,77.0000023498536,10|0,1:2|0:0,0:0:0:0:
202,253,164060,1,0,0:0:0:0:
277,240,164180,6,0,L|354:231,1,77.0000023498536,2|0,0:2|1:0,0:0:0:0:
428,217,164420,1,2,0:0:0:0:
441,292,164540,2,0,L|451:369,1,77.0000023498536,2|0,0:2|0:0,0:0:0:0:
373,383,164780,2,0,L|364:307,1,77.0000023498536,10|0,1:2|0:0,0:0:0:0:
353,230,165020,1,2,0:0:0:0:
345,153,165140,6,0,L|269:144,1,77.0000023498536,2|0,0:2|1:0,0:0:0:0:
194,130,165380,1,2,0:0:0:0:
181,205,165500,2,0,L|172:282,1,77.0000023498536,2|0,0:2|0:0,0:0:0:0:
249,296,165740,2,0,L|259:220,1,77.0000023498536,10|0,1:2|0:0,0:0:0:0:
269,143,165980,1,2,0:0:0:0:
272,66,166100,6,0,L|172:78,1,77.0000023498536,2|0,0:0|1:0,0:0:0:0:
118,87,166340,2,0,L|18:99,1,77.0000023498536,2|0,0:0|0:0,0:0:0:0:
39,174,166580,2,0,L|139:162,1,77.0000023498536,2|10,0:0|1:2,0:0:0:0:
192,154,166820,1,0,0:0:0:0:
269,143,166940,2,0,L|369:131,1,77.0000023498536,2|0,0:0|0:0,0:0:0:0:
256,256,167180,5,2,0:0:0:0:
318,331,167660,1,2,0:0:0:0:
398,275,168140,1,2,0:0:0:0:
445,360,168620,1,2,0:0:0:0:
504,282,169100,6,0,P|503:238|491:134,1,140,2|0,0:0|0:0,0:0:0:0:
461,72,169820,2,0,L|475:3,2,70,2|2|2,0:0|0:0|0:0,0:0:0:0:
411,131,170540,1,2,0:0:0:0:
256,256,171020,5,2,0:0:0:0:
194,331,171500,1,2,0:0:0:0:
114,275,171980,1,2,0:0:0:0:
67,360,172460,1,2,0:0:0:0:
8,282,172940,6,0,P|9:238|21:134,1,140,2|0,0:0|0:0,0:0:0:0:
51,72,173660,2,0,L|37:3,2,70,2|2|2,0:0|0:0|0:0,0:0:0:0:
101,131,174380,1,2,0:0:0:0:
256,128,174860,5,2,0:0:0:0:
318,53,175340,1,2,0:0:0:0:
398,109,175820,1,2,0:0:0:0:
445,24,176300,1,2,0:0:0:0:
504,102,176780,6,0,P|503:146|491:250,1,140,2|0,0:0|0:0,0:0:0:0:
461,312,177500,2,0,L|475:381,2,70,2|2|2,0:0|0:0|0:0,0:0:0:0:
411,253,178220,1,2,0:0:0:0:
256,128,178700,5,2,0:0:0:0:
194,53,179180,1,2,0:0:0:0:
114,109,179660,1,2,0:0:0:0:
67,24,180140,1,2,0:0:0:0:
8,102,180620,6,0,P|9:146|21:250,1,140,2|0,0:0|0:0,0:0:0:0:
51,312,181340,2,0,L|37:381,2,70,2|2|2,0:0|0:0|0:0,0:0:0:0:
101,253,182060,2,0,L|245:287,1,140,2|4,0:0|0:0,0:0:0:0:
