osu file format v14

[General]
AudioFilename: audio.mp3
AudioLeadIn: 0
PreviewTime: -1
Countdown: 1
SampleSet: None
StackLeniency: 0.7
Mode: 1
LetterboxInBreaks: 0
WidescreenStoryboard: 0

[Editor]
Bookmarks: 74995,136435
DistanceSpacing: 1.1
BeatDivisor: 4
GridSize: 32
TimelineZoom: 1.8

[Metadata]
Title:Crab Rave
TitleUnicode:Crab Rave
Artist:Noisestorm
ArtistUnicode:Noisestorm
Creator:QEpicAce
Version:Who wants a CRAB RAVE?!
Source:
Tags:
BeatmapID:1865802
BeatmapSetID:892605

[Difficulty]
HPDrainRate:0.5
CircleSize:5
OverallDifficulty:4.5
ApproachRate:5
SliderMultiplier:2.49999990463257
SliderTickRate:1

[Events]
//Background and Video events
0,0,"crab.Jpg",0,0
//Break Periods
//Storyboard Layer 0 (Background)
//Storyboard Layer 1 (Fail)
//Storyboard Layer 2 (Pass)
//Storyboard Layer 3 (Foreground)
//Storyboard Sound Samples

[TimingPoints]
115,480,4,1,0,100,1,0
145,-33.3333333333333,4,1,0,100,0,0
28915,-100,4,1,0,100,0,0
36835,-50,4,1,0,100,0,0
37135,-100,4,1,0,100,0,0
38515,-50,4,1,0,100,0,0
38755,-100,4,1,0,100,0,0
39715,-50,4,1,0,100,0,0
39835,-100,4,1,0,100,0,0
42355,-50,4,1,0,100,0,0
42595,-100,4,1,0,100,0,0
43555,-100,4,1,0,100,0,0
44515,-33.3333333333333,4,1,0,100,0,0
44695,-50,4,1,0,100,0,0
44875,-100,4,1,0,100,0,0
46195,-50,4,1,0,100,0,0
46435,-100,4,1,0,100,0,0
47395,-50,4,1,0,100,0,0
47515,-100,4,1,0,100,0,0
50035,-50,4,1,0,100,0,0
50275,-100,4,1,0,100,0,0
51235,-50,4,1,0,100,0,0
51355,-100,4,1,0,100,0,0
52195,-33.3333333333333,4,1,0,100,0,0
52375,-50,4,1,0,100,0,0
52555,-100,4,1,0,100,0,0
53875,-50,4,1,0,100,0,0
54115,-100,4,1,0,100,0,0
55075,-50,4,1,0,100,0,0
55195,-100,4,1,0,100,0,0
56035,-33.3333333333333,4,1,0,100,0,0
56395,-50,4,1,0,100,0,0
56755,-100,4,1,0,100,0,0
57715,-50,4,1,0,100,0,0
57955,-100,4,1,0,100,0,0
58915,-50,4,1,0,100,0,0
59035,-100,4,1,0,100,0,0
67315,-80,4,1,0,100,0,0
71155,-83.3333333333333,4,1,0,100,0,0
71275,-86.9565217391304,4,1,0,100,0,0
71395,-90.9090909090909,4,1,0,100,0,0
71515,-95.2380952380952,4,1,0,100,0,0
71635,-100,4,1,0,100,0,0
71755,-105.263157894737,4,1,0,100,0,0
71875,-111.111111111111,4,1,0,100,0,0
71995,-117.647058823529,4,1,0,100,0,0
72115,-125,4,1,0,100,0,0
72235,-133.333333333333,4,1,0,100,0,0
72355,-142.857142857143,4,1,0,100,0,0
72475,-153.846153846154,4,1,0,100,0,0
72595,-166.666666666667,4,1,0,100,0,0
72715,-181.818181818182,4,1,0,100,0,0
72835,-200,4,1,0,100,0,0
72955,-222.222222222222,4,1,0,100,0,0
73075,-250,4,1,0,100,0,0
73315,-166.666666666667,4,1,0,100,0,0
73795,-125,4,1,0,100,0,0
74275,-100,4,1,0,100,0,0
74995,-100,4,1,0,100,0,1
78835,-80,4,1,0,100,0,1
82675,-66.6666666666667,4,1,0,100,0,1
86515,-57.1428571428571,4,1,0,100,0,1
90355,-50,4,1,0,100,0,1
94195,-40,4,1,0,100,0,1
98035,-33.3333333333333,4,1,0,100,0,1
101875,-25,4,1,0,100,0,1
105715,-25,4,1,0,100,0,0
105775,-100,4,1,0,100,0,0
128755,-80,4,1,0,100,0,0
128755,-100,4,1,0,100,0,0
128755,-80,4,1,0,100,0,0
132595,-83.3333333333333,4,1,0,100,0,0
132595,-83.3333333333333,4,1,0,100,0,0
132715,-86.9565217391304,4,1,0,100,0,0
132715,-86.9565217391304,4,1,0,100,0,0
132835,-90.9090909090909,4,1,0,100,0,0
132835,-90.9090909090909,4,1,0,100,0,0
132955,-95.2380952380952,4,1,0,100,0,0
132955,-95.2380952380952,4,1,0,100,0,0
133075,-100,4,1,0,100,0,0
133075,-100,4,1,0,100,0,0
133195,-105.263157894737,4,1,0,100,0,0
133195,-105.263157894737,4,1,0,100,0,0
133315,-111.111111111111,4,1,0,100,0,0
133315,-111.111111111111,4,1,0,100,0,0
133435,-117.647058823529,4,1,0,100,0,0
133435,-117.647058823529,4,1,0,100,0,0
133555,-125,4,1,0,100,0,0
133555,-125,4,1,0,100,0,0
133675,-133.333333333333,4,1,0,100,0,0
133675,-133.333333333333,4,1,0,100,0,0
133795,-142.857142857143,4,1,0,100,0,0
133795,-142.857142857143,4,1,0,100,0,0
133915,-153.846153846154,4,1,0,100,0,0
133915,-153.846153846154,4,1,0,100,0,0
134035,-166.666666666667,4,1,0,100,0,0
134035,-166.666666666667,4,1,0,100,0,0
134155,-181.818181818182,4,1,0,100,0,0
134155,-181.818181818182,4,1,0,100,0,0
134275,-200,4,1,0,100,0,0
134275,-200,4,1,0,100,0,0
134395,-222.222222222222,4,1,0,100,0,0
134395,-222.222222222222,4,1,0,100,0,0
134515,-250,4,1,0,100,0,0
134515,-250,4,1,0,100,0,0
134755,-166.666666666667,4,1,0,100,0,0
134755,-166.666666666667,4,1,0,100,0,0
135235,-125,4,1,0,100,0,0
135235,-125,4,1,0,100,0,0
135715,-100,4,1,0,100,0,0
135715,-100,4,1,0,100,0,0
136435,-100,4,1,0,100,0,1
136435,-100,4,1,0,100,0,1
140275,-80,4,1,0,100,0,1
144115,-66.6666666666667,4,1,0,100,0,1
147955,-57.1428571428571,4,1,0,100,0,1
151795,-50,4,1,0,100,0,1
155635,-40,4,1,0,100,0,1
159475,-33.3333333333333,4,1,0,100,0,1
163315,-25,4,1,0,100,0,1
167155,-100,4,1,0,100,0,0
170995,-133.333333333333,4,1,0,100,0,0
174835,-200,4,1,0,100,0,0
178675,-400,4,1,0,100,0,0

[HitObjects]
157,193,355,6,0,L|159:161,1,30.0000011444092
157,193,835,2,0,L|159:161,1,30.0000011444092
157,193,1315,2,0,L|159:161,1,30.0000011444092
157,193,1795,2,0,L|159:161,1,30.0000011444092
157,193,2035,2,0,L|159:161,1,30.0000011444092
157,193,2275,2,0,L|159:161,1,30.0000011444092
157,193,2515,2,0,L|159:161,1,30.0000011444092
157,193,2755,2,0,L|159:161,1,30.0000011444092
157,193,2875,2,0,L|159:161,1,30.0000011444092
157,193,2995,2,0,L|159:161,1,30.0000011444092
157,193,3085,2,0,L|159:161,1,30.0000011444092
157,193,3175,2,0,L|159:161,1,30.0000011444092
157,193,3955,2,0,L|159:161,1,30.0000011444092
157,193,4195,2,0,L|159:161,1,30.0000011444092
157,193,4375,2,0,L|159:161,1,30.0000011444092
157,193,5875,2,0,L|159:161,1,30.0000011444092
157,193,6235,2,0,L|159:161,1,30.0000011444092
157,193,7195,2,0,L|159:161,1,30.0000011444092
157,193,7795,2,0,L|159:161,1,30.0000011444092
157,193,8275,2,0,L|159:161,1,30.0000011444092
256,192,9715,12,0,9775,0:0:0:0:
256,192,9835,12,0,9895,0:0:0:0:
256,192,9955,12,0,10015,0:0:0:0:
256,192,10075,12,0,10135,0:0:0:0:
256,192,10195,12,0,10255,0:0:0:0:
256,192,10315,12,0,10375,0:0:0:0:
256,192,10435,12,0,10495,0:0:0:0:
256,192,10555,12,0,10615,0:0:0:0:
256,192,10675,12,0,10735,0:0:0:0:
256,192,10795,12,0,10855,0:0:0:0:
256,192,10915,12,0,10975,0:0:0:0:
256,192,11035,12,0,11095,0:0:0:0:
256,192,11155,12,0,11215,0:0:0:0:
256,192,11275,12,0,11335,0:0:0:0:
256,192,11395,12,0,11455,0:0:0:0:
256,192,11515,12,0,11575,0:0:0:0:
256,192,11635,12,0,11695,0:0:0:0:
256,192,11755,12,0,11815,0:0:0:0:
256,192,11875,12,0,11935,0:0:0:0:
146,168,12055,6,0,P|160:127|180:64,88,60.0000022888184
157,193,17395,6,0,L|159:161,1,30.0000011444092
157,193,19075,2,0,L|159:161,1,30.0000011444092
157,193,19195,2,0,L|159:161,1,30.0000011444092
157,193,19315,2,0,L|159:161,1,30.0000011444092
157,193,21355,2,0,L|159:161,1,30.0000011444092
157,193,22735,2,0,L|159:161,1,30.0000011444092
157,193,23215,2,0,L|159:161,1,30.0000011444092
157,193,23635,2,0,L|159:161,1,30.0000011444092
221,182,26035,2,0,L|296:183,29,60.0000022888184
157,193,27235,2,0,L|159:161,82,30.0000011444092
256,192,28915,1,0,0:0:0:0:
256,192,29395,1,0,0:0:0:0:
256,192,29875,1,8,0:0:0:0:
256,160,30115,1,8,0:0:0:0:
256,160,30355,1,0,0:0:0:0:
256,160,30835,1,0,0:0:0:0:
256,160,31315,1,0,0:0:0:0:
256,160,31795,1,8,0:0:0:0:
256,160,32035,1,8,0:0:0:0:
256,160,32275,1,0,0:0:0:0:
256,160,32755,1,0,0:0:0:0:
256,160,33235,1,0,0:0:0:0:
256,160,33715,1,8,0:0:0:0:
256,160,33955,1,8,0:0:0:0:
256,160,34195,1,0,0:0:0:0:
256,160,34675,1,0,0:0:0:0:
256,160,35155,1,0,0:0:0:0:
256,160,35635,1,8,0:0:0:0:
256,160,35875,1,8,0:0:0:0:
256,160,36115,1,0,0:0:0:0:
256,192,36595,1,0,0:0:0:0:
256,192,36835,1,0,0:0:0:0:
256,192,36895,1,0,0:0:0:0:
256,192,36955,1,0,0:0:0:0:
288,224,37015,1,8,0:0:0:0:
288,224,37075,1,8,0:0:0:0:
256,192,37195,1,8,0:0:0:0:
256,192,37255,1,8,0:0:0:0:
256,192,37315,1,0,0:0:0:0:
256,192,37555,1,0,0:0:0:0:
256,192,37795,1,8,0:0:0:0:
256,192,38035,1,0,0:0:0:0:
256,192,38155,1,8,0:0:0:0:
256,192,38275,1,0,0:0:0:0:
256,192,38515,1,0,0:0:0:0:
256,192,38635,1,0,0:0:0:0:
256,192,38755,1,8,0:0:0:0:
256,192,38815,1,8,0:0:0:0:
256,192,38875,1,0,0:0:0:0:
256,192,38995,1,0,0:0:0:0:
256,192,39235,1,0,0:0:0:0:
256,192,39475,1,0,0:0:0:0:
256,192,39715,1,0,0:0:0:0:
256,192,39835,1,0,0:0:0:0:
256,192,39895,1,0,0:0:0:0:
256,192,39955,1,8,0:0:0:0:
224,192,40075,1,8,0:0:0:0:
256,192,40135,1,0,0:0:0:0:
256,192,40195,1,0,0:0:0:0:
256,192,40435,1,0,0:0:0:0:
256,192,40675,1,0,0:0:0:0:
256,192,40735,1,0,0:0:0:0:
256,192,40795,1,8,0:0:0:0:
256,192,40915,1,0,0:0:0:0:
256,192,41035,1,8,0:0:0:0:
256,192,41095,1,8,0:0:0:0:
256,192,41155,1,0,0:0:0:0:
256,192,41395,1,0,0:0:0:0:
256,192,41635,1,0,0:0:0:0:
256,192,41875,1,8,0:0:0:0:
256,192,41995,1,0,0:0:0:0:
256,192,42115,1,8,0:0:0:0:
256,192,42355,1,0,0:0:0:0:
256,192,42475,1,0,0:0:0:0:
256,192,42595,1,8,0:0:0:0:
256,192,42655,1,8,0:0:0:0:
256,192,42715,1,0,0:0:0:0:
256,192,42835,1,0,0:0:0:0:
256,192,43075,1,0,0:0:0:0:
256,192,43315,1,0,0:0:0:0:
256,192,43555,5,0,0:0:0:0:
256,192,43675,1,0,0:0:0:0:
256,192,43735,1,0,0:0:0:0:
256,192,43795,1,8,0:0:0:0:
224,192,43915,1,0,0:0:0:0:
256,192,43975,1,0,0:0:0:0:
256,192,44035,1,8,0:0:0:0:
256,192,44275,1,0,0:0:0:0:
256,192,44515,1,0,0:0:0:0:
256,192,44575,1,0,0:0:0:0:
256,192,44635,1,8,0:0:0:0:
288,224,44695,1,0,0:0:0:0:
256,192,44755,1,8,0:0:0:0:
256,192,44875,1,0,0:0:0:0:
256,192,44935,1,8,0:0:0:0:
256,192,44995,1,0,0:0:0:0:
256,192,45235,1,0,0:0:0:0:
256,192,45475,1,0,0:0:0:0:
256,192,45715,1,8,0:0:0:0:
256,192,45835,1,0,0:0:0:0:
256,192,45955,1,8,0:0:0:0:
256,192,46195,1,0,0:0:0:0:
256,192,46315,1,8,0:0:0:0:
256,192,46435,1,0,0:0:0:0:
256,192,46495,1,0,0:0:0:0:
256,192,46555,1,8,0:0:0:0:
256,192,46675,1,0,0:0:0:0:
256,192,46915,1,0,0:0:0:0:
256,192,47155,1,0,0:0:0:0:
256,192,47395,1,0,0:0:0:0:
256,192,47515,1,8,0:0:0:0:
256,192,47575,1,0,0:0:0:0:
256,192,47635,1,0,0:0:0:0:
224,192,47755,1,8,0:0:0:0:
256,192,47815,1,0,0:0:0:0:
256,192,47875,1,0,0:0:0:0:
256,192,48115,1,0,0:0:0:0:
256,192,48355,1,0,0:0:0:0:
256,192,48415,1,8,0:0:0:0:
256,192,48475,1,8,0:0:0:0:
256,192,48595,1,0,0:0:0:0:
256,192,48715,1,8,0:0:0:0:
256,192,48775,1,8,0:0:0:0:
256,192,48835,1,0,0:0:0:0:
256,192,49075,1,0,0:0:0:0:
256,192,49315,1,0,0:0:0:0:
256,192,49555,1,8,0:0:0:0:
256,192,49675,1,0,0:0:0:0:
256,192,49795,1,8,0:0:0:0:
256,192,50035,1,0,0:0:0:0:
256,192,50155,1,0,0:0:0:0:
256,192,50275,1,8,0:0:0:0:
256,192,50335,1,8,0:0:0:0:
256,192,50395,1,8,0:0:0:0:
256,192,50515,1,0,0:0:0:0:
256,192,50755,1,0,0:0:0:0:
256,192,50995,1,0,0:0:0:0:
256,192,51235,5,0,0:0:0:0:
256,192,51355,1,0,0:0:0:0:
256,192,51415,1,0,0:0:0:0:
256,192,51475,1,8,0:0:0:0:
224,192,51595,1,0,0:0:0:0:
256,192,51655,1,0,0:0:0:0:
256,192,51715,1,8,0:0:0:0:
256,192,51955,1,0,0:0:0:0:
256,192,52195,1,8,0:0:0:0:
256,192,52255,1,8,0:0:0:0:
256,192,52315,1,8,0:0:0:0:
256,192,52375,1,0,0:0:0:0:
288,192,52435,1,0,0:0:0:0:
256,192,52555,1,8,0:0:0:0:
256,192,52615,1,8,0:0:0:0:
256,192,52675,1,8,0:0:0:0:
256,192,52915,1,0,0:0:0:0:
256,192,53155,1,0,0:0:0:0:
256,192,53395,1,0,0:0:0:0:
256,192,53515,1,8,0:0:0:0:
256,192,53635,1,0,0:0:0:0:
256,192,53875,1,0,0:0:0:0:
256,192,53995,1,0,0:0:0:0:
256,192,54115,1,8,0:0:0:0:
256,192,54175,1,8,0:0:0:0:
256,192,54235,1,0,0:0:0:0:
256,192,54355,1,0,0:0:0:0:
256,192,54595,1,0,0:0:0:0:
256,192,54835,1,0,0:0:0:0:
256,192,55075,1,0,0:0:0:0:
256,192,55195,1,0,0:0:0:0:
256,192,55255,1,0,0:0:0:0:
256,192,55315,1,8,0:0:0:0:
224,192,55435,1,0,0:0:0:0:
256,192,55495,1,0,0:0:0:0:
256,192,55555,1,8,0:0:0:0:
256,192,55795,1,0,0:0:0:0:
256,192,56035,1,0,0:0:0:0:
256,192,56095,1,0,0:0:0:0:
256,192,56155,1,0,0:0:0:0:
256,192,56215,1,8,0:0:0:0:
256,192,56275,1,0,0:0:0:0:
256,192,56395,1,0,0:0:0:0:
256,192,56455,1,0,0:0:0:0:
256,192,56515,1,8,0:0:0:0:
256,192,56755,1,0,0:0:0:0:
256,192,56995,1,0,0:0:0:0:
256,192,57235,1,8,0:0:0:0:
256,192,57355,1,0,0:0:0:0:
256,192,57475,1,8,0:0:0:0:
256,192,57715,1,0,0:0:0:0:
256,192,57835,1,0,0:0:0:0:
256,192,57955,1,8,0:0:0:0:
256,192,58015,1,8,0:0:0:0:
256,192,58075,1,0,0:0:0:0:
256,192,58195,1,0,0:0:0:0:
256,192,58435,1,0,0:0:0:0:
256,192,58675,1,0,0:0:0:0:
256,192,58915,5,0,0:0:0:0:
256,192,59035,1,0,0:0:0:0:
256,192,59095,1,0,0:0:0:0:
256,192,59155,1,8,0:0:0:0:
224,192,59275,1,8,0:0:0:0:
256,192,59335,1,0,0:0:0:0:
256,192,59395,1,0,0:0:0:0:
256,192,59635,1,0,0:0:0:0:
256,192,60115,1,0,0:0:0:0:
256,192,60475,1,8,0:0:0:0:
256,192,60595,1,8,0:0:0:0:
256,192,60715,1,0,0:0:0:0:
224,160,60835,1,8,0:0:0:0:
256,192,61075,1,0,0:0:0:0:
224,192,61555,1,8,0:0:0:0:
224,192,62035,1,8,0:0:0:0:
224,192,62395,1,0,0:0:0:0:
192,192,62515,1,0,0:0:0:0:
224,192,62635,1,8,0:0:0:0:
224,160,62755,1,0,0:0:0:0:
224,192,62995,1,8,0:0:0:0:
224,192,63235,1,0,0:0:0:0:
256,192,63475,1,8,0:0:0:0:
256,192,63955,1,8,0:0:0:0:
256,192,64315,1,0,0:0:0:0:
256,192,64435,1,0,0:0:0:0:
256,192,64555,1,8,0:0:0:0:
224,160,64675,1,0,0:0:0:0:
256,192,64915,1,8,0:0:0:0:
224,192,65395,1,0,0:0:0:0:
224,192,65875,1,0,0:0:0:0:
224,192,66235,1,0,0:0:0:0:
192,192,66355,1,8,0:0:0:0:
224,192,66475,1,0,0:0:0:0:
224,160,66595,1,0,0:0:0:0:
224,192,66835,1,8,0:0:0:0:
224,192,67075,1,0,0:0:0:0:
256,192,67315,1,8,0:0:0:0:
256,192,67795,1,0,0:0:0:0:
256,192,68155,1,8,0:0:0:0:
256,192,68275,1,8,0:0:0:0:
256,192,68395,1,0,0:0:0:0:
224,160,68515,1,8,0:0:0:0:
256,192,68755,1,0,0:0:0:0:
224,192,69235,1,8,0:0:0:0:
224,192,69715,1,8,0:0:0:0:
224,192,70075,1,0,0:0:0:0:
192,192,70195,1,0,0:0:0:0:
224,192,70315,1,8,0:0:0:0:
224,160,70435,1,0,0:0:0:0:
224,192,70675,1,0,0:0:0:0:
224,192,70915,1,0,0:0:0:0:
256,192,71155,5,8,0:0:0:0:
256,224,71275,1,0,0:0:0:0:
256,224,71395,1,0,0:0:0:0:
256,224,71515,1,0,0:0:0:0:
256,224,71635,1,8,0:0:0:0:
256,224,71755,1,0,0:0:0:0:
256,224,71875,1,0,0:0:0:0:
256,224,71995,1,0,0:0:0:0:
256,224,72115,1,8,0:0:0:0:
256,224,72235,1,0,0:0:0:0:
256,224,72355,1,0,0:0:0:0:
256,224,72475,1,0,0:0:0:0:
256,224,72595,1,8,0:0:0:0:
256,224,72715,1,0,0:0:0:0:
256,224,72835,1,0,0:0:0:0:
256,224,72955,1,0,0:0:0:0:
256,224,73075,1,8,0:0:0:0:
256,192,73315,1,0,0:0:0:0:
256,192,73555,1,8,0:0:0:0:
256,192,73795,1,0,0:0:0:0:
256,192,74035,1,8,0:0:0:0:
256,192,74275,1,0,0:0:0:0:
256,192,74515,1,8,0:0:0:0:
256,192,74995,5,0,0:0:0:0:
224,192,75235,1,8,0:0:0:0:
224,192,75475,1,0,0:0:0:0:
256,192,75595,1,8,0:0:0:0:
256,192,75655,1,8,0:0:0:0:
256,192,75715,1,0,0:0:0:0:
256,192,75835,1,0,0:0:0:0:
256,192,75955,1,8,0:0:0:0:
224,192,76075,1,0,0:0:0:0:
224,192,76195,1,8,0:0:0:0:
224,192,76435,1,0,0:0:0:0:
224,192,76675,1,0,0:0:0:0:
224,192,76795,1,8,0:0:0:0:
224,192,76855,1,8,0:0:0:0:
224,192,76915,1,0,0:0:0:0:
224,192,77035,1,8,0:0:0:0:
224,192,77155,1,0,0:0:0:0:
224,192,77395,1,0,0:0:0:0:
224,192,77635,1,0,0:0:0:0:
224,192,77755,1,8,0:0:0:0:
224,192,77815,1,8,0:0:0:0:
224,192,77995,1,0,0:0:0:0:
224,192,78055,1,0,0:0:0:0:
224,192,78115,1,0,0:0:0:0:
224,192,78235,1,8,0:0:0:0:
224,192,78295,1,8,0:0:0:0:
224,192,78475,1,0,0:0:0:0:
224,192,78535,1,0,0:0:0:0:
224,192,78595,1,0,0:0:0:0:
256,192,78835,5,0,0:0:0:0:
224,192,79075,1,8,0:0:0:0:
224,192,79315,1,0,0:0:0:0:
256,192,79435,1,8,0:0:0:0:
256,192,79495,1,8,0:0:0:0:
256,192,79555,1,0,0:0:0:0:
256,192,79675,1,0,0:0:0:0:
256,192,79795,1,8,0:0:0:0:
224,192,79915,1,0,0:0:0:0:
224,192,80035,1,8,0:0:0:0:
224,192,80275,1,0,0:0:0:0:
224,192,80515,1,0,0:0:0:0:
224,192,80635,1,8,0:0:0:0:
224,192,80695,1,8,0:0:0:0:
224,192,80755,1,0,0:0:0:0:
224,192,80875,1,8,0:0:0:0:
224,192,80995,1,0,0:0:0:0:
224,192,81235,1,0,0:0:0:0:
224,192,81475,1,0,0:0:0:0:
224,192,81595,1,8,0:0:0:0:
224,192,81655,1,8,0:0:0:0:
224,192,81835,1,0,0:0:0:0:
224,192,81895,1,0,0:0:0:0:
224,192,81955,1,0,0:0:0:0:
224,192,82075,1,8,0:0:0:0:
224,192,82135,1,8,0:0:0:0:
224,192,82315,1,0,0:0:0:0:
224,192,82375,1,0,0:0:0:0:
224,192,82435,1,0,0:0:0:0:
256,192,82675,5,0,0:0:0:0:
224,192,82915,1,8,0:0:0:0:
224,192,83155,1,0,0:0:0:0:
256,192,83275,1,8,0:0:0:0:
256,192,83335,1,8,0:0:0:0:
256,192,83395,1,0,0:0:0:0:
256,192,83515,1,0,0:0:0:0:
256,192,83635,1,8,0:0:0:0:
224,192,83755,1,0,0:0:0:0:
224,192,83875,1,8,0:0:0:0:
224,192,84115,1,0,0:0:0:0:
224,192,84355,1,0,0:0:0:0:
224,192,84475,1,8,0:0:0:0:
224,192,84535,1,8,0:0:0:0:
224,192,84595,1,0,0:0:0:0:
224,192,84715,1,8,0:0:0:0:
224,192,84835,1,0,0:0:0:0:
224,192,85075,1,0,0:0:0:0:
224,192,85315,1,0,0:0:0:0:
224,192,85435,1,8,0:0:0:0:
224,192,85495,1,8,0:0:0:0:
224,192,85675,1,0,0:0:0:0:
224,192,85735,1,0,0:0:0:0:
224,192,85795,1,0,0:0:0:0:
224,192,85915,1,8,0:0:0:0:
224,192,85975,1,8,0:0:0:0:
224,192,86155,1,0,0:0:0:0:
224,192,86215,1,0,0:0:0:0:
224,192,86275,1,0,0:0:0:0:
256,192,86515,5,0,0:0:0:0:
224,192,86755,1,8,0:0:0:0:
224,192,86995,1,0,0:0:0:0:
256,192,87115,1,8,0:0:0:0:
256,192,87175,1,8,0:0:0:0:
256,192,87235,1,0,0:0:0:0:
256,192,87355,1,0,0:0:0:0:
256,192,87475,1,8,0:0:0:0:
224,192,87595,1,0,0:0:0:0:
224,192,87715,1,8,0:0:0:0:
224,192,87955,1,0,0:0:0:0:
224,192,88195,1,0,0:0:0:0:
224,192,88315,1,8,0:0:0:0:
224,192,88375,1,8,0:0:0:0:
224,192,88435,1,0,0:0:0:0:
224,192,88555,1,8,0:0:0:0:
224,192,88675,1,0,0:0:0:0:
224,192,88915,1,0,0:0:0:0:
224,192,89155,1,0,0:0:0:0:
224,192,89275,1,8,0:0:0:0:
224,192,89335,1,8,0:0:0:0:
224,192,89515,1,0,0:0:0:0:
224,192,89575,1,0,0:0:0:0:
224,192,89635,1,0,0:0:0:0:
224,192,89755,1,8,0:0:0:0:
224,192,89815,1,8,0:0:0:0:
224,192,89995,1,0,0:0:0:0:
224,192,90055,1,0,0:0:0:0:
224,192,90115,1,0,0:0:0:0:
256,192,90355,5,0,0:0:0:0:
224,192,90595,1,8,0:0:0:0:
224,192,90835,1,0,0:0:0:0:
256,192,90955,1,8,0:0:0:0:
256,192,91015,1,8,0:0:0:0:
256,192,91075,1,0,0:0:0:0:
256,192,91195,1,0,0:0:0:0:
256,192,91315,1,8,0:0:0:0:
224,192,91435,1,0,0:0:0:0:
224,192,91555,1,8,0:0:0:0:
224,192,91795,1,0,0:0:0:0:
224,192,92035,1,0,0:0:0:0:
224,192,92155,1,8,0:0:0:0:
224,192,92215,1,8,0:0:0:0:
224,192,92275,1,0,0:0:0:0:
224,192,92395,1,8,0:0:0:0:
224,192,92515,1,0,0:0:0:0:
224,192,92755,1,0,0:0:0:0:
224,192,92995,1,0,0:0:0:0:
224,192,93115,1,8,0:0:0:0:
224,192,93175,1,8,0:0:0:0:
224,192,93355,1,0,0:0:0:0:
224,192,93415,1,0,0:0:0:0:
224,192,93475,1,0,0:0:0:0:
224,192,93595,1,8,0:0:0:0:
224,192,93655,1,8,0:0:0:0:
224,192,93835,1,0,0:0:0:0:
224,192,93895,1,0,0:0:0:0:
224,192,93955,1,0,0:0:0:0:
256,192,94195,5,0,0:0:0:0:
224,192,94435,1,8,0:0:0:0:
224,192,94675,1,0,0:0:0:0:
256,192,94795,1,8,0:0:0:0:
256,192,94855,1,8,0:0:0:0:
256,192,94915,1,0,0:0:0:0:
256,192,95035,1,0,0:0:0:0:
256,192,95155,1,8,0:0:0:0:
224,192,95275,1,0,0:0:0:0:
224,192,95395,1,8,0:0:0:0:
224,192,95635,1,0,0:0:0:0:
224,192,95875,1,0,0:0:0:0:
224,192,95995,1,8,0:0:0:0:
224,192,96055,1,8,0:0:0:0:
224,192,96115,1,0,0:0:0:0:
224,192,96235,1,8,0:0:0:0:
224,192,96355,1,0,0:0:0:0:
224,192,96595,1,0,0:0:0:0:
224,192,96835,1,0,0:0:0:0:
224,192,96955,1,8,0:0:0:0:
224,192,97015,1,8,0:0:0:0:
224,192,97195,1,0,0:0:0:0:
224,192,97255,1,0,0:0:0:0:
224,192,97315,1,0,0:0:0:0:
224,192,97435,1,8,0:0:0:0:
224,192,97495,1,8,0:0:0:0:
224,192,97675,1,0,0:0:0:0:
224,192,97735,1,0,0:0:0:0:
224,192,97795,1,0,0:0:0:0:
256,192,98035,5,0,0:0:0:0:
224,192,98275,1,8,0:0:0:0:
224,192,98515,1,0,0:0:0:0:
256,192,98635,1,8,0:0:0:0:
256,192,98695,1,8,0:0:0:0:
256,192,98755,1,0,0:0:0:0:
256,192,98875,1,0,0:0:0:0:
256,192,98995,1,8,0:0:0:0:
224,192,99115,1,0,0:0:0:0:
224,192,99235,1,8,0:0:0:0:
224,192,99475,1,0,0:0:0:0:
224,192,99715,1,0,0:0:0:0:
224,192,99835,1,8,0:0:0:0:
224,192,99895,1,8,0:0:0:0:
224,192,99955,1,0,0:0:0:0:
224,192,100075,1,8,0:0:0:0:
224,192,100195,1,0,0:0:0:0:
224,192,100435,1,0,0:0:0:0:
224,192,100675,1,0,0:0:0:0:
224,192,100795,1,8,0:0:0:0:
224,192,100855,1,8,0:0:0:0:
224,192,101035,1,0,0:0:0:0:
224,192,101095,1,0,0:0:0:0:
224,192,101155,1,0,0:0:0:0:
224,192,101275,1,8,0:0:0:0:
224,192,101335,1,8,0:0:0:0:
224,192,101515,1,0,0:0:0:0:
224,192,101575,1,0,0:0:0:0:
224,192,101635,1,0,0:0:0:0:
256,192,101875,5,0,0:0:0:0:
224,192,102115,1,8,0:0:0:0:
224,192,102355,1,0,0:0:0:0:
256,192,102475,1,8,0:0:0:0:
256,192,102535,1,8,0:0:0:0:
256,192,102595,1,0,0:0:0:0:
256,192,102715,1,0,0:0:0:0:
256,192,102835,1,8,0:0:0:0:
224,192,102955,1,0,0:0:0:0:
224,192,103075,1,8,0:0:0:0:
224,192,103315,1,0,0:0:0:0:
224,192,103555,1,0,0:0:0:0:
224,192,103675,1,8,0:0:0:0:
224,192,103735,1,8,0:0:0:0:
224,192,103795,1,0,0:0:0:0:
224,192,103915,1,8,0:0:0:0:
224,192,104035,1,0,0:0:0:0:
224,192,104275,1,0,0:0:0:0:
224,192,104515,1,0,0:0:0:0:
224,192,104635,1,8,0:0:0:0:
224,192,104695,1,8,0:0:0:0:
224,192,104875,1,0,0:0:0:0:
224,192,104935,1,0,0:0:0:0:
224,192,104995,1,0,0:0:0:0:
224,192,105115,1,8,0:0:0:0:
224,192,105175,1,8,0:0:0:0:
224,192,105355,1,0,0:0:0:0:
224,192,105415,1,0,0:0:0:0:
224,192,105475,1,0,0:0:0:0:
256,192,105715,5,12,0:0:0:0:
256,192,105775,12,0,120595,0:0:0:0:
256,192,121075,5,0,0:0:0:0:
256,192,121555,1,0,0:0:0:0:
256,192,121915,1,8,0:0:0:0:
256,192,122035,1,8,0:0:0:0:
256,192,122155,1,0,0:0:0:0:
224,160,122275,1,8,0:0:0:0:
256,192,122515,1,0,0:0:0:0:
224,192,122995,1,8,0:0:0:0:
224,192,123475,1,8,0:0:0:0:
224,192,123835,1,0,0:0:0:0:
192,192,123955,1,0,0:0:0:0:
224,192,124075,1,8,0:0:0:0:
224,160,124195,1,0,0:0:0:0:
224,192,124435,1,8,0:0:0:0:
224,192,124675,1,0,0:0:0:0:
256,192,124915,1,8,0:0:0:0:
256,192,125395,1,8,0:0:0:0:
256,192,125755,1,0,0:0:0:0:
256,192,125875,1,0,0:0:0:0:
256,192,125995,1,8,0:0:0:0:
224,160,126115,1,0,0:0:0:0:
256,192,126355,1,8,0:0:0:0:
224,192,126835,1,0,0:0:0:0:
224,192,127315,1,0,0:0:0:0:
224,192,127675,1,8,0:0:0:0:
192,192,127795,1,8,0:0:0:0:
224,192,127915,1,0,0:0:0:0:
224,160,128035,1,8,0:0:0:0:
224,192,128275,1,0,0:0:0:0:
224,192,128515,1,8,0:0:0:0:
256,192,128755,1,0,0:0:0:0:
256,192,129235,1,0,0:0:0:0:
256,192,129595,1,8,0:0:0:0:
256,192,129715,1,8,0:0:0:0:
256,192,129835,1,0,0:0:0:0:
224,160,129955,1,0,0:0:0:0:
256,192,130195,1,0,0:0:0:0:
224,192,130675,1,8,0:0:0:0:
224,192,131155,1,8,0:0:0:0:
224,192,131515,1,0,0:0:0:0:
192,192,131635,1,0,0:0:0:0:
224,192,131755,1,8,0:0:0:0:
224,160,131875,1,0,0:0:0:0:
224,192,132115,1,8,0:0:0:0:
224,192,132355,1,8,0:0:0:0:
256,192,132595,5,0,0:0:0:0:
256,224,132715,1,8,0:0:0:0:
256,224,132835,1,8,0:0:0:0:
256,224,132955,1,8,0:0:0:0:
256,224,133075,1,0,0:0:0:0:
256,224,133195,1,8,0:0:0:0:
256,224,133315,1,8,0:0:0:0:
256,224,133435,1,8,0:0:0:0:
256,224,133555,1,0,0:0:0:0:
256,224,133675,1,8,0:0:0:0:
256,224,133795,1,8,0:0:0:0:
256,224,133915,1,8,0:0:0:0:
256,224,134035,1,0,0:0:0:0:
256,224,134155,1,8,0:0:0:0:
256,224,134275,1,8,0:0:0:0:
256,224,134395,1,8,0:0:0:0:
256,224,134515,1,0,0:0:0:0:
256,192,134755,1,8,0:0:0:0:
256,192,134995,1,0,0:0:0:0:
256,192,135235,1,8,0:0:0:0:
256,192,135475,1,0,0:0:0:0:
256,192,135715,1,8,0:0:0:0:
256,192,135955,1,0,0:0:0:0:
256,192,136435,5,0,0:0:0:0:
224,192,136675,1,8,0:0:0:0:
224,192,136915,1,0,0:0:0:0:
256,192,137035,1,8,0:0:0:0:
256,192,137095,1,8,0:0:0:0:
256,192,137155,1,0,0:0:0:0:
256,192,137275,1,0,0:0:0:0:
256,192,137395,1,8,0:0:0:0:
224,192,137515,1,0,0:0:0:0:
224,192,137635,1,8,0:0:0:0:
224,192,137875,1,0,0:0:0:0:
224,192,138115,1,0,0:0:0:0:
224,192,138235,1,8,0:0:0:0:
224,192,138295,1,8,0:0:0:0:
224,192,138355,1,0,0:0:0:0:
224,192,138475,1,8,0:0:0:0:
224,192,138595,1,0,0:0:0:0:
224,192,138835,1,0,0:0:0:0:
224,192,139075,1,0,0:0:0:0:
224,192,139195,1,8,0:0:0:0:
224,192,139255,1,8,0:0:0:0:
224,192,139435,1,0,0:0:0:0:
224,192,139495,1,0,0:0:0:0:
224,192,139555,1,0,0:0:0:0:
224,192,139675,1,8,0:0:0:0:
224,192,139735,1,8,0:0:0:0:
224,192,139915,1,0,0:0:0:0:
224,192,139975,1,0,0:0:0:0:
224,192,140035,1,0,0:0:0:0:
256,192,140275,5,8,0:0:0:0:
224,192,140515,1,0,0:0:0:0:
224,192,140755,1,8,0:0:0:0:
256,192,140875,1,0,0:0:0:0:
256,192,140935,1,0,0:0:0:0:
256,192,140995,1,8,0:0:0:0:
256,192,141115,1,8,0:0:0:0:
256,192,141235,1,0,0:0:0:0:
224,192,141355,1,8,0:0:0:0:
224,192,141475,1,0,0:0:0:0:
224,192,141715,1,8,0:0:0:0:
224,192,141955,1,8,0:0:0:0:
224,192,142075,1,0,0:0:0:0:
224,192,142135,1,0,0:0:0:0:
224,192,142195,1,8,0:0:0:0:
224,192,142315,1,0,0:0:0:0:
224,192,142435,1,8,0:0:0:0:
224,192,142675,1,8,0:0:0:0:
224,192,142915,1,8,0:0:0:0:
224,192,143035,1,0,0:0:0:0:
224,192,143095,1,0,0:0:0:0:
224,192,143275,1,8,0:0:0:0:
224,192,143335,1,8,0:0:0:0:
224,192,143395,1,8,0:0:0:0:
224,192,143515,1,0,0:0:0:0:
224,192,143575,1,0,0:0:0:0:
224,192,143755,1,8,0:0:0:0:
224,192,143815,1,8,0:0:0:0:
224,192,143875,1,8,0:0:0:0:
256,192,144115,5,0,0:0:0:0:
224,192,144355,1,8,0:0:0:0:
224,192,144595,1,0,0:0:0:0:
256,192,144715,1,8,0:0:0:0:
256,192,144775,1,8,0:0:0:0:
256,192,144835,1,0,0:0:0:0:
256,192,144955,1,0,0:0:0:0:
256,192,145075,1,8,0:0:0:0:
224,192,145195,1,0,0:0:0:0:
224,192,145315,1,8,0:0:0:0:
224,192,145555,1,0,0:0:0:0:
224,192,145795,1,0,0:0:0:0:
224,192,145915,1,8,0:0:0:0:
224,192,145975,1,8,0:0:0:0:
224,192,146035,1,0,0:0:0:0:
224,192,146155,1,8,0:0:0:0:
224,192,146275,1,0,0:0:0:0:
224,192,146515,1,0,0:0:0:0:
224,192,146755,1,0,0:0:0:0:
224,192,146875,1,8,0:0:0:0:
224,192,146935,1,8,0:0:0:0:
224,192,147115,1,0,0:0:0:0:
224,192,147175,1,0,0:0:0:0:
224,192,147235,1,0,0:0:0:0:
224,192,147355,1,8,0:0:0:0:
224,192,147415,1,8,0:0:0:0:
224,192,147595,1,0,0:0:0:0:
224,192,147655,1,0,0:0:0:0:
224,192,147715,1,0,0:0:0:0:
256,192,147955,5,8,0:0:0:0:
224,192,148195,1,0,0:0:0:0:
224,192,148435,1,8,0:0:0:0:
256,192,148555,1,0,0:0:0:0:
256,192,148615,1,0,0:0:0:0:
256,192,148675,1,8,0:0:0:0:
256,192,148795,1,8,0:0:0:0:
256,192,148915,1,0,0:0:0:0:
224,192,149035,1,8,0:0:0:0:
224,192,149155,1,0,0:0:0:0:
224,192,149395,1,8,0:0:0:0:
224,192,149635,1,8,0:0:0:0:
224,192,149755,1,0,0:0:0:0:
224,192,149815,1,0,0:0:0:0:
224,192,149875,1,8,0:0:0:0:
224,192,149995,1,0,0:0:0:0:
224,192,150115,1,8,0:0:0:0:
224,192,150355,1,8,0:0:0:0:
224,192,150595,1,8,0:0:0:0:
224,192,150715,1,0,0:0:0:0:
224,192,150775,1,0,0:0:0:0:
224,192,150955,1,8,0:0:0:0:
224,192,151015,1,8,0:0:0:0:
224,192,151075,1,8,0:0:0:0:
224,192,151195,1,0,0:0:0:0:
224,192,151255,1,0,0:0:0:0:
224,192,151435,1,8,0:0:0:0:
224,192,151495,1,8,0:0:0:0:
224,192,151555,1,8,0:0:0:0:
256,192,151795,5,0,0:0:0:0:
224,192,152035,1,8,0:0:0:0:
224,192,152275,1,0,0:0:0:0:
256,192,152395,1,8,0:0:0:0:
256,192,152455,1,8,0:0:0:0:
256,192,152515,1,0,0:0:0:0:
256,192,152635,1,0,0:0:0:0:
256,192,152755,1,8,0:0:0:0:
224,192,152875,1,0,0:0:0:0:
224,192,152995,1,8,0:0:0:0:
224,192,153235,1,0,0:0:0:0:
224,192,153475,1,0,0:0:0:0:
224,192,153595,1,8,0:0:0:0:
224,192,153655,1,8,0:0:0:0:
224,192,153715,1,0,0:0:0:0:
224,192,153835,1,8,0:0:0:0:
224,192,153955,1,0,0:0:0:0:
224,192,154195,1,0,0:0:0:0:
224,192,154435,1,0,0:0:0:0:
224,192,154555,1,8,0:0:0:0:
224,192,154615,1,8,0:0:0:0:
224,192,154795,1,0,0:0:0:0:
224,192,154855,1,0,0:0:0:0:
224,192,154915,1,0,0:0:0:0:
224,192,155035,1,8,0:0:0:0:
224,192,155095,1,8,0:0:0:0:
224,192,155275,1,0,0:0:0:0:
224,192,155335,1,0,0:0:0:0:
224,192,155395,1,0,0:0:0:0:
256,192,155635,5,8,0:0:0:0:
224,192,155875,1,0,0:0:0:0:
224,192,156115,1,8,0:0:0:0:
256,192,156235,1,0,0:0:0:0:
256,192,156295,1,0,0:0:0:0:
256,192,156355,1,8,0:0:0:0:
256,192,156475,1,8,0:0:0:0:
256,192,156595,1,0,0:0:0:0:
224,192,156715,1,8,0:0:0:0:
224,192,156835,1,0,0:0:0:0:
224,192,157075,1,8,0:0:0:0:
224,192,157315,1,8,0:0:0:0:
224,192,157435,1,0,0:0:0:0:
224,192,157495,1,0,0:0:0:0:
224,192,157555,1,8,0:0:0:0:
224,192,157675,1,0,0:0:0:0:
224,192,157795,1,8,0:0:0:0:
224,192,158035,1,8,0:0:0:0:
224,192,158275,1,8,0:0:0:0:
224,192,158395,1,0,0:0:0:0:
224,192,158455,1,0,0:0:0:0:
224,192,158635,1,8,0:0:0:0:
224,192,158695,1,8,0:0:0:0:
224,192,158755,1,8,0:0:0:0:
224,192,158875,1,0,0:0:0:0:
224,192,158935,1,0,0:0:0:0:
224,192,159115,1,8,0:0:0:0:
224,192,159175,1,8,0:0:0:0:
224,192,159235,1,8,0:0:0:0:
256,192,159475,5,0,0:0:0:0:
224,192,159715,1,8,0:0:0:0:
224,192,159955,1,0,0:0:0:0:
256,192,160075,1,8,0:0:0:0:
256,192,160135,1,8,0:0:0:0:
256,192,160195,1,0,0:0:0:0:
256,192,160315,1,0,0:0:0:0:
256,192,160435,1,8,0:0:0:0:
224,192,160555,1,0,0:0:0:0:
224,192,160675,1,8,0:0:0:0:
224,192,160915,1,0,0:0:0:0:
224,192,161155,1,0,0:0:0:0:
224,192,161275,1,8,0:0:0:0:
224,192,161335,1,8,0:0:0:0:
224,192,161395,1,0,0:0:0:0:
224,192,161515,1,8,0:0:0:0:
224,192,161635,1,0,0:0:0:0:
224,192,161875,1,0,0:0:0:0:
224,192,162115,1,0,0:0:0:0:
224,192,162235,1,8,0:0:0:0:
224,192,162295,1,8,0:0:0:0:
224,192,162475,1,0,0:0:0:0:
224,192,162535,1,0,0:0:0:0:
224,192,162595,1,0,0:0:0:0:
224,192,162715,1,8,0:0:0:0:
224,192,162775,1,8,0:0:0:0:
224,192,162955,1,0,0:0:0:0:
224,192,163015,1,0,0:0:0:0:
224,192,163075,1,0,0:0:0:0:
256,192,163315,5,8,0:0:0:0:
224,192,163555,1,0,0:0:0:0:
224,192,163795,1,8,0:0:0:0:
256,192,163915,1,0,0:0:0:0:
256,192,163975,1,0,0:0:0:0:
256,192,164035,1,8,0:0:0:0:
256,192,164155,1,8,0:0:0:0:
256,192,164275,1,0,0:0:0:0:
224,192,164395,1,8,0:0:0:0:
224,192,164515,1,0,0:0:0:0:
224,192,164755,1,8,0:0:0:0:
224,192,164995,1,8,0:0:0:0:
224,192,165115,1,0,0:0:0:0:
224,192,165175,1,0,0:0:0:0:
224,192,165235,1,8,0:0:0:0:
224,192,165355,1,0,0:0:0:0:
224,192,165475,1,8,0:0:0:0:
224,192,165715,1,8,0:0:0:0:
224,192,165955,1,8,0:0:0:0:
224,192,166075,5,0,0:0:0:0:
224,192,166135,1,0,0:0:0:0:
224,192,166315,1,8,0:0:0:0:
224,192,166375,1,8,0:0:0:0:
224,192,166435,1,8,0:0:0:0:
224,192,166555,1,0,0:0:0:0:
224,192,166615,1,0,0:0:0:0:
224,192,166795,1,8,0:0:0:0:
224,192,166855,1,8,0:0:0:0:
224,192,166915,1,8,0:0:0:0:
256,192,167155,1,0,0:0:0:0:
256,192,167635,1,0,0:0:0:0:
256,192,168115,1,0,0:0:0:0:
256,192,168595,1,0,0:0:0:0:
256,192,169075,1,8,0:0:0:0:
256,192,169795,1,8,0:0:0:0:
256,160,170035,1,0,0:0:0:0:
256,160,170275,1,8,0:0:0:0:
256,160,170515,1,0,0:0:0:0:
256,192,170995,1,8,0:0:0:0:
256,192,171475,1,8,0:0:0:0:
256,192,171955,1,8,0:0:0:0:
256,192,172435,1,8,0:0:0:0:
256,192,172915,1,0,0:0:0:0:
256,192,173635,1,0,0:0:0:0:
256,192,173875,1,8,0:0:0:0:
256,192,174115,1,0,0:0:0:0:
256,192,174355,1,8,0:0:0:0:
256,192,174835,1,0,0:0:0:0:
256,192,175315,1,0,0:0:0:0:
256,192,175795,1,0,0:0:0:0:
256,192,176275,1,0,0:0:0:0:
256,192,176755,1,8,0:0:0:0:
224,192,177475,1,8,0:0:0:0:
224,192,177715,1,0,0:0:0:0:
224,192,177955,1,8,0:0:0:0:
224,192,178195,1,0,0:0:0:0:
256,192,178675,1,8,0:0:0:0:
256,192,179155,1,8,0:0:0:0:
256,192,179635,1,8,0:0:0:0:
256,192,180115,1,8,0:0:0:0:
256,192,180595,1,0,0:0:0:0:
256,192,181315,1,0,0:0:0:0:
256,192,181555,1,8,0:0:0:0:
256,192,181795,1,0,0:0:0:0:
256,192,182035,5,12,0:0:0:0:
