osu file format v14

[General]
AudioFilename: audio.mp3
AudioLeadIn: 0
PreviewTime: 136460
Countdown: 0
SampleSet: Soft
StackLeniency: 0.7
Mode: 0
LetterboxInBreaks: 0
WidescreenStoryboard: 1

[Editor]
Bookmarks: 33980
DistanceSpacing: 1.3
BeatDivisor: 4
GridSize: 32
TimelineZoom: 1

[Metadata]
Title:Crab Rave
TitleUnicode:Crab Rave
Artist:Noisestorm
ArtistUnicode:Noisestorm
Creator:GreenHue
Version:Canderos' Hard
Source:
Tags:Monstercat Cami Is Gone Obama Canderos quanhitter38 Sotarks
BeatmapID:1893917
BeatmapSetID:891596

[Difficulty]
HPDrainRate:4
CircleSize:4
OverallDifficulty:5
ApproachRate:6
SliderMultiplier:1.4
SliderTickRate:1

[Events]
//Background and Video events
0,0,"CRAB RAVE BG.png",0,0
//Break Periods
2,105940,120050
//Storyboard Layer 0 (Background)
//Storyboard Layer 1 (Fail)
//Storyboard Layer 2 (Pass)
//Storyboard Layer 3 (Foreground)
//Storyboard Sound Samples

[TimingPoints]
140,480,4,2,2,32,1,0
44300,-125,4,2,2,42,0,0
59660,-100,4,2,22,62,0,0
67340,-90.9090909090909,4,2,22,72,0,0
75020,-90.9090909090909,4,2,22,82,0,1
105740,-100,4,2,22,82,0,0
121100,-100,4,2,22,62,0,0
128780,-90.9090909090909,4,2,22,72,0,0
136460,-90.9090909090909,4,2,22,62,0,0
137900,-90.9090909090909,4,2,22,62,0,0
138380,-90.9090909090909,4,2,22,82,0,1
165980,-90.9090909090909,4,2,22,62,0,1
167180,-100,4,2,22,62,0,0

[Colours]
Combo1 : 255,192,0
Combo2 : 170,255,255
Combo3 : 189,188,176
Combo4 : 94,244,135

[HitObjects]
193,302,44300,6,0,L|66:288,2,112,2|2|2,1:2|3:2|3:2,0:0:0:0:
236,337,45500,2,0,P|241:311|273:279,1,56,2|2,3:2|2:2,0:0:0:0:
359,238,46220,1,2,3:2:0:0:
332,346,46700,1,2,3:2:0:0:
253,265,47180,2,0,L|266:210,2,56,2|2|2,3:2|3:2|0:2,0:0:0:0:
148,306,48140,6,0,L|133:178,1,112,2|2,3:2|3:2,0:0:0:0:
78,97,49100,2,0,P|63:145|48:160,1,56,2|2,3:2|3:2,0:0:0:0:
5,159,49580,1,2,0:2:0:0:
6,47,50060,2,0,P|47:18|114:23,1,112,2|2,3:2|3:2,0:0:0:0:
196,87,51020,2,0,P|229:101|266:96,1,56,2|2,3:2|3:2,0:0:0:0:
302,83,51500,1,2,0:2:0:0:
345,186,51980,6,0,L|470:175,2,112,2|2|2,3:2|3:2|3:2,0:0:0:0:
291,171,53180,2,0,P|279:215|288:250,1,56,2|2,3:2|0:2,0:0:0:0:
286,336,53900,1,2,3:2:0:0:
195,269,54380,1,2,3:2:0:0:
170,378,54860,2,0,L|106:360,2,56,2|2|2,3:2|3:2|0:2,0:0:0:0:
107,284,55820,6,0,L|-7:316,1,112,2|2,3:2|3:2,0:0:0:0:
45,212,56780,2,0,L|115:189,1,56,2|2,3:2|3:2,0:0:0:0:
151,176,57260,1,2,0:2:0:0:
230,96,57740,2,0,P|268:137|264:201,1,112,2|2,3:2|3:2,0:0:0:0:
206,283,58700,2,0,P|192:324|198:353,1,56,2|2,3:2|3:2,0:0:0:0:
229,378,59180,1,2,0:2:0:0:
354,316,59660,6,0,P|392:287|460:294,1,105,2|0,3:2|0:2,0:0:0:0:
476,268,60140,2,0,L|495:187,1,70,2|0,3:2|0:2,0:0:0:0:
469,172,60500,1,2,0:2:0:0:
469,172,60740,1,2,0:2:0:0:
378,118,61100,1,2,3:2:0:0:
253,182,61580,6,0,P|235:109|255:62,1,105,2|0,3:2|0:2,0:0:0:0:
264,54,62060,2,0,L|186:42,1,70,2|0,3:2|0:2,0:0:0:0:
170,18,62420,1,2,0:2:0:0:
103,99,62780,2,0,L|24:87,2,70,2|2|2,0:2|3:2|0:2,0:0:0:0:
103,99,63500,6,0,P|111:145|67:221,1,105,2|0,3:2|0:2,0:0:0:0:
65,222,63980,2,0,P|45:267|54:309,1,70,2|0,3:2|0:2,0:0:0:0:
63,317,64340,1,2,0:2:0:0:
63,317,64580,1,2,0:2:0:0:
155,268,64940,1,2,3:2:0:0:
255,365,65420,6,0,P|312:369|360:338,1,105,2|0,3:2|0:2,0:0:0:0:
377,321,65900,2,0,P|412:303|449:307,1,70,2|0,3:2|0:2,0:0:0:0:
471,323,66260,1,2,0:2:0:0:
468,218,66620,2,0,L|483:134,2,70,2|2|2,0:2|3:2|0:2,0:0:0:0:
468,218,67340,6,0,B|374:202,1,77.0000023498536,10|0,0:2|0:2,0:0:0:0:
333,254,67820,2,0,B|239:238,1,77.0000023498536,10|0,0:2|0:2,0:0:0:0:
194,286,68300,2,0,P|164:248|165:194,1,77.0000023498536,8|0,0:2|0:0,0:0:0:0:
215,166,68780,2,0,P|245:128|244:74,1,77.0000023498536,10|0,0:2|0:2,0:0:0:0:
221,28,69260,6,0,L|136:12,1,77.0000023498536,10|0,0:2|0:2,0:0:0:0:
108,81,69740,2,0,L|23:97,1,77.0000023498536,10|0,0:2|0:2,0:0:0:0:
16,171,70220,2,0,P|28:216|66:235,1,77.0000023498536,8|2,0:2|0:2,0:0:0:0:
111,280,70700,2,0,P|115:334|99:366,1,77.0000023498536,10|2,0:2|1:2,0:0:0:0:
256,192,71180,12,10,73100,1:2:0:0:
126,14,75020,6,0,L|115:97,1,77.0000023498536,6|2,1:2|3:2,0:0:0:0:
166,148,75500,2,0,P|207:133|250:133,1,77.0000023498536,10|2,0:2|3:2,0:0:0:0:
257,97,75860,2,0,P|295:134|361:136,1,115.50000352478,2|2,0:2|3:2,0:0:0:0:
417,93,76460,1,10,0:2:0:0:
475,153,76700,1,2,3:2:0:0:
475,153,76820,6,0,L|454:291,1,115.50000352478,2|2,0:2|3:2,0:0:0:0:
478,341,77420,1,10,0:2:0:0:
403,361,77660,1,2,3:2:0:0:
403,361,77780,2,0,P|349:345|327:314,1,77.0000023498536,2|2,0:2|0:2,0:0:0:0:
309,258,78260,1,2,0:2:0:0:
256,314,78500,1,2,0:2:0:0:
256,314,78620,1,2,3:2:0:0:
235,237,78860,6,0,L|154:225,1,77.0000023498536,2|2,1:2|3:2,0:0:0:0:
104,279,79340,2,0,P|81:248|79:201,1,77.0000023498536,10|2,0:2|3:2,0:0:0:0:
43,191,79700,2,0,P|61:140|43:63,1,115.50000352478,2|2,0:2|3:2,0:0:0:0:
95,16,80300,1,10,0:2:0:0:
162,62,80540,1,2,3:2:0:0:
162,62,80660,6,0,L|288:75,1,115.50000352478,2|2,0:2|3:2,0:0:0:0:
331,19,81260,1,10,0:2:0:0:
403,60,81500,1,2,3:2:0:0:
403,60,81620,2,0,P|431:42|496:42,2,77.0000023498536,2|2|2,0:2|0:2|0:2,0:0:0:0:
373,133,82340,1,2,0:2:0:0:
373,133,82460,1,2,3:2:0:0:
432,182,82700,6,0,L|436:265,1,77.0000023498536,2|2,1:2|3:2,0:0:0:0:
410,331,83180,2,0,P|356:314|326:320,1,77.0000023498536,10|2,0:2|3:2,0:0:0:0:
314,284,83540,2,0,P|271:323|202:330,1,115.50000352478,2|2,0:2|3:2,0:0:0:0:
141,312,84140,1,10,0:2:0:0:
113,239,84380,1,2,3:2:0:0:
113,239,84500,6,0,L|140:122,1,115.50000352478,2|2,0:2|3:2,0:0:0:0:
98,61,85100,1,10,0:2:0:0:
161,16,85340,1,2,3:2:0:0:
161,16,85460,2,0,P|196:37|239:35,1,77.0000023498536,2|2,0:2|0:2,0:0:0:0:
300,4,85940,1,2,0:2:0:0:
349,67,86180,1,2,0:2:0:0:
349,67,86300,1,2,3:2:0:0:
333,143,86540,6,0,L|432:142,1,77.0000023498536,2|2,1:2|3:2,0:0:0:0:
465,195,87020,2,0,P|446:240|450:283,1,77.0000023498536,10|2,0:2|3:2,0:0:0:0:
469,298,87380,2,0,P|443:367|375:381,1,115.50000352478,2|2,0:2|3:2,0:0:0:0:
358,323,87980,1,10,0:2:0:0:
290,360,88220,1,2,3:2:0:0:
290,360,88340,6,0,L|177:326,1,115.50000352478,2|2,0:2|3:2,0:0:0:0:
104,346,88940,1,10,0:2:0:0:
124,271,89180,1,2,3:2:0:0:
124,271,89300,2,0,P|128:237|117:189,2,77.0000023498536,2|2|2,0:2|0:2|0:2,0:0:0:0:
48,290,90020,1,2,0:2:0:0:
48,290,90140,1,2,3:2:0:0:
104,346,90380,6,0,P|145:348|182:320,1,77.0000023498536,2|2,1:2|3:2,0:0:0:0:
218,266,90860,2,0,L|300:295,1,77.0000023498536,10|2,0:2|3:2,0:0:0:0:
319,267,91220,2,0,P|340:326|405:357,1,115.50000352478,2|2,0:2|3:2,0:0:0:0:
459,358,91820,1,10,0:2:0:0:
482,284,92060,1,2,3:2:0:0:
482,284,92180,6,0,L|475:165,1,115.50000352478,2|2,0:2|3:2,0:0:0:0:
466,91,92780,1,10,0:2:0:0:
396,124,93020,1,2,3:2:0:0:
396,124,93140,2,0,P|356:89|316:85,1,77.0000023498536,2|2,0:2|0:2,0:0:0:0:
267,123,93620,1,2,0:2:0:0:
232,54,93860,1,2,0:2:0:0:
232,54,93980,1,2,3:2:0:0:
171,101,94220,6,0,P|121:103|82:81,1,77.0000023498536,2|2,1:2|3:2,0:0:0:0:
43,148,94700,2,0,L|54:253,1,77.0000023498536,10|2,0:2|3:2,0:0:0:0:
78,252,95060,2,0,P|38:302|47:383,1,115.50000352478,2|2,0:2|3:2,0:0:0:0:
106,379,95660,1,10,0:2:0:0:
173,341,95900,1,2,3:2:0:0:
173,341,96020,6,0,L|295:358,1,115.50000352478,2|2,0:2|3:2,0:0:0:0:
362,374,96620,1,10,0:2:0:0:
412,315,96860,1,2,3:2:0:0:
412,315,96980,2,0,L|491:302,2,77.0000023498536,2|2|2,0:2|0:2|0:2,0:0:0:0:
362,252,97700,1,2,0:2:0:0:
362,252,97820,1,2,3:2:0:0:
403,187,98060,6,0,P|413:150|398:93,1,77.0000023498536,2|2,1:2|3:2,0:0:0:0:
343,68,98540,2,0,L|247:90,1,77.0000023498536,10|2,0:2|3:2,0:0:0:0:
237,108,98900,2,0,P|189:68|114:73,1,115.50000352478,2|2,0:2|3:2,0:0:0:0:
66,92,99500,1,10,0:2:0:0:
17,151,99740,1,2,3:2:0:0:
17,151,99860,6,0,L|37:280,1,115.50000352478,2|2,0:2|3:2,0:0:0:0:
7,337,100460,1,10,0:2:0:0:
83,364,100700,1,2,3:2:0:0:
83,364,100820,2,0,P|116:342|163:339,1,77.0000023498536,2|2,0:2|0:2,0:0:0:0:
223,367,101300,1,2,0:2:0:0:
219,290,101540,1,2,0:2:0:0:
219,290,101660,1,2,3:2:0:0:
288,324,101900,6,0,P|312:308|377:308,1,77.0000023498536,2|2,1:2|3:2,0:0:0:0:
432,326,102380,2,0,L|455:230,1,77.0000023498536,10|2,0:2|3:2,0:0:0:0:
488,256,102740,2,0,B|452:208|452:208|474:124,1,115.50000352478,2|2,0:2|3:2,0:0:0:0:
502,86,103340,1,10,0:2:0:0:
440,39,103580,1,2,3:2:0:0:
440,39,103700,6,0,L|299:60,1,115.50000352478,2|2,0:2|3:2,0:0:0:0:
252,30,104300,1,10,0:2:0:0:
206,92,104540,1,2,3:2:0:0:
206,92,104660,2,0,L|217:170,2,77.0000023498536,2|2|2,0:2|0:2|0:2,0:0:0:0:
146,42,105380,1,2,0:2:0:0:
146,42,105500,2,0,P|105:30|57:50,1,77.0000023498536,2|6,3:2|1:2,0:0:0:0:
334,20,121100,6,0,L|321:130,1,105,2|0,3:2|0:2,0:0:0:0:
344,151,121580,2,0,P|391:129|437:133,1,70,2|0,3:2|0:2,0:0:0:0:
440,141,121940,1,2,0:2:0:0:
440,141,122180,1,2,0:2:0:0:
488,233,122540,1,2,3:2:0:0:
424,357,123020,6,0,P|370:327|319:336,1,105,2|0,3:2|0:2,0:0:0:0:
298,349,123500,2,0,P|264:363|211:354,1,70,2|0,3:2|0:2,0:0:0:0:
201,342,123860,1,2,0:2:0:0:
192,237,124220,2,0,L|95:220,2,70,2|2|2,0:2|3:2|0:2,0:0:0:0:
192,237,124940,6,0,P|223:194|216:142,1,105,2|0,3:2|0:2,0:0:0:0:
193,118,125420,2,0,L|204:36,1,70,2|0,3:2|0:2,0:0:0:0:
177,23,125780,1,2,0:2:0:0:
177,23,126020,1,2,0:2:0:0:
279,1,126380,1,2,3:2:0:0:
389,86,126860,6,0,P|367:137|381:203,1,105,2|0,3:2|0:2,0:0:0:0:
353,214,127340,2,0,P|380:265|376:309,1,70,2|0,3:2|0:2,0:0:0:0:
366,308,127700,1,2,0:2:0:0:
273,355,128060,2,0,L|260:272,2,70,2|2|2,0:2|3:2|0:2,0:0:0:0:
273,355,128780,6,0,L|188:342,1,77.0000023498536,10|0,0:2|0:2,0:0:0:0:
144,286,129260,2,0,L|59:299,1,77.0000023498536,10|0,0:2|0:2,0:0:0:0:
7,250,129740,2,0,P|-3:216|17:162,1,77.0000023498536,8|0,0:2|0:0,0:0:0:0:
77,146,130220,2,0,P|108:118|111:71,1,77.0000023498536,10|0,0:2|0:2,0:0:0:0:
156,20,130700,6,0,L|237:4,1,77.0000023498536,10|0,0:2|0:2,0:0:0:0:
275,68,131180,2,0,L|356:84,1,77.0000023498536,10|0,0:2|0:2,0:0:0:0:
426,67,131660,2,0,P|451:108|433:165,1,77.0000023498536,8|2,0:2|0:2,0:0:0:0:
388,182,132140,2,0,P|352:217|356:273,1,77.0000023498536,10|2,0:2|1:2,0:0:0:0:
256,192,132620,12,10,134540,1:2:0:0:
215,69,136460,5,2,0:0:0:0:
288,109,136700,1,2,0:0:0:0:
217,153,136940,1,2,0:0:0:0:
294,196,137180,1,2,0:0:0:0:
294,196,137300,1,2,0:0:0:0:
221,240,137540,1,2,0:0:0:0:
221,240,137660,1,2,0:0:0:0:
294,280,137900,1,10,0:2:0:0:
223,324,138140,1,0,3:0:0:0:
223,324,138260,6,0,P|166:299|97:321,1,115.50000352478,2|2,0:0|3:2,0:0:0:0:
50,350,138860,1,8,0:0:0:0:
13,282,139100,1,2,3:2:0:0:
13,282,139220,2,0,L|34:197,1,77.0000023498536,2|2,0:0|0:0,0:0:0:0:
5,134,139700,1,2,0:0:0:0:
66,88,139940,1,0,0:0:0:0:
66,88,140060,1,2,3:2:0:0:
132,126,140300,6,0,L|216:108,1,77.0000023498536,2|2,1:2|3:2,0:0:0:0:
262,55,140780,2,0,P|297:81|359:75,1,77.0000023498536,10|2,0:2|3:2,0:0:0:0:
344,120,141140,2,0,P|392:99|469:115,1,115.50000352478,2|2,0:2|3:2,0:0:0:0:
486,176,141740,1,10,0:2:0:0:
480,254,141980,1,2,3:2:0:0:
480,254,142100,6,0,L|343:266,1,115.50000352478,2|2,0:2|3:2,0:0:0:0:
304,310,142700,1,10,0:2:0:0:
241,259,142940,1,2,3:2:0:0:
241,259,143060,2,0,P|189:257|149:278,2,77.0000023498536,2|2|2,0:2|0:2|0:2,0:0:0:0:
273,189,143780,1,2,0:2:0:0:
273,189,143900,1,2,3:2:0:0:
200,150,144140,6,0,L|188:70,1,77.0000023498536,2|2,1:2|3:2,0:0:0:0:
120,37,144620,2,0,P|69:56|21:41,1,77.0000023498536,10|2,0:2|3:2,0:0:0:0:
19,27,144980,2,0,L|36:154,1,115.50000352478,2|2,0:2|3:2,0:0:0:0:
11,215,145580,1,10,0:2:0:0:
73,267,145820,1,2,3:2:0:0:
73,267,145940,6,0,P|77:332|116:377,1,115.50000352478,2|2,0:2|3:2,0:0:0:0:
183,382,146540,1,10,0:2:0:0:
241,331,146780,1,2,3:2:0:0:
241,331,146900,2,0,L|327:342,1,77.0000023498536,2|2,0:2|0:2,0:0:0:0:
378,293,147380,1,2,0:2:0:0:
435,353,147620,1,2,0:2:0:0:
435,353,147740,1,2,3:2:0:0:
499,311,147980,6,0,L|489:226,1,77.0000023498536,2|2,1:2|3:2,0:0:0:0:
419,201,148460,2,0,P|438:154|423:94,1,77.0000023498536,10|2,0:2|3:2,0:0:0:0:
475,124,148820,2,0,P|438:67|453:2,1,115.50000352478,2|2,0:2|3:2,0:0:0:0:
366,7,149420,1,10,0:2:0:0:
321,70,149660,1,2,3:2:0:0:
321,70,149780,6,0,L|188:57,1,115.50000352478,2|2,0:2|3:2,0:0:0:0:
144,12,150380,1,10,0:2:0:0:
84,60,150620,1,2,3:2:0:0:
84,60,150740,2,0,P|45:45|-4:49,2,77.0000023498536,2|2|2,0:2|0:2|0:2,0:0:0:0:
111,137,151460,1,2,0:2:0:0:
111,137,151580,1,2,3:2:0:0:
61,195,151820,6,0,P|49:232|62:292,1,77.0000023498536,2|2,1:2|3:2,0:0:0:0:
110,320,152300,2,0,L|213:292,1,77.0000023498536,10|2,0:2|3:2,0:0:0:0:
204,332,152660,2,0,P|232:282|301:266,1,115.50000352478,2|2,0:2|3:2,0:0:0:0:
361,271,153260,1,10,0:2:0:0:
436,303,153500,1,2,3:2:0:0:
436,303,153620,6,0,B|465:181,1,115.50000352478,2|2,0:2|3:2,0:0:0:0:
505,126,154220,1,10,0:2:0:0:
467,58,154460,1,2,3:2:0:0:
467,58,154580,2,0,P|427:29|374:40,1,77.0000023498536,2|2,0:2|0:2,0:0:0:0:
332,64,155060,1,2,0:2:0:0:
278,11,155300,1,2,0:2:0:0:
278,11,155420,1,2,3:2:0:0:
227,69,155660,6,0,P|221:117|245:162,1,77.0000023498536,2|2,1:2|3:2,0:0:0:0:
280,202,156140,2,0,L|264:290,1,77.0000023498536,10|2,0:2|3:2,0:0:0:0:
273,315,156500,2,0,P|198:287|145:315,1,115.50000352478,2|2,0:2|3:2,0:0:0:0:
102,338,157100,1,10,0:2:0:0:
47,283,157340,1,2,3:2:0:0:
47,283,157460,6,0,L|41:162,1,115.50000352478,2|2,0:2|3:2,0:0:0:0:
38,90,158060,1,10,0:2:0:0:
119,91,158300,1,2,3:2:0:0:
119,91,158420,2,0,L|123:194,2,77.0000023498536,2|2|2,0:2|0:2|0:2,0:0:0:0:
199,82,159140,1,2,0:2:0:0:
199,82,159260,1,2,3:2:0:0:
273,77,159500,6,0,P|293:45|352:25,1,77.0000023498536,2|2,1:2|3:2,0:0:0:0:
398,55,159980,2,0,L|386:156,1,77.0000023498536,10|2,0:2|3:2,0:0:0:0:
354,149,160340,2,0,P|388:196|385:271,1,115.50000352478,2|2,0:2|3:2,0:0:0:0:
353,319,160940,1,10,0:2:0:0:
277,302,161180,1,2,3:2:0:0:
277,302,161300,6,0,L|148:329,1,115.50000352478,2|2,0:2|3:2,0:0:0:0:
94,360,161900,1,10,0:2:0:0:
48,297,162140,1,2,3:2:0:0:
48,297,162260,2,0,L|67:217,1,77.0000023498536,2|2,0:2|0:2,0:0:0:0:
113,161,162740,1,2,0:2:0:0:
70,96,162980,1,2,0:2:0:0:
70,96,163100,1,2,3:2:0:0:
113,32,163340,6,0,P|148:16|196:21,1,77.0000023498536,2|2,1:2|3:2,0:0:0:0:
242,69,163820,2,0,L|330:61,1,77.0000023498536,10|2,0:2|3:2,0:0:0:0:
347,36,164180,2,0,B|390:75|390:75|462:61,1,115.50000352478,2|2,0:2|3:2,0:0:0:0:
501,118,164780,1,10,0:2:0:0:
461,184,165020,1,2,3:2:0:0:
461,184,165140,6,0,P|493:255|477:314,1,115.50000352478,2|2,0:2|3:2,0:0:0:0:
435,346,165740,1,10,0:2:0:0:
364,314,165980,1,2,3:2:0:0:
364,314,166100,2,0,L|374:234,2,77.0000023498536,2|2|2,0:2|0:2|0:2,0:0:0:0:
295,350,166820,1,2,0:2:0:0:
295,350,166940,2,0,P|249:342|216:318,1,77.0000023498536,2|6,3:2|1:2,0:0:0:0:
