osu file format v14

[General]
AudioFilename: audio.mp3
AudioLeadIn: 0
PreviewTime: 143587
Countdown: 0
SampleSet: None
StackLeniency: 0.7
Mode: 3
LetterboxInBreaks: 0
SpecialStyle: 0
WidescreenStoryboard: 0

[Editor]
Bookmarks: 8921,12476,16032,26698,30254,40921,44476,45365,45587,45809,46254,46476,46698,48921,49143,49365,55143,58698,60032,60254,61809,62032,63587,63809,65365,65587,67143,67365,68921,69143,70698,70921,71143,71587,71809,72032,72476,72698,72921,83587,87143,97809,101365,112032,115587,126254,128032,129809,131143,131365,132921,133143,134698,134921,136476,136698,138254,138476,140032,140254,142254,142698,142921,143143,143587,143809,144032,154698,158254,168921,172476
DistanceSpacing: 1.2
BeatDivisor: 4
GridSize: 32
TimelineZoom: 1

[Metadata]
Title:Breakout (feat. Foreign Beggars)
TitleUnicode:Breakout (feat. Foreign Beggars)
Artist:Noisestorm
ArtistUnicode:Noisestorm
Creator:Leniane
Version:The Great Escape
Source:
Tags:trap SV slowjam
BeatmapID:1807423
BeatmapSetID:864158

[Difficulty]
HPDrainRate:8
CircleSize:4
OverallDifficulty:8
ApproachRate:5
SliderMultiplier:1.4
SliderTickRate:1

[Events]
//Background and Video events
0,0,"background.jpg",0,0
//Break Periods
//Storyboard Layer 0 (Background)
//Storyboard Layer 1 (Fail)
//Storyboard Layer 2 (Pass)
//Storyboard Layer 3 (Foreground)
//Storyboard Sound Samples

[TimingPoints]
1810,444.444444444444,4,1,0,50,1,0
1810,-303.030303030303,4,1,0,50,0,0
3587,-277.777777777778,4,1,0,50,0,0
5365,-250,4,1,0,50,0,0
7143,-222.222222222222,4,1,0,50,0,0
8921,-200,4,1,0,50,0,0
10698,-181.818181818182,4,1,0,50,0,0
12476,-166.666666666667,4,1,0,50,0,0
15587,-1000,4,1,0,50,0,0
15782,-23.8095238095238,4,1,0,50,0,0
15809,-1000,4,1,0,50,0,0
16004,-23.8095238095238,4,1,0,50,0,0
16032,-100,4,1,0,50,0,0
17476,-50,4,1,0,50,0,0
17491,-192.307692307692,4,1,0,50,0,0
17532,-50,4,1,0,50,0,0
17547,-192.307692307692,4,1,0,50,0,0
17587,-50,4,1,0,50,0,0
17602,-192.307692307692,4,1,0,50,0,0
17643,-50,4,1,0,50,0,0
17658,-192.307692307692,4,1,0,50,0,0
17698,-50,4,1,0,50,0,0
17713,-192.307692307692,4,1,0,50,0,0
17754,-50,4,1,0,50,0,0
17769,-192.307692307692,4,1,0,50,0,0
17809,-100,4,1,0,50,0,0
19143,-50,4,1,0,50,0,0
19158,-192.307692307692,4,1,0,50,0,0
19198,-50,4,1,0,50,0,0
19213,-192.307692307692,4,1,0,50,0,0
19254,-50,4,1,0,50,0,0
19269,-192.307692307692,4,1,0,50,0,0
19310,-50,4,1,0,50,0,0
19325,-192.307692307692,4,1,0,50,0,0
19365,-50,4,1,0,50,0,0
19380,-192.307692307692,4,1,0,50,0,0
19421,-50,4,1,0,50,0,0
19436,-192.307692307692,4,1,0,50,0,0
19476,-50,4,1,0,50,0,0
19491,-192.307692307692,4,1,0,50,0,0
19532,-50,4,1,0,50,0,0
19547,-192.307692307692,4,1,0,50,0,0
19587,-100,4,1,0,50,0,0
21032,-50,4,1,0,50,0,0
21047,-192.307692307692,4,1,0,50,0,0
21088,-50,4,1,0,50,0,0
21103,-192.307692307692,4,1,0,50,0,0
21143,-50,4,1,0,50,0,0
21158,-192.307692307692,4,1,0,50,0,0
21199,-50,4,1,0,50,0,0
21214,-192.307692307692,4,1,0,50,0,0
21254,-50,4,1,0,50,0,0
21269,-192.307692307692,4,1,0,50,0,0
21310,-50,4,1,0,50,0,0
21325,-192.307692307692,4,1,0,50,0,0
21365,-100,4,1,0,50,0,0
22699,-50,4,1,0,50,0,0
22714,-192.307692307692,4,1,0,50,0,0
22754,-50,4,1,0,50,0,0
22769,-192.307692307692,4,1,0,50,0,0
22810,-50,4,1,0,50,0,0
22825,-192.307692307692,4,1,0,50,0,0
22866,-50,4,1,0,50,0,0
22881,-192.307692307692,4,1,0,50,0,0
22921,-50,4,1,0,50,0,0
22936,-192.307692307692,4,1,0,50,0,0
22977,-50,4,1,0,50,0,0
22992,-192.307692307692,4,1,0,50,0,0
23032,-50,4,1,0,50,0,0
23047,-192.307692307692,4,1,0,50,0,0
23088,-50,4,1,0,50,0,0
23103,-192.307692307692,4,1,0,50,0,0
23143,-100,4,1,0,50,0,0
24587,-50,4,1,0,50,0,0
24602,-192.307692307692,4,1,0,50,0,0
24643,-50,4,1,0,50,0,0
24658,-192.307692307692,4,1,0,50,0,0
24698,-50,4,1,0,50,0,0
24713,-192.307692307692,4,1,0,50,0,0
24754,-50,4,1,0,50,0,0
24769,-192.307692307692,4,1,0,50,0,0
24809,-50,4,1,0,50,0,0
24824,-192.307692307692,4,1,0,50,0,0
24865,-50,4,1,0,50,0,0
24880,-192.307692307692,4,1,0,50,0,0
24920,-100,4,1,0,50,0,0
26254,-50,4,1,0,50,0,0
26269,-192.307692307692,4,1,0,50,0,0
26309,-50,4,1,0,50,0,0
26324,-192.307692307692,4,1,0,50,0,0
26365,-50,4,1,0,50,0,0
26380,-192.307692307692,4,1,0,50,0,0
26421,-50,4,1,0,50,0,0
26436,-192.307692307692,4,1,0,50,0,0
26476,-50,4,1,0,50,0,0
26491,-192.307692307692,4,1,0,50,0,0
26532,-50,4,1,0,50,0,0
26547,-192.307692307692,4,1,0,50,0,0
26587,-50,4,1,0,50,0,0
26602,-192.307692307692,4,1,0,50,0,0
26643,-50,4,1,0,50,0,0
26658,-192.307692307692,4,1,0,50,0,0
26698,-100,4,1,0,50,0,0
27365,-111.111111111111,4,1,0,50,0,0
27587,-125,4,1,0,50,0,0
28032,-142.857142857143,4,1,0,50,0,0
28254,-166.666666666667,4,1,0,50,0,0
28698,-200,4,1,0,50,0,0
28921,-250,4,1,0,50,0,0
29365,-333.333333333333,4,1,0,50,0,0
29809,-500,4,1,0,50,0,0
30198,-19.2307692307692,4,1,0,50,0,0
30240,-1000,4,1,0,50,0,0
30254,-100,4,1,0,50,0,0
31087,-35.7142857142857,4,1,0,50,0,0
31129,-1000,4,1,0,50,0,0
31143,-100,4,1,0,50,0,0
32032,-74.0740740740741,4,1,0,50,0,0
32198,-250,4,1,0,50,0,0
32254,-100,4,1,0,50,0,0
32865,-35.7142857142857,4,1,0,50,0,0
32907,-1000,4,1,0,50,0,0
32921,-100,4,1,0,50,0,0
34476,-250,4,1,0,50,0,0
34643,-35.7142857142857,4,1,0,50,0,0
34685,-1000,4,1,0,50,0,0
34699,-100,4,1,0,50,0,0
36421,-35.7142857142857,4,1,0,50,0,0
36463,-1000,4,1,0,50,0,0
36477,-100,4,1,0,50,0,0
38198,-35.7142857142857,4,1,0,50,0,0
38240,-1000,4,1,0,50,0,0
38254,-100,4,1,0,50,0,0
39115,-47.6190476190476,4,1,0,50,0,0
39143,-166.666666666667,4,1,0,50,0,0
39254,-100,4,1,0,50,0,0
39976,-35.7142857142857,4,1,0,50,0,0
40018,-1000,4,1,0,50,0,0
40032,-100,4,1,0,50,0,0
40921,-60.6060606060606,4,1,0,50,0,0
41069,-90.9090909090909,4,1,0,50,0,0
41217,-153.846153846154,4,1,0,50,0,0
41365,-100,4,1,0,50,0,0
41588,-111.111111111111,4,1,0,50,0,0
41810,-125,4,1,0,50,0,0
42255,-142.857142857143,4,1,0,50,0,0
42477,-166.666666666667,4,1,0,50,0,0
42921,-200,4,1,0,50,0,0
43144,-250,4,1,0,50,0,0
43588,-333.333333333333,4,1,0,50,0,0
44032,-500,4,1,0,50,0,0
44421,-19.2307692307692,4,1,0,50,0,0
44463,-1000,4,1,0,50,0,0
44477,-100,4,1,0,50,0,0
45309,-35.7142857142857,4,1,0,50,0,0
45351,-1000,4,1,0,50,0,0
45365,-100,4,1,0,50,0,0
45532,-35.7142857142857,4,1,0,50,0,0
45574,-1000,4,1,0,50,0,0
45588,-100,4,1,0,50,0,0
45754,-35.7142857142857,4,1,0,50,0,0
45796,-1000,4,1,0,50,0,0
45810,-303.030303030303,4,1,0,50,0,0
46198,-35.7142857142857,4,1,0,50,0,0
46240,-1000,4,1,0,50,0,0
46254,-100,4,1,0,50,0,0
46421,-35.7142857142857,4,1,0,50,0,0
46463,-1000,4,1,0,50,0,0
46477,-100,4,1,0,50,0,0
46643,-35.7142857142857,4,1,0,50,0,0
46685,-1000,4,1,0,50,0,0
46699,-100,4,1,0,50,0,0
47087,-35.7142857142857,4,1,0,50,0,0
47129,-1000,4,1,0,50,0,0
47143,-100,4,1,0,50,0,0
47532,-47.6190476190476,4,1,0,50,0,0
47574,-1000,4,1,0,50,0,0
47588,-303.030303030303,4,1,0,50,0,0
47754,-47.6190476190476,4,1,0,50,0,0
47796,-1000,4,1,0,50,0,0
47810,-100,4,1,0,50,0,0
48865,-35.7142857142857,4,1,0,50,0,0
48907,-1000,4,1,0,50,0,0
48921,-100,4,1,0,50,0,0
49087,-35.7142857142857,4,1,0,50,0,0
49129,-1000,4,1,0,50,0,0
49143,-100,4,1,0,50,0,0
49309,-35.7142857142857,4,1,0,50,0,0
49351,-1000,4,1,0,50,0,0
49365,-100,4,1,0,50,0,0
49976,-35.7142857142857,4,1,0,50,0,0
50018,-1000,4,1,0,50,0,0
50032,-100,4,1,0,50,0,0
50643,-35.7142857142857,4,1,0,50,0,0
50685,-1000,4,1,0,50,0,0
50699,-100,4,1,0,50,0,0
51087,-47.6190476190476,4,1,0,50,0,0
51129,-1000,4,1,0,50,0,0
51143,-303.030303030303,4,1,0,50,0,0
51309,-47.6190476190476,4,1,0,50,0,0
51351,-1000,4,1,0,50,0,0
51365,-100,4,1,0,50,0,0
52421,-35.7142857142857,4,1,0,50,0,0
52463,-1000,4,1,0,50,0,0
52477,-100,4,1,0,50,0,0
53309,-50,4,1,0,50,0,0
53351,-1000,4,1,0,50,0,0
53365,-100,4,1,0,50,0,0
53532,-50,4,1,0,50,0,0
53574,-1000,4,1,0,50,0,0
53588,-100,4,1,0,50,0,0
54198,-35.7142857142857,4,1,0,50,0,0
54240,-1000,4,1,0,50,0,0
54254,-100,4,1,0,50,0,0
54643,-47.6190476190476,4,1,0,50,0,0
54685,-1000,4,1,0,50,0,0
54699,-303.030303030303,4,1,0,50,0,0
54865,-47.6190476190476,4,1,0,50,0,0
54907,-1000,4,1,0,50,0,0
54921,-100,4,1,0,50,0,0
55143,-100,4,1,0,50,0,0
55810,-111.111111111111,4,1,0,50,0,0
56032,-125,4,1,0,50,0,0
56477,-142.857142857143,4,1,0,50,0,0
56699,-166.666666666667,4,1,0,50,0,0
57143,-200,4,1,0,50,0,0
57366,-250,4,1,0,50,0,0
57810,-333.333333333333,4,1,0,50,0,0
58254,-500,4,1,0,50,0,0
58643,-19.2307692307692,4,1,0,50,0,0
58685,-1000,4,1,0,50,0,0
58699,-100,4,1,0,50,0,0
59976,-47.6190476190476,4,1,0,50,0,0
60018,-1000,4,1,0,50,0,0
60032,-303.030303030303,4,1,0,50,0,0
60198,-47.6190476190476,4,1,0,50,0,0
60240,-1000,4,1,0,50,0,0
60254,-100,4,1,0,50,0,0
61754,-47.6190476190476,4,1,0,50,0,0
61796,-1000,4,1,0,50,0,0
61810,-303.030303030303,4,1,0,50,0,0
61976,-47.6190476190476,4,1,0,50,0,0
62018,-1000,4,1,0,50,0,0
62032,-100,4,1,0,50,0,0
63532,-47.6190476190476,4,1,0,50,0,0
63574,-1000,4,1,0,50,0,0
63588,-303.030303030303,4,1,0,50,0,0
63754,-47.6190476190476,4,1,0,50,0,0
63796,-1000,4,1,0,50,0,0
63810,-100,4,1,0,50,0,0
65309,-47.6190476190476,4,1,0,50,0,0
65351,-1000,4,1,0,50,0,0
65365,-303.030303030303,4,1,0,50,0,0
65531,-47.6190476190476,4,1,0,50,0,0
65573,-1000,4,1,0,50,0,0
65587,-100,4,1,0,50,0,0
67087,-47.6190476190476,4,1,0,50,0,0
67129,-1000,4,1,0,50,0,0
67143,-303.030303030303,4,1,0,50,0,0
67309,-47.6190476190476,4,1,0,50,0,0
67351,-1000,4,1,0,50,0,0
67365,-100,4,1,0,50,0,0
68865,-47.6190476190476,4,1,0,50,0,0
68907,-1000,4,1,0,50,0,0
68921,-303.030303030303,4,1,0,50,0,0
69087,-47.6190476190476,4,1,0,50,0,0
69129,-1000,4,1,0,50,0,0
69143,-100,4,1,0,50,0,0
70643,-47.6190476190476,4,1,0,50,0,0
70685,-1000,4,1,0,50,0,0
70699,-303.030303030303,4,1,0,50,0,0
70865,-47.6190476190476,4,1,0,50,0,0
70907,-1000,4,1,0,50,0,0
70921,-100,4,1,0,50,0,0
71532,-35.7142857142857,4,1,0,50,0,0
71574,-1000,4,1,0,50,0,0
71588,-100,4,1,0,50,0,0
71754,-35.7142857142857,4,1,0,50,0,0
71796,-1000,4,1,0,50,0,0
71810,-100,4,1,0,50,0,0
71976,-35.7142857142857,4,1,0,50,0,0
72018,-1000,4,1,0,50,0,0
72032,-100,4,1,0,50,0,0
72421,-47.6190476190476,4,1,0,50,0,0
72463,-1000,4,1,0,50,0,0
72477,-303.030303030303,4,1,0,50,0,0
72643,-47.6190476190476,4,1,0,50,0,0
72685,-1000,4,1,0,50,0,0
72699,-100,4,1,0,50,0,0
72921,-74.0740740740741,4,1,0,60,0,1
72931,-1000,4,1,0,60,0,1
72948,-74.0740740740741,4,1,0,60,0,1
72958,-1000,4,1,0,60,0,1
72976,-74.0740740740741,4,1,0,60,0,1
72986,-1000,4,1,0,60,0,1
73004,-74.0740740740741,4,1,0,60,0,1
73014,-1000,4,1,0,60,0,1
73032,-74.0740740740741,4,1,0,60,0,1
73042,-1000,4,1,0,60,0,1
73059,-74.0740740740741,4,1,0,60,0,1
73069,-1000,4,1,0,60,0,1
73087,-74.0740740740741,4,1,0,60,0,1
73097,-1000,4,1,0,60,0,1
73115,-74.0740740740741,4,1,0,60,0,1
73125,-1000,4,1,0,60,0,1
73143,-74.0740740740741,4,1,0,60,0,1
73153,-1000,4,1,0,60,0,1
73171,-74.0740740740741,4,1,0,60,0,1
73181,-1000,4,1,0,60,0,1
73198,-74.0740740740741,4,1,0,60,0,1
73208,-1000,4,1,0,60,0,1
73226,-74.0740740740741,4,1,0,60,0,1
73236,-1000,4,1,0,60,0,1
73254,-74.0740740740741,4,1,0,60,0,1
73264,-1000,4,1,0,60,0,1
73282,-74.0740740740741,4,1,0,60,0,1
73292,-1000,4,1,0,60,0,1
73309,-74.0740740740741,4,1,0,60,0,1
73319,-1000,4,1,0,60,0,1
73337,-74.0740740740741,4,1,0,60,0,1
73347,-1000,4,1,0,60,0,1
73365,-250,4,1,0,60,0,1
73809,-138.888888888889,4,1,0,60,0,1
73865,-303.030303030303,4,1,0,60,0,1
73921,-138.888888888889,4,1,0,60,0,1
73977,-303.030303030303,4,1,0,60,0,1
74032,-138.888888888889,4,1,0,60,0,1
74088,-303.030303030303,4,1,0,60,0,1
74143,-138.888888888889,4,1,0,60,0,1
74199,-303.030303030303,4,1,0,60,0,1
74254,-138.888888888889,4,1,0,60,0,1
74310,-303.030303030303,4,1,0,60,0,1
74365,-138.888888888889,4,1,0,60,0,1
74421,-303.030303030303,4,1,0,60,0,1
74476,-138.888888888889,4,1,0,60,0,1
74532,-303.030303030303,4,1,0,60,0,1
74587,-138.888888888889,4,1,0,60,0,1
74643,-303.030303030303,4,1,0,60,0,1
74698,-74.0740740740741,4,1,0,60,0,1
74708,-1000,4,1,0,60,0,1
74725,-74.0740740740741,4,1,0,60,0,1
74735,-1000,4,1,0,60,0,1
74753,-74.0740740740741,4,1,0,60,0,1
74763,-1000,4,1,0,60,0,1
74781,-74.0740740740741,4,1,0,60,0,1
74791,-1000,4,1,0,60,0,1
74809,-74.0740740740741,4,1,0,60,0,1
74819,-1000,4,1,0,60,0,1
74836,-74.0740740740741,4,1,0,60,0,1
74846,-1000,4,1,0,60,0,1
74864,-74.0740740740741,4,1,0,60,0,1
74874,-1000,4,1,0,60,0,1
74892,-74.0740740740741,4,1,0,60,0,1
74902,-1000,4,1,0,60,0,1
74920,-74.0740740740741,4,1,0,60,0,1
74930,-1000,4,1,0,60,0,1
74948,-74.0740740740741,4,1,0,60,0,1
74958,-1000,4,1,0,60,0,1
74975,-74.0740740740741,4,1,0,60,0,1
74985,-1000,4,1,0,60,0,1
75003,-74.0740740740741,4,1,0,60,0,1
75013,-1000,4,1,0,60,0,1
75031,-74.0740740740741,4,1,0,60,0,1
75041,-1000,4,1,0,60,0,1
75059,-74.0740740740741,4,1,0,60,0,1
75069,-1000,4,1,0,60,0,1
75086,-74.0740740740741,4,1,0,60,0,1
75096,-1000,4,1,0,60,0,1
75114,-74.0740740740741,4,1,0,60,0,1
75124,-1000,4,1,0,60,0,1
75142,-250,4,1,0,60,0,1
75587,-111.111111111111,4,1,0,60,0,1
75643,-500,4,1,0,60,0,1
75698,-111.111111111111,4,1,0,60,0,1
75754,-500,4,1,0,60,0,1
75809,-111.111111111111,4,1,0,60,0,1
75865,-500,4,1,0,60,0,1
75921,-111.111111111111,4,1,0,60,0,1
75977,-500,4,1,0,60,0,1
76032,-153.846153846154,4,1,0,60,0,1
76087,-250,4,1,0,60,0,1
76143,-153.846153846154,4,1,0,60,0,1
76198,-250,4,1,0,60,0,1
76254,-153.846153846154,4,1,0,60,0,1
76309,-250,4,1,0,60,0,1
76365,-153.846153846154,4,1,0,60,0,1
76420,-250,4,1,0,60,0,1
76476,-74.0740740740741,4,1,0,60,0,1
76486,-1000,4,1,0,60,0,1
76503,-74.0740740740741,4,1,0,60,0,1
76513,-1000,4,1,0,60,0,1
76531,-74.0740740740741,4,1,0,60,0,1
76541,-1000,4,1,0,60,0,1
76559,-74.0740740740741,4,1,0,60,0,1
76569,-1000,4,1,0,60,0,1
76587,-74.0740740740741,4,1,0,60,0,1
76597,-1000,4,1,0,60,0,1
76614,-74.0740740740741,4,1,0,60,0,1
76624,-1000,4,1,0,60,0,1
76642,-74.0740740740741,4,1,0,60,0,1
76652,-1000,4,1,0,60,0,1
76670,-74.0740740740741,4,1,0,60,0,1
76680,-1000,4,1,0,60,0,1
76698,-74.0740740740741,4,1,0,60,0,1
76708,-1000,4,1,0,60,0,1
76726,-74.0740740740741,4,1,0,60,0,1
76736,-1000,4,1,0,60,0,1
76753,-74.0740740740741,4,1,0,60,0,1
76763,-1000,4,1,0,60,0,1
76781,-74.0740740740741,4,1,0,60,0,1
76791,-1000,4,1,0,60,0,1
76809,-74.0740740740741,4,1,0,60,0,1
76819,-1000,4,1,0,60,0,1
76837,-74.0740740740741,4,1,0,60,0,1
76847,-1000,4,1,0,60,0,1
76864,-74.0740740740741,4,1,0,60,0,1
76874,-1000,4,1,0,60,0,1
76892,-74.0740740740741,4,1,0,60,0,1
76902,-1000,4,1,0,60,0,1
76920,-250,4,1,0,60,0,1
77365,-138.888888888889,4,1,0,60,0,1
77421,-303.030303030303,4,1,0,60,0,1
77477,-138.888888888889,4,1,0,60,0,1
77533,-303.030303030303,4,1,0,60,0,1
77588,-138.888888888889,4,1,0,60,0,1
77644,-303.030303030303,4,1,0,60,0,1
77699,-138.888888888889,4,1,0,60,0,1
77755,-303.030303030303,4,1,0,60,0,1
77809,-42.5531914893617,4,1,0,60,0,1
77921,-125,4,1,0,60,0,1
78032,-500,4,1,0,60,0,1
78254,-400,4,1,0,60,0,1
78291,-377.358490566038,4,1,0,60,0,1
78328,-357.142857142857,4,1,0,60,0,1
78365,-338.983050847458,4,1,0,60,0,1
78402,-322.58064516129,4,1,0,60,0,1
78439,-307.692307692308,4,1,0,60,0,1
78476,-294.117647058824,4,1,0,60,0,1
78513,-281.69014084507,4,1,0,60,0,1
78550,-270.27027027027,4,1,0,60,0,1
78587,-259.74025974026,4,1,0,60,0,1
78698,-250,4,1,0,60,0,1
80032,-74.0740740740741,4,1,0,60,0,1
80042,-1000,4,1,0,60,0,1
80059,-74.0740740740741,4,1,0,60,0,1
80069,-1000,4,1,0,60,0,1
80087,-74.0740740740741,4,1,0,60,0,1
80097,-1000,4,1,0,60,0,1
80115,-74.0740740740741,4,1,0,60,0,1
80125,-1000,4,1,0,60,0,1
80143,-74.0740740740741,4,1,0,60,0,1
80153,-1000,4,1,0,60,0,1
80170,-74.0740740740741,4,1,0,60,0,1
80180,-1000,4,1,0,60,0,1
80198,-74.0740740740741,4,1,0,60,0,1
80208,-1000,4,1,0,60,0,1
80226,-74.0740740740741,4,1,0,60,0,1
80236,-1000,4,1,0,60,0,1
80254,-74.0740740740741,4,1,0,60,0,1
80264,-1000,4,1,0,60,0,1
80282,-74.0740740740741,4,1,0,60,0,1
80292,-1000,4,1,0,60,0,1
80309,-74.0740740740741,4,1,0,60,0,1
80319,-1000,4,1,0,60,0,1
80337,-74.0740740740741,4,1,0,60,0,1
80347,-1000,4,1,0,60,0,1
80365,-74.0740740740741,4,1,0,60,0,1
80375,-1000,4,1,0,60,0,1
80393,-74.0740740740741,4,1,0,60,0,1
80403,-1000,4,1,0,60,0,1
80420,-74.0740740740741,4,1,0,60,0,1
80430,-1000,4,1,0,60,0,1
80448,-74.0740740740741,4,1,0,60,0,1
80458,-1000,4,1,0,60,0,1
80476,-250,4,1,0,60,0,1
80921,-138.888888888889,4,1,0,60,0,1
80977,-303.030303030303,4,1,0,60,0,1
81033,-138.888888888889,4,1,0,60,0,1
81089,-303.030303030303,4,1,0,60,0,1
81144,-138.888888888889,4,1,0,60,0,1
81200,-303.030303030303,4,1,0,60,0,1
81255,-138.888888888889,4,1,0,60,0,1
81311,-303.030303030303,4,1,0,60,0,1
81366,-138.888888888889,4,1,0,60,0,1
81422,-303.030303030303,4,1,0,60,0,1
81477,-138.888888888889,4,1,0,60,0,1
81533,-303.030303030303,4,1,0,60,0,1
81588,-138.888888888889,4,1,0,60,0,1
81644,-303.030303030303,4,1,0,60,0,1
81699,-138.888888888889,4,1,0,60,0,1
81755,-303.030303030303,4,1,0,60,0,1
81809,-74.0740740740741,4,1,0,60,0,1
81819,-1000,4,1,0,60,0,1
81836,-74.0740740740741,4,1,0,60,0,1
81846,-1000,4,1,0,60,0,1
81864,-74.0740740740741,4,1,0,60,0,1
81874,-1000,4,1,0,60,0,1
81892,-74.0740740740741,4,1,0,60,0,1
81902,-1000,4,1,0,60,0,1
81920,-74.0740740740741,4,1,0,60,0,1
81930,-1000,4,1,0,60,0,1
81947,-74.0740740740741,4,1,0,60,0,1
81957,-1000,4,1,0,60,0,1
81975,-74.0740740740741,4,1,0,60,0,1
81985,-1000,4,1,0,60,0,1
82003,-74.0740740740741,4,1,0,60,0,1
82013,-1000,4,1,0,60,0,1
82031,-74.0740740740741,4,1,0,60,0,1
82041,-1000,4,1,0,60,0,1
82059,-74.0740740740741,4,1,0,60,0,1
82069,-1000,4,1,0,60,0,1
82086,-74.0740740740741,4,1,0,60,0,1
82096,-1000,4,1,0,60,0,1
82114,-74.0740740740741,4,1,0,60,0,1
82124,-1000,4,1,0,60,0,1
82142,-74.0740740740741,4,1,0,60,0,1
82152,-1000,4,1,0,60,0,1
82170,-74.0740740740741,4,1,0,60,0,1
82180,-1000,4,1,0,60,0,1
82197,-74.0740740740741,4,1,0,60,0,1
82207,-1000,4,1,0,60,0,1
82225,-74.0740740740741,4,1,0,60,0,1
82235,-1000,4,1,0,60,0,1
82253,-250,4,1,0,60,0,1
82698,-111.111111111111,4,1,0,60,0,1
82754,-500,4,1,0,60,0,1
82809,-111.111111111111,4,1,0,60,0,1
82865,-500,4,1,0,60,0,1
82920,-111.111111111111,4,1,0,60,0,1
82976,-500,4,1,0,60,0,1
83032,-111.111111111111,4,1,0,60,0,1
83088,-500,4,1,0,60,0,1
83143,-153.846153846154,4,1,0,60,0,1
83198,-250,4,1,0,60,0,1
83254,-153.846153846154,4,1,0,60,0,1
83309,-250,4,1,0,60,0,1
83365,-153.846153846154,4,1,0,60,0,1
83420,-250,4,1,0,60,0,1
83476,-153.846153846154,4,1,0,60,0,1
83531,-250,4,1,0,60,0,1
83587,-80,4,1,0,50,0,0
83809,-125,4,1,0,50,0,0
84032,-166.666666666667,4,1,0,50,0,0
84254,-200,4,1,0,50,0,0
84476,-181.818181818182,4,1,0,50,0,0
84921,-166.666666666667,4,1,0,50,0,0
85143,-153.846153846154,4,1,0,50,0,0
85587,-142.857142857143,4,1,0,50,0,0
85809,-133.333333333333,4,1,0,50,0,0
86254,-125,4,1,0,50,0,0
86698,-111.111111111111,4,1,0,50,0,0
87087,-22.7272727272727,4,1,0,50,0,0
87129,-1000,4,1,0,50,0,0
87143,-74.0740740740741,4,1,0,60,0,1
87153,-1000,4,1,0,60,0,1
87170,-74.0740740740741,4,1,0,60,0,1
87180,-1000,4,1,0,60,0,1
87198,-74.0740740740741,4,1,0,60,0,1
87208,-1000,4,1,0,60,0,1
87226,-74.0740740740741,4,1,0,60,0,1
87236,-1000,4,1,0,60,0,1
87254,-74.0740740740741,4,1,0,60,0,1
87264,-1000,4,1,0,60,0,1
87281,-74.0740740740741,4,1,0,60,0,1
87291,-1000,4,1,0,60,0,1
87309,-74.0740740740741,4,1,0,60,0,1
87319,-1000,4,1,0,60,0,1
87337,-74.0740740740741,4,1,0,60,0,1
87347,-1000,4,1,0,60,0,1
87365,-74.0740740740741,4,1,0,60,0,1
87375,-1000,4,1,0,60,0,1
87393,-74.0740740740741,4,1,0,60,0,1
87403,-1000,4,1,0,60,0,1
87420,-74.0740740740741,4,1,0,60,0,1
87430,-1000,4,1,0,60,0,1
87448,-74.0740740740741,4,1,0,60,0,1
87458,-1000,4,1,0,60,0,1
87476,-74.0740740740741,4,1,0,60,0,1
87486,-1000,4,1,0,60,0,1
87504,-74.0740740740741,4,1,0,60,0,1
87514,-1000,4,1,0,60,0,1
87531,-74.0740740740741,4,1,0,60,0,1
87541,-1000,4,1,0,60,0,1
87559,-74.0740740740741,4,1,0,60,0,1
87569,-1000,4,1,0,60,0,1
87587,-250,4,1,0,60,0,1
88032,-86.9565217391304,4,1,0,60,0,1
88106,-400,4,1,0,60,0,1
88180,-86.9565217391304,4,1,0,60,0,1
88254,-400,4,1,0,60,0,1
88328,-86.9565217391304,4,1,0,60,0,1
88402,-400,4,1,0,60,0,1
88476,-86.9565217391304,4,1,0,60,0,1
88550,-400,4,1,0,60,0,1
88624,-86.9565217391304,4,1,0,60,0,1
88698,-400,4,1,0,60,0,1
88772,-86.9565217391304,4,1,0,60,0,1
88846,-400,4,1,0,60,0,1
88921,-74.0740740740741,4,1,0,60,0,1
88931,-1000,4,1,0,60,0,1
88948,-74.0740740740741,4,1,0,60,0,1
88958,-1000,4,1,0,60,0,1
88976,-74.0740740740741,4,1,0,60,0,1
88986,-1000,4,1,0,60,0,1
89004,-74.0740740740741,4,1,0,60,0,1
89014,-1000,4,1,0,60,0,1
89032,-74.0740740740741,4,1,0,60,0,1
89042,-1000,4,1,0,60,0,1
89059,-74.0740740740741,4,1,0,60,0,1
89069,-1000,4,1,0,60,0,1
89087,-74.0740740740741,4,1,0,60,0,1
89097,-1000,4,1,0,60,0,1
89115,-74.0740740740741,4,1,0,60,0,1
89125,-1000,4,1,0,60,0,1
89143,-74.0740740740741,4,1,0,60,0,1
89153,-1000,4,1,0,60,0,1
89171,-74.0740740740741,4,1,0,60,0,1
89181,-1000,4,1,0,60,0,1
89198,-74.0740740740741,4,1,0,60,0,1
89208,-1000,4,1,0,60,0,1
89226,-74.0740740740741,4,1,0,60,0,1
89236,-1000,4,1,0,60,0,1
89254,-74.0740740740741,4,1,0,60,0,1
89264,-1000,4,1,0,60,0,1
89282,-74.0740740740741,4,1,0,60,0,1
89292,-1000,4,1,0,60,0,1
89309,-74.0740740740741,4,1,0,60,0,1
89319,-1000,4,1,0,60,0,1
89337,-74.0740740740741,4,1,0,60,0,1
89347,-1000,4,1,0,60,0,1
89365,-250,4,1,0,60,0,1
89809,-111.111111111111,4,1,0,60,0,1
89884,-333.333333333333,4,1,0,60,0,1
89958,-111.111111111111,4,1,0,60,0,1
90033,-333.333333333333,4,1,0,60,0,1
90106,-111.111111111111,4,1,0,60,0,1
90181,-333.333333333333,4,1,0,60,0,1
90254,-142.857142857143,4,1,0,60,0,1
90328,-285.714285714286,4,1,0,60,0,1
90402,-142.857142857143,4,1,0,60,0,1
90476,-285.714285714286,4,1,0,60,0,1
90550,-142.857142857143,4,1,0,60,0,1
90624,-285.714285714286,4,1,0,60,0,1
90698,-74.0740740740741,4,1,0,60,0,1
90708,-1000,4,1,0,60,0,1
90725,-74.0740740740741,4,1,0,60,0,1
90735,-1000,4,1,0,60,0,1
90753,-74.0740740740741,4,1,0,60,0,1
90763,-1000,4,1,0,60,0,1
90781,-74.0740740740741,4,1,0,60,0,1
90791,-1000,4,1,0,60,0,1
90809,-74.0740740740741,4,1,0,60,0,1
90819,-1000,4,1,0,60,0,1
90836,-74.0740740740741,4,1,0,60,0,1
90846,-1000,4,1,0,60,0,1
90864,-74.0740740740741,4,1,0,60,0,1
90874,-1000,4,1,0,60,0,1
90892,-74.0740740740741,4,1,0,60,0,1
90902,-1000,4,1,0,60,0,1
90920,-74.0740740740741,4,1,0,60,0,1
90930,-1000,4,1,0,60,0,1
90948,-74.0740740740741,4,1,0,60,0,1
90958,-1000,4,1,0,60,0,1
90975,-74.0740740740741,4,1,0,60,0,1
90985,-1000,4,1,0,60,0,1
91003,-74.0740740740741,4,1,0,60,0,1
91013,-1000,4,1,0,60,0,1
91031,-74.0740740740741,4,1,0,60,0,1
91041,-1000,4,1,0,60,0,1
91059,-74.0740740740741,4,1,0,60,0,1
91069,-1000,4,1,0,60,0,1
91086,-74.0740740740741,4,1,0,60,0,1
91096,-1000,4,1,0,60,0,1
91114,-74.0740740740741,4,1,0,60,0,1
91124,-1000,4,1,0,60,0,1
91142,-250,4,1,0,60,0,1
91587,-86.9565217391304,4,1,0,60,0,1
91661,-400,4,1,0,60,0,1
91735,-86.9565217391304,4,1,0,60,0,1
91809,-400,4,1,0,60,0,1
91884,-86.9565217391304,4,1,0,60,0,1
91958,-400,4,1,0,60,0,1
92031,-42.5531914893617,4,1,0,60,0,1
92143,-125,4,1,0,60,0,1
92254,-500,4,1,0,60,0,1
92476,-400,4,1,0,60,0,1
92513,-377.358490566038,4,1,0,60,0,1
92550,-357.142857142857,4,1,0,60,0,1
92587,-338.983050847458,4,1,0,60,0,1
92624,-322.58064516129,4,1,0,60,0,1
92661,-307.692307692308,4,1,0,60,0,1
92698,-294.117647058824,4,1,0,60,0,1
92735,-281.69014084507,4,1,0,60,0,1
92772,-270.27027027027,4,1,0,60,0,1
92809,-259.74025974026,4,1,0,60,0,1
92920,-250,4,1,0,60,0,1
94254,-74.0740740740741,4,1,0,60,0,1
94264,-1000,4,1,0,60,0,1
94281,-74.0740740740741,4,1,0,60,0,1
94291,-1000,4,1,0,60,0,1
94309,-74.0740740740741,4,1,0,60,0,1
94319,-1000,4,1,0,60,0,1
94337,-74.0740740740741,4,1,0,60,0,1
94347,-1000,4,1,0,60,0,1
94365,-74.0740740740741,4,1,0,60,0,1
94375,-1000,4,1,0,60,0,1
94392,-74.0740740740741,4,1,0,60,0,1
94402,-1000,4,1,0,60,0,1
94420,-74.0740740740741,4,1,0,60,0,1
94430,-1000,4,1,0,60,0,1
94448,-74.0740740740741,4,1,0,60,0,1
94458,-1000,4,1,0,60,0,1
94476,-74.0740740740741,4,1,0,60,0,1
94486,-1000,4,1,0,60,0,1
94504,-74.0740740740741,4,1,0,60,0,1
94514,-1000,4,1,0,60,0,1
94531,-74.0740740740741,4,1,0,60,0,1
94541,-1000,4,1,0,60,0,1
94559,-74.0740740740741,4,1,0,60,0,1
94569,-1000,4,1,0,60,0,1
94587,-74.0740740740741,4,1,0,60,0,1
94597,-1000,4,1,0,60,0,1
94615,-74.0740740740741,4,1,0,60,0,1
94625,-1000,4,1,0,60,0,1
94642,-74.0740740740741,4,1,0,60,0,1
94652,-1000,4,1,0,60,0,1
94670,-74.0740740740741,4,1,0,60,0,1
94680,-1000,4,1,0,60,0,1
94698,-250,4,1,0,60,0,1
95143,-86.9565217391304,4,1,0,60,0,1
95217,-400,4,1,0,60,0,1
95291,-86.9565217391304,4,1,0,60,0,1
95365,-400,4,1,0,60,0,1
95439,-86.9565217391304,4,1,0,60,0,1
95513,-400,4,1,0,60,0,1
95587,-86.9565217391304,4,1,0,60,0,1
95661,-400,4,1,0,60,0,1
95735,-86.9565217391304,4,1,0,60,0,1
95809,-400,4,1,0,60,0,1
95884,-86.9565217391304,4,1,0,60,0,1
95958,-400,4,1,0,60,0,1
96032,-74.0740740740741,4,1,0,60,0,1
96042,-1000,4,1,0,60,0,1
96059,-74.0740740740741,4,1,0,60,0,1
96069,-1000,4,1,0,60,0,1
96087,-74.0740740740741,4,1,0,60,0,1
96097,-1000,4,1,0,60,0,1
96115,-74.0740740740741,4,1,0,60,0,1
96125,-1000,4,1,0,60,0,1
96143,-74.0740740740741,4,1,0,60,0,1
96153,-1000,4,1,0,60,0,1
96170,-74.0740740740741,4,1,0,60,0,1
96180,-1000,4,1,0,60,0,1
96198,-74.0740740740741,4,1,0,60,0,1
96208,-1000,4,1,0,60,0,1
96226,-74.0740740740741,4,1,0,60,0,1
96236,-1000,4,1,0,60,0,1
96254,-74.0740740740741,4,1,0,60,0,1
96264,-1000,4,1,0,60,0,1
96282,-74.0740740740741,4,1,0,60,0,1
96292,-1000,4,1,0,60,0,1
96309,-74.0740740740741,4,1,0,60,0,1
96319,-1000,4,1,0,60,0,1
96337,-74.0740740740741,4,1,0,60,0,1
96347,-1000,4,1,0,60,0,1
96365,-74.0740740740741,4,1,0,60,0,1
96375,-1000,4,1,0,60,0,1
96393,-74.0740740740741,4,1,0,60,0,1
96403,-1000,4,1,0,60,0,1
96420,-74.0740740740741,4,1,0,60,0,1
96430,-1000,4,1,0,60,0,1
96448,-74.0740740740741,4,1,0,60,0,1
96458,-1000,4,1,0,60,0,1
96476,-250,4,1,0,60,0,1
96921,-111.111111111111,4,1,0,60,0,1
96996,-333.333333333333,4,1,0,60,0,1
97069,-111.111111111111,4,1,0,60,0,1
97144,-333.333333333333,4,1,0,60,0,1
97217,-111.111111111111,4,1,0,60,0,1
97292,-333.333333333333,4,1,0,60,0,1
97365,-142.857142857143,4,1,0,60,0,1
97439,-285.714285714286,4,1,0,60,0,1
97513,-142.857142857143,4,1,0,60,0,1
97587,-285.714285714286,4,1,0,60,0,1
97661,-142.857142857143,4,1,0,60,0,1
97735,-285.714285714286,4,1,0,60,0,1
97809,-95.2380952380952,4,1,0,50,0,0
98032,-153.846153846154,4,1,0,50,0,0
98255,-250,4,1,0,50,0,0
98476,-111.111111111111,4,1,0,50,0,0
98698,-125,4,1,0,50,0,0
99143,-142.857142857143,4,1,0,50,0,0
99365,-166.666666666667,4,1,0,50,0,0
99809,-200,4,1,0,50,0,0
100032,-250,4,1,0,50,0,0
100421,-35.7142857142857,4,1,0,50,0,0
100463,-1000,4,1,0,50,0,0
100477,-153.846153846154,4,1,0,50,0,0
100865,-35.7142857142857,4,1,0,50,0,0
100907,-1000,4,1,0,50,0,0
100921,-153.846153846154,4,1,0,50,0,0
101309,-19.2307692307692,4,1,0,50,0,0
101351,-1000,4,1,0,50,0,0
101365,-100,4,1,0,50,0,0
102198,-35.7142857142857,4,1,0,50,0,0
102240,-1000,4,1,0,50,0,0
102254,-100,4,1,0,50,0,0
103976,-35.7142857142857,4,1,0,50,0,0
104018,-1000,4,1,0,50,0,0
104032,-100,4,1,0,50,0,0
105587,-250,4,1,0,50,0,0
105754,-35.7142857142857,4,1,0,50,0,0
105796,-1000,4,1,0,50,0,0
105810,-100,4,1,0,50,0,0
107532,-35.7142857142857,4,1,0,50,0,0
107574,-1000,4,1,0,50,0,0
107588,-100,4,1,0,50,0,0
109309,-35.7142857142857,4,1,0,50,0,0
109351,-1000,4,1,0,50,0,0
109365,-100,4,1,0,50,0,0
111087,-35.7142857142857,4,1,0,50,0,0
111129,-1000,4,1,0,50,0,0
111143,-100,4,1,0,50,0,0
112032,-100,4,1,0,50,0,0
112699,-111.111111111111,4,1,0,50,0,0
112921,-125,4,1,0,50,0,0
113366,-142.857142857143,4,1,0,50,0,0
113588,-166.666666666667,4,1,0,50,0,0
114032,-200,4,1,0,50,0,0
114255,-250,4,1,0,50,0,0
114699,-333.333333333333,4,1,0,50,0,0
115143,-500,4,1,0,50,0,0
115532,-19.2307692307692,4,1,0,50,0,0
115574,-1000,4,1,0,50,0,0
115588,-500,4,1,0,50,0,0
126254,-666.666666666667,4,1,0,50,0,0
128032,-10000,4,1,0,50,0,0
129226,-74.0740740740741,4,1,0,50,0,0
129254,-166.666666666667,4,1,0,50,0,0
129559,-74.0740740740741,4,1,0,50,0,0
129587,-166.666666666667,4,1,0,50,0,0
129754,-19.2307692307692,4,1,0,50,0,0
129796,-1000,4,1,0,50,0,0
129810,-100,4,1,0,50,0,0
131087,-47.6190476190476,4,1,0,50,0,0
131129,-1000,4,1,0,50,0,0
131143,-303.030303030303,4,1,0,50,0,0
131309,-47.6190476190476,4,1,0,50,0,0
131351,-1000,4,1,0,50,0,0
131365,-100,4,1,0,50,0,0
132865,-47.6190476190476,4,1,0,50,0,0
132907,-1000,4,1,0,50,0,0
132921,-303.030303030303,4,1,0,50,0,0
133087,-47.6190476190476,4,1,0,50,0,0
133129,-1000,4,1,0,50,0,0
133143,-100,4,1,0,50,0,0
134643,-47.6190476190476,4,1,0,50,0,0
134685,-1000,4,1,0,50,0,0
134699,-303.030303030303,4,1,0,50,0,0
134865,-47.6190476190476,4,1,0,50,0,0
134907,-1000,4,1,0,50,0,0
134921,-100,4,1,0,50,0,0
136420,-47.6190476190476,4,1,0,50,0,0
136462,-1000,4,1,0,50,0,0
136476,-303.030303030303,4,1,0,50,0,0
136642,-47.6190476190476,4,1,0,50,0,0
136684,-1000,4,1,0,50,0,0
136698,-100,4,1,0,50,0,0
138198,-47.6190476190476,4,1,0,50,0,0
138240,-1000,4,1,0,50,0,0
138254,-303.030303030303,4,1,0,50,0,0
138420,-47.6190476190476,4,1,0,50,0,0
138462,-1000,4,1,0,50,0,0
138476,-100,4,1,0,50,0,0
139976,-47.6190476190476,4,1,0,50,0,0
140018,-1000,4,1,0,50,0,0
140032,-303.030303030303,4,1,0,50,0,0
140198,-47.6190476190476,4,1,0,50,0,0
140240,-1000,4,1,0,50,0,0
140254,-100,4,1,0,50,0,0
141754,-47.6190476190476,4,1,0,50,0,0
141796,-1000,4,1,0,50,0,0
141810,-303.030303030303,4,1,0,50,0,0
141976,-47.6190476190476,4,1,0,50,0,0
142018,-1000,4,1,0,50,0,0
142032,-100,4,1,0,50,0,0
142643,-35.7142857142857,4,1,0,50,0,0
142685,-1000,4,1,0,50,0,0
142699,-100,4,1,0,50,0,0
142865,-35.7142857142857,4,1,0,50,0,0
142907,-1000,4,1,0,50,0,0
142921,-100,4,1,0,50,0,0
143087,-35.7142857142857,4,1,0,50,0,0
143129,-1000,4,1,0,50,0,0
143143,-100,4,1,0,50,0,0
143532,-47.6190476190476,4,1,0,50,0,0
143574,-1000,4,1,0,50,0,0
143588,-303.030303030303,4,1,0,50,0,0
143754,-47.6190476190476,4,1,0,50,0,0
143796,-1000,4,1,0,50,0,0
143810,-100,4,1,0,50,0,0
144032,-74.0740740740741,4,1,0,60,0,1
144042,-1000,4,1,0,60,0,1
144059,-74.0740740740741,4,1,0,60,0,1
144069,-1000,4,1,0,60,0,1
144087,-74.0740740740741,4,1,0,60,0,1
144097,-1000,4,1,0,60,0,1
144115,-74.0740740740741,4,1,0,60,0,1
144125,-1000,4,1,0,60,0,1
144143,-74.0740740740741,4,1,0,60,0,1
144153,-1000,4,1,0,60,0,1
144170,-74.0740740740741,4,1,0,60,0,1
144180,-1000,4,1,0,60,0,1
144198,-74.0740740740741,4,1,0,60,0,1
144208,-1000,4,1,0,60,0,1
144226,-74.0740740740741,4,1,0,60,0,1
144236,-1000,4,1,0,60,0,1
144254,-74.0740740740741,4,1,0,60,0,1
144264,-1000,4,1,0,60,0,1
144282,-74.0740740740741,4,1,0,60,0,1
144292,-1000,4,1,0,60,0,1
144309,-74.0740740740741,4,1,0,60,0,1
144319,-1000,4,1,0,60,0,1
144337,-74.0740740740741,4,1,0,60,0,1
144347,-1000,4,1,0,60,0,1
144365,-74.0740740740741,4,1,0,60,0,1
144375,-1000,4,1,0,60,0,1
144393,-74.0740740740741,4,1,0,60,0,1
144403,-1000,4,1,0,60,0,1
144420,-74.0740740740741,4,1,0,60,0,1
144430,-1000,4,1,0,60,0,1
144448,-74.0740740740741,4,1,0,60,0,1
144458,-1000,4,1,0,60,0,1
144476,-250,4,1,0,60,0,1
144921,-138.888888888889,4,1,0,60,0,1
144977,-303.030303030303,4,1,0,60,0,1
145033,-138.888888888889,4,1,0,60,0,1
145089,-303.030303030303,4,1,0,60,0,1
145144,-138.888888888889,4,1,0,60,0,1
145200,-303.030303030303,4,1,0,60,0,1
145255,-138.888888888889,4,1,0,60,0,1
145311,-303.030303030303,4,1,0,60,0,1
145366,-138.888888888889,4,1,0,60,0,1
145422,-303.030303030303,4,1,0,60,0,1
145477,-144.927536231884,4,1,0,60,0,1
145533,-333.333333333333,4,1,0,60,0,1
145588,-151.515151515152,4,1,0,60,0,1
145644,-370.37037037037,4,1,0,60,0,1
145699,-158.730158730159,4,1,0,60,0,1
145755,-416.666666666667,4,1,0,60,0,1
145809,-74.0740740740741,4,1,0,60,0,1
145819,-1000,4,1,0,60,0,1
145836,-74.0740740740741,4,1,0,60,0,1
145846,-1000,4,1,0,60,0,1
145864,-74.0740740740741,4,1,0,60,0,1
145874,-1000,4,1,0,60,0,1
145892,-74.0740740740741,4,1,0,60,0,1
145902,-1000,4,1,0,60,0,1
145920,-74.0740740740741,4,1,0,60,0,1
145930,-1000,4,1,0,60,0,1
145947,-74.0740740740741,4,1,0,60,0,1
145957,-1000,4,1,0,60,0,1
145975,-74.0740740740741,4,1,0,60,0,1
145985,-1000,4,1,0,60,0,1
146003,-74.0740740740741,4,1,0,60,0,1
146013,-1000,4,1,0,60,0,1
146031,-74.0740740740741,4,1,0,60,0,1
146041,-1000,4,1,0,60,0,1
146059,-74.0740740740741,4,1,0,60,0,1
146069,-1000,4,1,0,60,0,1
146086,-74.0740740740741,4,1,0,60,0,1
146096,-1000,4,1,0,60,0,1
146114,-74.0740740740741,4,1,0,60,0,1
146124,-1000,4,1,0,60,0,1
146142,-74.0740740740741,4,1,0,60,0,1
146152,-1000,4,1,0,60,0,1
146170,-74.0740740740741,4,1,0,60,0,1
146180,-1000,4,1,0,60,0,1
146197,-74.0740740740741,4,1,0,60,0,1
146207,-1000,4,1,0,60,0,1
146225,-74.0740740740741,4,1,0,60,0,1
146235,-1000,4,1,0,60,0,1
146253,-250,4,1,0,60,0,1
146698,-111.111111111111,4,1,0,60,0,1
146754,-500,4,1,0,60,0,1
146809,-111.111111111111,4,1,0,60,0,1
146865,-500,4,1,0,60,0,1
146920,-111.111111111111,4,1,0,60,0,1
146976,-500,4,1,0,60,0,1
147032,-111.111111111111,4,1,0,60,0,1
147088,-500,4,1,0,60,0,1
147143,-153.846153846154,4,1,0,60,0,1
147198,-250,4,1,0,60,0,1
147254,-153.846153846154,4,1,0,60,0,1
147309,-250,4,1,0,60,0,1
147365,-153.846153846154,4,1,0,60,0,1
147420,-250,4,1,0,60,0,1
147476,-153.846153846154,4,1,0,60,0,1
147531,-250,4,1,0,60,0,1
147587,-74.0740740740741,4,1,0,60,0,1
147597,-1000,4,1,0,60,0,1
147614,-74.0740740740741,4,1,0,60,0,1
147624,-1000,4,1,0,60,0,1
147642,-74.0740740740741,4,1,0,60,0,1
147652,-1000,4,1,0,60,0,1
147670,-74.0740740740741,4,1,0,60,0,1
147680,-1000,4,1,0,60,0,1
147698,-74.0740740740741,4,1,0,60,0,1
147708,-1000,4,1,0,60,0,1
147725,-74.0740740740741,4,1,0,60,0,1
147735,-1000,4,1,0,60,0,1
147753,-74.0740740740741,4,1,0,60,0,1
147763,-1000,4,1,0,60,0,1
147781,-74.0740740740741,4,1,0,60,0,1
147791,-1000,4,1,0,60,0,1
147809,-74.0740740740741,4,1,0,60,0,1
147819,-1000,4,1,0,60,0,1
147837,-74.0740740740741,4,1,0,60,0,1
147847,-1000,4,1,0,60,0,1
147864,-74.0740740740741,4,1,0,60,0,1
147874,-1000,4,1,0,60,0,1
147892,-74.0740740740741,4,1,0,60,0,1
147902,-1000,4,1,0,60,0,1
147920,-74.0740740740741,4,1,0,60,0,1
147930,-1000,4,1,0,60,0,1
147948,-74.0740740740741,4,1,0,60,0,1
147958,-1000,4,1,0,60,0,1
147975,-74.0740740740741,4,1,0,60,0,1
147985,-1000,4,1,0,60,0,1
148003,-74.0740740740741,4,1,0,60,0,1
148013,-1000,4,1,0,60,0,1
148031,-250,4,1,0,60,0,1
148476,-138.888888888889,4,1,0,60,0,1
148532,-303.030303030303,4,1,0,60,0,1
148588,-138.888888888889,4,1,0,60,0,1
148644,-303.030303030303,4,1,0,60,0,1
148699,-138.888888888889,4,1,0,60,0,1
148755,-303.030303030303,4,1,0,60,0,1
148810,-138.888888888889,4,1,0,60,0,1
148866,-303.030303030303,4,1,0,60,0,1
148920,-42.5531914893617,4,1,0,60,0,1
149032,-125,4,1,0,60,0,1
149143,-500,4,1,0,60,0,1
149365,-400,4,1,0,60,0,1
149402,-377.358490566038,4,1,0,60,0,1
149439,-357.142857142857,4,1,0,60,0,1
149476,-338.983050847458,4,1,0,60,0,1
149513,-322.58064516129,4,1,0,60,0,1
149550,-307.692307692308,4,1,0,60,0,1
149587,-294.117647058824,4,1,0,60,0,1
149624,-281.69014084507,4,1,0,60,0,1
149661,-270.27027027027,4,1,0,60,0,1
149698,-259.74025974026,4,1,0,60,0,1
149809,-250,4,1,0,60,0,1
151143,-74.0740740740741,4,1,0,60,0,1
151153,-1000,4,1,0,60,0,1
151170,-74.0740740740741,4,1,0,60,0,1
151180,-1000,4,1,0,60,0,1
151198,-74.0740740740741,4,1,0,60,0,1
151208,-1000,4,1,0,60,0,1
151226,-74.0740740740741,4,1,0,60,0,1
151236,-1000,4,1,0,60,0,1
151254,-74.0740740740741,4,1,0,60,0,1
151264,-1000,4,1,0,60,0,1
151281,-74.0740740740741,4,1,0,60,0,1
151291,-1000,4,1,0,60,0,1
151309,-74.0740740740741,4,1,0,60,0,1
151319,-1000,4,1,0,60,0,1
151337,-74.0740740740741,4,1,0,60,0,1
151347,-1000,4,1,0,60,0,1
151365,-74.0740740740741,4,1,0,60,0,1
151375,-1000,4,1,0,60,0,1
151393,-74.0740740740741,4,1,0,60,0,1
151403,-1000,4,1,0,60,0,1
151420,-74.0740740740741,4,1,0,60,0,1
151430,-1000,4,1,0,60,0,1
151448,-74.0740740740741,4,1,0,60,0,1
151458,-1000,4,1,0,60,0,1
151476,-74.0740740740741,4,1,0,60,0,1
151486,-1000,4,1,0,60,0,1
151504,-74.0740740740741,4,1,0,60,0,1
151514,-1000,4,1,0,60,0,1
151531,-74.0740740740741,4,1,0,60,0,1
151541,-1000,4,1,0,60,0,1
151559,-74.0740740740741,4,1,0,60,0,1
151569,-1000,4,1,0,60,0,1
151587,-250,4,1,0,60,0,1
152032,-138.888888888889,4,1,0,60,0,1
152088,-303.030303030303,4,1,0,60,0,1
152144,-138.888888888889,4,1,0,60,0,1
152200,-303.030303030303,4,1,0,60,0,1
152255,-138.888888888889,4,1,0,60,0,1
152311,-303.030303030303,4,1,0,60,0,1
152366,-138.888888888889,4,1,0,60,0,1
152422,-303.030303030303,4,1,0,60,0,1
152477,-138.888888888889,4,1,0,60,0,1
152533,-303.030303030303,4,1,0,60,0,1
152588,-144.927536231884,4,1,0,60,0,1
152644,-333.333333333333,4,1,0,60,0,1
152699,-151.515151515152,4,1,0,60,0,1
152755,-370.37037037037,4,1,0,60,0,1
152810,-158.730158730159,4,1,0,60,0,1
152866,-416.666666666667,4,1,0,60,0,1
152921,-74.0740740740741,4,1,0,60,0,1
152931,-1000,4,1,0,60,0,1
152948,-74.0740740740741,4,1,0,60,0,1
152958,-1000,4,1,0,60,0,1
152976,-74.0740740740741,4,1,0,60,0,1
152986,-1000,4,1,0,60,0,1
153004,-74.0740740740741,4,1,0,60,0,1
153014,-1000,4,1,0,60,0,1
153032,-74.0740740740741,4,1,0,60,0,1
153042,-1000,4,1,0,60,0,1
153059,-74.0740740740741,4,1,0,60,0,1
153069,-1000,4,1,0,60,0,1
153087,-74.0740740740741,4,1,0,60,0,1
153097,-1000,4,1,0,60,0,1
153115,-74.0740740740741,4,1,0,60,0,1
153125,-1000,4,1,0,60,0,1
153143,-74.0740740740741,4,1,0,60,0,1
153153,-1000,4,1,0,60,0,1
153171,-74.0740740740741,4,1,0,60,0,1
153181,-1000,4,1,0,60,0,1
153198,-74.0740740740741,4,1,0,60,0,1
153208,-1000,4,1,0,60,0,1
153226,-74.0740740740741,4,1,0,60,0,1
153236,-1000,4,1,0,60,0,1
153254,-74.0740740740741,4,1,0,60,0,1
153264,-1000,4,1,0,60,0,1
153282,-74.0740740740741,4,1,0,60,0,1
153292,-1000,4,1,0,60,0,1
153309,-74.0740740740741,4,1,0,60,0,1
153319,-1000,4,1,0,60,0,1
153337,-74.0740740740741,4,1,0,60,0,1
153347,-1000,4,1,0,60,0,1
153365,-250,4,1,0,60,0,1
153809,-111.111111111111,4,1,0,60,0,1
153865,-500,4,1,0,60,0,1
153920,-111.111111111111,4,1,0,60,0,1
153976,-500,4,1,0,60,0,1
154031,-111.111111111111,4,1,0,60,0,1
154087,-500,4,1,0,60,0,1
154143,-111.111111111111,4,1,0,60,0,1
154199,-500,4,1,0,60,0,1
154254,-153.846153846154,4,1,0,60,0,1
154309,-250,4,1,0,60,0,1
154365,-153.846153846154,4,1,0,60,0,1
154420,-250,4,1,0,60,0,1
154476,-153.846153846154,4,1,0,60,0,1
154531,-250,4,1,0,60,0,1
154587,-153.846153846154,4,1,0,60,0,1
154642,-250,4,1,0,60,0,1
154698,-80,4,1,0,50,0,0
154920,-125,4,1,0,50,0,0
155143,-166.666666666667,4,1,0,50,0,0
155365,-200,4,1,0,50,0,0
155587,-181.818181818182,4,1,0,50,0,0
156032,-166.666666666667,4,1,0,50,0,0
156254,-153.846153846154,4,1,0,50,0,0
156698,-142.857142857143,4,1,0,50,0,0
156920,-133.333333333333,4,1,0,50,0,0
157365,-125,4,1,0,50,0,0
157809,-111.111111111111,4,1,0,50,0,0
158198,-22.7272727272727,4,1,0,50,0,0
158240,-1000,4,1,0,50,0,0
158254,-74.0740740740741,4,1,0,60,0,1
158264,-1000,4,1,0,60,0,1
158281,-74.0740740740741,4,1,0,60,0,1
158291,-1000,4,1,0,60,0,1
158309,-74.0740740740741,4,1,0,60,0,1
158319,-1000,4,1,0,60,0,1
158337,-74.0740740740741,4,1,0,60,0,1
158347,-1000,4,1,0,60,0,1
158365,-74.0740740740741,4,1,0,60,0,1
158375,-1000,4,1,0,60,0,1
158392,-74.0740740740741,4,1,0,60,0,1
158402,-1000,4,1,0,60,0,1
158420,-74.0740740740741,4,1,0,60,0,1
158430,-1000,4,1,0,60,0,1
158448,-74.0740740740741,4,1,0,60,0,1
158458,-1000,4,1,0,60,0,1
158476,-74.0740740740741,4,1,0,60,0,1
158486,-1000,4,1,0,60,0,1
158504,-74.0740740740741,4,1,0,60,0,1
158514,-1000,4,1,0,60,0,1
158531,-74.0740740740741,4,1,0,60,0,1
158541,-1000,4,1,0,60,0,1
158559,-74.0740740740741,4,1,0,60,0,1
158569,-1000,4,1,0,60,0,1
158587,-74.0740740740741,4,1,0,60,0,1
158597,-1000,4,1,0,60,0,1
158615,-74.0740740740741,4,1,0,60,0,1
158625,-1000,4,1,0,60,0,1
158642,-74.0740740740741,4,1,0,60,0,1
158652,-1000,4,1,0,60,0,1
158670,-74.0740740740741,4,1,0,60,0,1
158680,-1000,4,1,0,60,0,1
158698,-250,4,1,0,60,0,1
159143,-86.9565217391304,4,1,0,60,0,1
159217,-400,4,1,0,60,0,1
159291,-86.9565217391304,4,1,0,60,0,1
159365,-400,4,1,0,60,0,1
159439,-86.9565217391304,4,1,0,60,0,1
159513,-400,4,1,0,60,0,1
159587,-142.857142857143,4,1,0,60,0,1
159661,-285.714285714286,4,1,0,60,0,1
159736,-142.857142857143,4,1,0,60,0,1
159810,-285.714285714286,4,1,0,60,0,1
159884,-181.818181818182,4,1,0,60,0,1
159958,-400,4,1,0,60,0,1
160032,-74.0740740740741,4,1,0,60,0,1
160042,-1000,4,1,0,60,0,1
160059,-74.0740740740741,4,1,0,60,0,1
160069,-1000,4,1,0,60,0,1
160087,-74.0740740740741,4,1,0,60,0,1
160097,-1000,4,1,0,60,0,1
160115,-74.0740740740741,4,1,0,60,0,1
160125,-1000,4,1,0,60,0,1
160143,-74.0740740740741,4,1,0,60,0,1
160153,-1000,4,1,0,60,0,1
160170,-74.0740740740741,4,1,0,60,0,1
160180,-1000,4,1,0,60,0,1
160198,-74.0740740740741,4,1,0,60,0,1
160208,-1000,4,1,0,60,0,1
160226,-74.0740740740741,4,1,0,60,0,1
160236,-1000,4,1,0,60,0,1
160254,-74.0740740740741,4,1,0,60,0,1
160264,-1000,4,1,0,60,0,1
160282,-74.0740740740741,4,1,0,60,0,1
160292,-1000,4,1,0,60,0,1
160309,-74.0740740740741,4,1,0,60,0,1
160319,-1000,4,1,0,60,0,1
160337,-74.0740740740741,4,1,0,60,0,1
160347,-1000,4,1,0,60,0,1
160365,-74.0740740740741,4,1,0,60,0,1
160375,-1000,4,1,0,60,0,1
160393,-74.0740740740741,4,1,0,60,0,1
160403,-1000,4,1,0,60,0,1
160420,-74.0740740740741,4,1,0,60,0,1
160430,-1000,4,1,0,60,0,1
160448,-74.0740740740741,4,1,0,60,0,1
160458,-1000,4,1,0,60,0,1
160476,-250,4,1,0,60,0,1
160921,-111.111111111111,4,1,0,60,0,1
160996,-333.333333333333,4,1,0,60,0,1
161069,-111.111111111111,4,1,0,60,0,1
161144,-333.333333333333,4,1,0,60,0,1
161217,-111.111111111111,4,1,0,60,0,1
161292,-333.333333333333,4,1,0,60,0,1
161365,-142.857142857143,4,1,0,60,0,1
161439,-285.714285714286,4,1,0,60,0,1
161513,-142.857142857143,4,1,0,60,0,1
161587,-285.714285714286,4,1,0,60,0,1
161661,-181.818181818182,4,1,0,60,0,1
161735,-400,4,1,0,60,0,1
161809,-74.0740740740741,4,1,0,60,0,1
161819,-1000,4,1,0,60,0,1
161836,-74.0740740740741,4,1,0,60,0,1
161846,-1000,4,1,0,60,0,1
161864,-74.0740740740741,4,1,0,60,0,1
161874,-1000,4,1,0,60,0,1
161892,-74.0740740740741,4,1,0,60,0,1
161902,-1000,4,1,0,60,0,1
161920,-74.0740740740741,4,1,0,60,0,1
161930,-1000,4,1,0,60,0,1
161947,-74.0740740740741,4,1,0,60,0,1
161957,-1000,4,1,0,60,0,1
161975,-74.0740740740741,4,1,0,60,0,1
161985,-1000,4,1,0,60,0,1
162003,-74.0740740740741,4,1,0,60,0,1
162013,-1000,4,1,0,60,0,1
162031,-74.0740740740741,4,1,0,60,0,1
162041,-1000,4,1,0,60,0,1
162059,-74.0740740740741,4,1,0,60,0,1
162069,-1000,4,1,0,60,0,1
162086,-74.0740740740741,4,1,0,60,0,1
162096,-1000,4,1,0,60,0,1
162114,-74.0740740740741,4,1,0,60,0,1
162124,-1000,4,1,0,60,0,1
162142,-74.0740740740741,4,1,0,60,0,1
162152,-1000,4,1,0,60,0,1
162170,-74.0740740740741,4,1,0,60,0,1
162180,-1000,4,1,0,60,0,1
162197,-74.0740740740741,4,1,0,60,0,1
162207,-1000,4,1,0,60,0,1
162225,-74.0740740740741,4,1,0,60,0,1
162235,-1000,4,1,0,60,0,1
162253,-250,4,1,0,60,0,1
162698,-86.9565217391304,4,1,0,60,0,1
162772,-400,4,1,0,60,0,1
162847,-86.9565217391304,4,1,0,60,0,1
162921,-400,4,1,0,60,0,1
162995,-86.9565217391304,4,1,0,60,0,1
163069,-400,4,1,0,60,0,1
163142,-42.5531914893617,4,1,0,60,0,1
163254,-125,4,1,0,60,0,1
163365,-500,4,1,0,60,0,1
163587,-400,4,1,0,60,0,1
163624,-377.358490566038,4,1,0,60,0,1
163661,-357.142857142857,4,1,0,60,0,1
163698,-338.983050847458,4,1,0,60,0,1
163735,-322.58064516129,4,1,0,60,0,1
163772,-307.692307692308,4,1,0,60,0,1
163809,-294.117647058824,4,1,0,60,0,1
163846,-281.69014084507,4,1,0,60,0,1
163883,-270.27027027027,4,1,0,60,0,1
163920,-259.74025974026,4,1,0,60,0,1
164031,-250,4,1,0,60,0,1
165365,-74.0740740740741,4,1,0,60,0,1
165375,-1000,4,1,0,60,0,1
165392,-74.0740740740741,4,1,0,60,0,1
165402,-1000,4,1,0,60,0,1
165420,-74.0740740740741,4,1,0,60,0,1
165430,-1000,4,1,0,60,0,1
165448,-74.0740740740741,4,1,0,60,0,1
165458,-1000,4,1,0,60,0,1
165476,-74.0740740740741,4,1,0,60,0,1
165486,-1000,4,1,0,60,0,1
165503,-74.0740740740741,4,1,0,60,0,1
165513,-1000,4,1,0,60,0,1
165531,-74.0740740740741,4,1,0,60,0,1
165541,-1000,4,1,0,60,0,1
165559,-74.0740740740741,4,1,0,60,0,1
165569,-1000,4,1,0,60,0,1
165587,-74.0740740740741,4,1,0,60,0,1
165597,-1000,4,1,0,60,0,1
165615,-74.0740740740741,4,1,0,60,0,1
165625,-1000,4,1,0,60,0,1
165642,-74.0740740740741,4,1,0,60,0,1
165652,-1000,4,1,0,60,0,1
165670,-74.0740740740741,4,1,0,60,0,1
165680,-1000,4,1,0,60,0,1
165698,-74.0740740740741,4,1,0,60,0,1
165708,-1000,4,1,0,60,0,1
165726,-74.0740740740741,4,1,0,60,0,1
165736,-1000,4,1,0,60,0,1
165753,-74.0740740740741,4,1,0,60,0,1
165763,-1000,4,1,0,60,0,1
165781,-74.0740740740741,4,1,0,60,0,1
165791,-1000,4,1,0,60,0,1
165809,-250,4,1,0,60,0,1
166254,-86.9565217391304,4,1,0,60,0,1
166328,-400,4,1,0,60,0,1
166402,-86.9565217391304,4,1,0,60,0,1
166476,-400,4,1,0,60,0,1
166550,-86.9565217391304,4,1,0,60,0,1
166624,-400,4,1,0,60,0,1
166698,-142.857142857143,4,1,0,60,0,1
166772,-285.714285714286,4,1,0,60,0,1
166847,-142.857142857143,4,1,0,60,0,1
166921,-285.714285714286,4,1,0,60,0,1
166995,-181.818181818182,4,1,0,60,0,1
167069,-400,4,1,0,60,0,1
167143,-74.0740740740741,4,1,0,60,0,1
167153,-1000,4,1,0,60,0,1
167170,-74.0740740740741,4,1,0,60,0,1
167180,-1000,4,1,0,60,0,1
167198,-74.0740740740741,4,1,0,60,0,1
167208,-1000,4,1,0,60,0,1
167226,-74.0740740740741,4,1,0,60,0,1
167236,-1000,4,1,0,60,0,1
167254,-74.0740740740741,4,1,0,60,0,1
167264,-1000,4,1,0,60,0,1
167281,-74.0740740740741,4,1,0,60,0,1
167291,-1000,4,1,0,60,0,1
167309,-74.0740740740741,4,1,0,60,0,1
167319,-1000,4,1,0,60,0,1
167337,-74.0740740740741,4,1,0,60,0,1
167347,-1000,4,1,0,60,0,1
167365,-74.0740740740741,4,1,0,60,0,1
167375,-1000,4,1,0,60,0,1
167393,-74.0740740740741,4,1,0,60,0,1
167403,-1000,4,1,0,60,0,1
167420,-74.0740740740741,4,1,0,60,0,1
167430,-1000,4,1,0,60,0,1
167448,-74.0740740740741,4,1,0,60,0,1
167458,-1000,4,1,0,60,0,1
167476,-74.0740740740741,4,1,0,60,0,1
167486,-1000,4,1,0,60,0,1
167504,-74.0740740740741,4,1,0,60,0,1
167514,-1000,4,1,0,60,0,1
167531,-74.0740740740741,4,1,0,60,0,1
167541,-1000,4,1,0,60,0,1
167559,-74.0740740740741,4,1,0,60,0,1
167569,-1000,4,1,0,60,0,1
167587,-250,4,1,0,60,0,1
168032,-111.111111111111,4,1,0,60,0,1
168107,-333.333333333333,4,1,0,60,0,1
168180,-111.111111111111,4,1,0,60,0,1
168255,-333.333333333333,4,1,0,60,0,1
168328,-111.111111111111,4,1,0,60,0,1
168403,-333.333333333333,4,1,0,60,0,1
168476,-142.857142857143,4,1,0,60,0,1
168550,-285.714285714286,4,1,0,60,0,1
168624,-142.857142857143,4,1,0,60,0,1
168698,-285.714285714286,4,1,0,60,0,1
168772,-142.857142857143,4,1,0,60,0,1
168846,-285.714285714286,4,1,0,60,0,1
168921,-95.2380952380952,4,1,0,50,0,0
169144,-153.846153846154,4,1,0,50,0,0
169367,-250,4,1,0,50,0,0
169587,-111.111111111111,4,1,0,50,0,0
169588,-111.111111111111,4,1,0,50,0,0
169809,-125,4,1,0,50,0,0
169810,-125,4,1,0,50,0,0
170254,-142.857142857143,4,1,0,50,0,0
170255,-142.857142857143,4,1,0,50,0,0
170476,-166.666666666667,4,1,0,50,0,0
170477,-166.666666666667,4,1,0,50,0,0
170920,-200,4,1,0,50,0,0
170921,-200,4,1,0,50,0,0
171143,-250,4,1,0,50,0,0
171144,-250,4,1,0,50,0,0
171588,-333.333333333333,4,1,0,50,0,0
172032,-500,4,1,0,50,0,0
172087,-15.015015015015,4,1,0,50,0,0
172129,-1000,4,1,0,50,0,0
172420,-19.2307692307692,4,1,0,50,0,0
172462,-1000,4,1,0,50,0,0
172476,-250,4,1,0,50,0,0

[HitObjects]
64,192,1810,128,0,2476:0:0:0:0:
320,192,3587,128,0,4254:0:0:0:0:
192,192,5365,128,0,6032:0:0:0:0:
320,192,7143,128,0,7809:0:0:0:0:
448,192,8921,128,0,9587:0:0:0:0:
320,192,8921,1,0,0:0:0:0:
64,192,9365,1,0,0:0:0:0:
192,192,9809,1,0,0:0:0:0:
448,192,10254,1,0,0:0:0:0:
192,192,10698,128,0,11365:0:0:0:0:
320,192,10698,1,0,0:0:0:0:
448,192,11143,1,0,0:0:0:0:
64,192,11587,1,0,0:0:0:0:
192,192,12032,1,0,0:0:0:0:
320,192,12476,128,0,13143:0:0:0:0:
448,192,12476,1,0,0:0:0:0:
192,192,12921,1,0,0:0:0:0:
64,192,13143,1,0,0:0:0:0:
64,192,13365,1,0,0:0:0:0:
448,192,13365,128,0,13587:0:0:0:0:
320,192,13809,1,0,0:0:0:0:
320,192,14032,1,0,0:0:0:0:
192,192,14254,128,0,14921:0:0:0:0:
64,192,14254,1,0,0:0:0:0:
448,192,14476,1,0,0:0:0:0:
448,192,14698,1,0,0:0:0:0:
192,192,15143,1,0,0:0:0:0:
64,192,15587,1,0,0:0:0:0:
320,192,15809,1,0,0:0:0:0:
64,192,16032,1,0,0:0:0:0:
448,192,16032,1,0,0:0:0:0:
192,192,16032,1,0,0:0:0:0:
192,192,16476,1,0,0:0:0:0:
320,192,16698,1,0,0:0:0:0:
192,192,16921,1,0,0:0:0:0:
64,192,16921,1,0,0:0:0:0:
448,192,16921,1,0,0:0:0:0:
64,192,17365,1,0,0:0:0:0:
192,192,17365,1,0,0:0:0:0:
448,192,17476,1,0,0:0:0:0:
320,192,17532,1,0,0:0:0:0:
192,192,17587,1,0,0:0:0:0:
64,192,17643,1,0,0:0:0:0:
448,192,17698,1,0,0:0:0:0:
320,192,17754,1,0,0:0:0:0:
64,192,17809,1,0,0:0:0:0:
192,192,17809,1,0,0:0:0:0:
448,192,18032,1,0,0:0:0:0:
320,192,18254,1,0,0:0:0:0:
64,192,18254,1,0,0:0:0:0:
64,192,18698,1,0,0:0:0:0:
320,192,18698,1,0,0:0:0:0:
192,192,18698,1,0,0:0:0:0:
448,192,19143,1,0,0:0:0:0:
320,192,19198,1,0,0:0:0:0:
64,192,19254,1,0,0:0:0:0:
192,192,19309,1,0,0:0:0:0:
448,192,19365,1,0,0:0:0:0:
320,192,19421,1,0,0:0:0:0:
64,192,19476,1,0,0:0:0:0:
192,192,19532,1,0,0:0:0:0:
320,192,19587,1,0,0:0:0:0:
448,192,19587,1,0,0:0:0:0:
192,192,20032,1,0,0:0:0:0:
448,192,20254,1,0,0:0:0:0:
64,192,20476,1,0,0:0:0:0:
192,192,20476,1,0,0:0:0:0:
320,192,20476,1,0,0:0:0:0:
320,192,20921,1,0,0:0:0:0:
448,192,20921,1,0,0:0:0:0:
64,192,21032,1,0,0:0:0:0:
192,192,21087,1,0,0:0:0:0:
320,192,21143,1,0,0:0:0:0:
448,192,21198,1,0,0:0:0:0:
64,192,21254,1,0,0:0:0:0:
192,192,21309,1,0,0:0:0:0:
320,192,21365,1,0,0:0:0:0:
448,192,21365,1,0,0:0:0:0:
64,192,21587,1,0,0:0:0:0:
320,192,21809,1,0,0:0:0:0:
192,192,21809,1,0,0:0:0:0:
64,192,22254,1,0,0:0:0:0:
192,192,22254,1,0,0:0:0:0:
448,192,22254,1,0,0:0:0:0:
320,192,22698,1,0,0:0:0:0:
448,192,22754,1,0,0:0:0:0:
192,192,22809,1,0,0:0:0:0:
64,192,22865,1,0,0:0:0:0:
320,192,22921,1,0,0:0:0:0:
448,192,22976,1,0,0:0:0:0:
192,192,23032,1,0,0:0:0:0:
64,192,23087,1,0,0:0:0:0:
448,192,23143,1,0,0:0:0:0:
320,192,23143,1,0,0:0:0:0:
192,192,23587,1,0,0:0:0:0:
448,192,23809,1,0,0:0:0:0:
320,192,24032,1,0,0:0:0:0:
192,192,24032,1,0,0:0:0:0:
64,192,24032,1,0,0:0:0:0:
448,192,24476,1,0,0:0:0:0:
320,192,24476,1,0,0:0:0:0:
192,192,24587,1,0,0:0:0:0:
64,192,24643,1,0,0:0:0:0:
448,192,24698,1,0,0:0:0:0:
320,192,24754,1,0,0:0:0:0:
192,192,24809,1,0,0:0:0:0:
64,192,24865,1,0,0:0:0:0:
448,192,24921,1,0,0:0:0:0:
320,192,24921,1,0,0:0:0:0:
192,192,25143,1,0,0:0:0:0:
64,192,25365,1,0,0:0:0:0:
448,192,25365,1,0,0:0:0:0:
64,192,25809,1,0,0:0:0:0:
448,192,25809,1,0,0:0:0:0:
320,192,25809,1,0,0:0:0:0:
64,192,26254,1,0,0:0:0:0:
192,192,26309,1,0,0:0:0:0:
320,192,26365,1,0,0:0:0:0:
448,192,26421,1,0,0:0:0:0:
64,192,26476,1,0,0:0:0:0:
192,192,26532,1,0,0:0:0:0:
320,192,26587,1,0,0:0:0:0:
448,192,26643,1,0,0:0:0:0:
192,192,26698,1,0,0:0:0:0:
64,192,26698,1,0,0:0:0:0:
64,192,27365,1,0,0:0:0:0:
448,192,27365,1,0,0:0:0:0:
448,192,27587,1,0,0:0:0:0:
64,192,27587,1,0,0:0:0:0:
192,192,28032,1,0,0:0:0:0:
448,192,28032,1,0,0:0:0:0:
192,192,28254,1,0,0:0:0:0:
448,192,28254,1,0,0:0:0:0:
192,192,28698,1,0,0:0:0:0:
320,192,28698,1,0,0:0:0:0:
320,192,28921,1,0,0:0:0:0:
192,192,28921,1,0,0:0:0:0:
320,192,29365,1,0,0:0:0:0:
64,192,29365,1,0,0:0:0:0:
64,192,29809,1,0,0:0:0:0:
192,192,29809,1,0,0:0:0:0:
320,192,30254,1,0,0:0:0:0:
448,192,30254,1,0,0:0:0:0:
64,192,30254,1,0,0:0:0:0:
192,192,30476,1,0,0:0:0:0:
192,192,30698,1,0,0:0:0:0:
320,192,30921,1,0,0:0:0:0:
448,192,30921,1,0,0:0:0:0:
192,192,31143,1,0,0:0:0:0:
64,192,31143,1,0,0:0:0:0:
320,192,31143,1,0,0:0:0:0:
448,192,31365,1,0,0:0:0:0:
64,192,31587,1,0,0:0:0:0:
320,192,31587,1,0,0:0:0:0:
192,192,31809,1,0,0:0:0:0:
64,192,31921,1,0,0:0:0:0:
448,192,32032,128,0,32254:0:0:0:0:
192,192,32254,1,0,0:0:0:0:
64,192,32476,1,0,0:0:0:0:
448,192,32476,1,0,0:0:0:0:
320,192,32698,1,0,0:0:0:0:
448,192,32921,1,0,0:0:0:0:
320,192,32921,1,0,0:0:0:0:
192,192,32921,1,0,0:0:0:0:
64,192,33143,1,0,0:0:0:0:
192,192,33365,1,0,0:0:0:0:
448,192,33476,1,0,0:0:0:0:
64,192,33587,1,0,0:0:0:0:
320,192,33698,1,0,0:0:0:0:
192,192,33809,1,0,0:0:0:0:
448,192,33809,1,0,0:0:0:0:
320,192,34032,1,0,0:0:0:0:
320,192,34254,1,0,0:0:0:0:
64,192,34476,128,0,34698:0:0:0:0:
192,192,34698,1,0,0:0:0:0:
448,192,34698,1,0,0:0:0:0:
320,192,34698,1,0,0:0:0:0:
192,192,34921,1,0,0:0:0:0:
64,192,35143,1,0,0:0:0:0:
448,192,35143,1,0,0:0:0:0:
320,192,35365,1,0,0:0:0:0:
448,192,35476,1,0,0:0:0:0:
192,192,35587,1,0,0:0:0:0:
64,192,35587,1,0,0:0:0:0:
320,192,35809,1,0,0:0:0:0:
448,192,36032,1,0,0:0:0:0:
64,192,36032,1,0,0:0:0:0:
448,192,36254,1,0,0:0:0:0:
192,192,36476,1,0,0:0:0:0:
64,192,36476,1,0,0:0:0:0:
320,192,36476,1,0,0:0:0:0:
192,192,36698,1,0,0:0:0:0:
320,192,36921,1,0,0:0:0:0:
64,192,37032,1,0,0:0:0:0:
192,192,37143,1,0,0:0:0:0:
448,192,37254,1,0,0:0:0:0:
64,192,37365,1,0,0:0:0:0:
320,192,37365,1,0,0:0:0:0:
448,192,37587,1,0,0:0:0:0:
448,192,37809,1,0,0:0:0:0:
192,192,38032,1,0,0:0:0:0:
64,192,38032,1,0,0:0:0:0:
64,192,38254,1,0,0:0:0:0:
320,192,38254,1,0,0:0:0:0:
448,192,38254,1,0,0:0:0:0:
192,192,38476,1,0,0:0:0:0:
320,192,38698,1,0,0:0:0:0:
64,192,38698,1,0,0:0:0:0:
448,192,38921,1,0,0:0:0:0:
320,192,39032,1,0,0:0:0:0:
64,192,39143,128,0,39254:0:0:0:0:
448,192,39365,1,0,0:0:0:0:
192,192,39587,1,0,0:0:0:0:
320,192,39587,1,0,0:0:0:0:
320,192,39809,5,0,0:0:0:0:
64,192,40032,5,0,0:0:0:0:
192,192,40032,1,0,0:0:0:0:
448,192,40032,1,0,0:0:0:0:
192,192,40254,1,0,0:0:0:0:
64,192,40476,1,0,0:0:0:0:
320,192,40587,1,0,0:0:0:0:
64,192,40698,1,0,0:0:0:0:
192,192,40809,1,0,0:0:0:0:
448,192,40921,128,0,41365:0:0:0:0:
320,192,40921,128,0,41365:0:0:0:0:
320,192,41587,1,0,0:0:0:0:
64,192,41587,1,0,0:0:0:0:
64,192,41809,1,0,0:0:0:0:
192,192,41809,1,0,0:0:0:0:
192,192,42254,1,0,0:0:0:0:
448,192,42254,1,0,0:0:0:0:
320,192,42476,1,0,0:0:0:0:
448,192,42476,1,0,0:0:0:0:
320,192,42921,1,0,0:0:0:0:
64,192,42921,1,0,0:0:0:0:
64,192,43143,1,0,0:0:0:0:
448,192,43143,1,0,0:0:0:0:
448,192,43587,1,0,0:0:0:0:
192,192,43587,1,0,0:0:0:0:
192,192,44032,1,0,0:0:0:0:
64,192,44032,1,0,0:0:0:0:
64,192,44476,1,0,0:0:0:0:
320,192,44476,1,0,0:0:0:0:
448,192,44476,1,0,0:0:0:0:
192,192,44698,1,0,0:0:0:0:
320,192,44921,1,0,0:0:0:0:
64,192,45143,1,0,0:0:0:0:
192,192,45143,1,0,0:0:0:0:
192,192,45365,1,0,0:0:0:0:
320,192,45365,1,0,0:0:0:0:
448,192,45365,1,0,0:0:0:0:
64,192,45587,1,0,0:0:0:0:
320,192,45587,1,0,0:0:0:0:
448,192,45587,1,0,0:0:0:0:
64,192,45809,1,0,0:0:0:0:
192,192,45809,1,0,0:0:0:0:
448,192,45809,1,0,0:0:0:0:
64,192,46254,1,0,0:0:0:0:
192,192,46254,1,0,0:0:0:0:
320,192,46254,1,0,0:0:0:0:
448,192,46476,1,0,0:0:0:0:
192,192,46476,1,0,0:0:0:0:
64,192,46476,1,0,0:0:0:0:
64,192,46698,1,0,0:0:0:0:
320,192,46698,1,0,0:0:0:0:
448,192,46698,1,0,0:0:0:0:
320,192,46921,1,0,0:0:0:0:
64,192,47143,1,0,0:0:0:0:
448,192,47143,1,0,0:0:0:0:
192,192,47143,1,0,0:0:0:0:
448,192,47365,1,0,0:0:0:0:
192,192,47587,1,0,0:0:0:0:
320,192,47587,1,0,0:0:0:0:
64,192,47809,1,0,0:0:0:0:
448,192,47809,1,0,0:0:0:0:
64,192,48032,1,0,0:0:0:0:
192,192,48032,1,0,0:0:0:0:
320,192,48254,1,0,0:0:0:0:
320,192,48476,1,0,0:0:0:0:
64,192,48698,1,0,0:0:0:0:
64,192,48921,1,0,0:0:0:0:
192,192,48921,1,0,0:0:0:0:
320,192,48921,1,0,0:0:0:0:
192,192,49143,1,0,0:0:0:0:
320,192,49143,1,0,0:0:0:0:
448,192,49143,1,0,0:0:0:0:
64,192,49365,1,0,0:0:0:0:
192,192,49365,1,0,0:0:0:0:
448,192,49365,1,0,0:0:0:0:
320,192,49587,1,0,0:0:0:0:
192,192,49809,1,0,0:0:0:0:
448,192,50032,1,0,0:0:0:0:
64,192,50032,1,0,0:0:0:0:
320,192,50032,1,0,0:0:0:0:
64,192,50254,1,0,0:0:0:0:
192,192,50254,1,0,0:0:0:0:
320,192,50476,1,0,0:0:0:0:
448,192,50698,1,0,0:0:0:0:
64,192,50698,1,0,0:0:0:0:
192,192,50698,1,0,0:0:0:0:
320,192,50921,1,0,0:0:0:0:
192,192,51143,1,0,0:0:0:0:
448,192,51143,1,0,0:0:0:0:
320,192,51365,1,0,0:0:0:0:
64,192,51365,1,0,0:0:0:0:
448,192,51587,1,0,0:0:0:0:
320,192,51587,1,0,0:0:0:0:
192,192,51809,1,0,0:0:0:0:
192,192,52032,1,0,0:0:0:0:
64,192,52254,1,0,0:0:0:0:
448,192,52254,1,0,0:0:0:0:
64,192,52476,1,0,0:0:0:0:
192,192,52476,1,0,0:0:0:0:
320,192,52476,1,0,0:0:0:0:
320,192,52698,1,0,0:0:0:0:
448,192,52921,1,0,0:0:0:0:
192,192,52921,1,0,0:0:0:0:
320,192,53143,1,0,0:0:0:0:
64,192,53254,1,0,0:0:0:0:
192,192,53365,128,0,53587:0:0:0:0:
448,192,53587,128,0,53809:0:0:0:0:
64,192,53809,1,0,0:0:0:0:
320,192,53809,1,0,0:0:0:0:
320,192,54032,1,0,0:0:0:0:
64,192,54254,1,0,0:0:0:0:
192,192,54254,1,0,0:0:0:0:
448,192,54254,1,0,0:0:0:0:
192,192,54476,1,0,0:0:0:0:
448,192,54698,1,0,0:0:0:0:
320,192,54698,1,0,0:0:0:0:
192,192,54921,1,0,0:0:0:0:
64,192,54921,1,0,0:0:0:0:
448,192,55143,1,0,0:0:0:0:
64,192,55143,1,0,0:0:0:0:
320,192,55809,1,0,0:0:0:0:
192,192,55809,1,0,0:0:0:0:
192,192,56032,1,0,0:0:0:0:
64,192,56032,1,0,0:0:0:0:
64,192,56476,1,0,0:0:0:0:
448,192,56476,1,0,0:0:0:0:
448,192,56698,1,0,0:0:0:0:
320,192,56698,1,0,0:0:0:0:
320,192,57143,1,0,0:0:0:0:
64,192,57143,1,0,0:0:0:0:
64,192,57365,1,0,0:0:0:0:
192,192,57365,1,0,0:0:0:0:
192,192,57809,1,0,0:0:0:0:
448,192,57809,1,0,0:0:0:0:
448,192,58254,1,0,0:0:0:0:
320,192,58254,1,0,0:0:0:0:
64,192,58698,1,0,0:0:0:0:
192,192,58698,1,0,0:0:0:0:
320,192,58698,1,0,0:0:0:0:
448,192,59143,1,0,0:0:0:0:
64,192,59143,1,0,0:0:0:0:
192,192,59365,1,0,0:0:0:0:
64,192,59587,1,0,0:0:0:0:
448,192,59587,1,0,0:0:0:0:
320,192,60032,1,0,0:0:0:0:
448,192,60032,1,0,0:0:0:0:
192,192,60254,1,0,0:0:0:0:
64,192,60254,1,0,0:0:0:0:
448,192,60476,1,0,0:0:0:0:
192,192,60476,1,0,0:0:0:0:
320,192,60698,1,0,0:0:0:0:
192,192,60921,1,0,0:0:0:0:
448,192,60921,1,0,0:0:0:0:
192,192,61365,1,0,0:0:0:0:
448,192,61365,1,0,0:0:0:0:
64,192,61809,1,0,0:0:0:0:
448,192,61809,1,0,0:0:0:0:
320,192,62032,1,0,0:0:0:0:
192,192,62032,1,0,0:0:0:0:
64,192,62254,1,0,0:0:0:0:
192,192,62254,1,0,0:0:0:0:
64,192,62698,1,0,0:0:0:0:
192,192,62698,1,0,0:0:0:0:
320,192,62921,1,0,0:0:0:0:
64,192,63143,1,0,0:0:0:0:
192,192,63143,1,0,0:0:0:0:
448,192,63587,1,0,0:0:0:0:
192,192,63587,1,0,0:0:0:0:
320,192,63809,1,0,0:0:0:0:
64,192,63809,1,0,0:0:0:0:
192,192,64032,1,0,0:0:0:0:
320,192,64032,1,0,0:0:0:0:
448,192,64254,1,0,0:0:0:0:
192,192,64476,1,0,0:0:0:0:
320,192,64476,1,0,0:0:0:0:
192,192,64921,1,0,0:0:0:0:
320,192,64921,1,0,0:0:0:0:
64,192,65365,1,0,0:0:0:0:
192,192,65365,1,0,0:0:0:0:
320,192,65587,1,0,0:0:0:0:
448,192,65587,1,0,0:0:0:0:
192,192,65809,1,0,0:0:0:0:
448,192,65809,1,0,0:0:0:0:
64,192,65921,1,0,0:0:0:0:
192,192,66032,1,0,0:0:0:0:
320,192,66143,1,0,0:0:0:0:
192,192,66254,1,0,0:0:0:0:
448,192,66254,1,0,0:0:0:0:
320,192,66365,1,0,0:0:0:0:
64,192,66476,1,0,0:0:0:0:
320,192,66587,1,0,0:0:0:0:
192,192,66698,1,0,0:0:0:0:
448,192,66698,1,0,0:0:0:0:
320,192,66809,1,0,0:0:0:0:
192,192,66921,1,0,0:0:0:0:
64,192,67032,1,0,0:0:0:0:
192,192,67143,1,0,0:0:0:0:
320,192,67143,1,0,0:0:0:0:
64,192,67365,1,0,0:0:0:0:
448,192,67365,1,0,0:0:0:0:
320,192,67587,1,0,0:0:0:0:
448,192,67587,1,0,0:0:0:0:
192,192,67698,1,0,0:0:0:0:
64,192,67809,1,0,0:0:0:0:
192,192,67921,1,0,0:0:0:0:
320,192,68032,1,0,0:0:0:0:
448,192,68032,1,0,0:0:0:0:
64,192,68143,1,0,0:0:0:0:
192,192,68254,1,0,0:0:0:0:
64,192,68365,1,0,0:0:0:0:
320,192,68476,1,0,0:0:0:0:
448,192,68476,1,0,0:0:0:0:
192,192,68587,1,0,0:0:0:0:
320,192,68698,1,0,0:0:0:0:
448,192,68809,1,0,0:0:0:0:
64,192,68921,1,0,0:0:0:0:
320,192,68921,1,0,0:0:0:0:
192,192,69143,1,0,0:0:0:0:
448,192,69143,1,0,0:0:0:0:
64,192,69365,1,0,0:0:0:0:
320,192,69365,1,0,0:0:0:0:
192,192,69476,1,0,0:0:0:0:
64,192,69587,1,0,0:0:0:0:
320,192,69698,1,0,0:0:0:0:
448,192,69809,1,0,0:0:0:0:
192,192,69809,1,0,0:0:0:0:
64,192,69921,1,0,0:0:0:0:
448,192,70032,1,0,0:0:0:0:
192,192,70143,1,0,0:0:0:0:
64,192,70254,1,0,0:0:0:0:
320,192,70254,1,0,0:0:0:0:
448,192,70365,1,0,0:0:0:0:
192,192,70476,1,0,0:0:0:0:
64,192,70587,1,0,0:0:0:0:
320,192,70698,1,0,0:0:0:0:
448,192,70698,1,0,0:0:0:0:
192,192,70921,1,0,0:0:0:0:
64,192,70921,1,0,0:0:0:0:
448,192,71143,1,0,0:0:0:0:
64,192,71365,1,0,0:0:0:0:
192,192,71587,1,0,0:0:0:0:
320,192,71587,1,0,0:0:0:0:
448,192,71587,1,0,0:0:0:0:
64,192,71809,1,0,0:0:0:0:
192,192,71809,1,0,0:0:0:0:
448,192,71809,1,0,0:0:0:0:
64,192,72032,1,0,0:0:0:0:
192,192,72032,1,0,0:0:0:0:
320,192,72032,1,0,0:0:0:0:
448,192,72254,1,0,0:0:0:0:
64,192,72365,1,0,0:0:0:0:
192,192,72476,1,0,0:0:0:0:
320,192,72476,1,0,0:0:0:0:
448,192,72698,1,0,0:0:0:0:
64,192,72698,1,0,0:0:0:0:
448,192,72921,1,0,0:0:0:0:
192,192,72921,1,0,0:0:0:0:
320,192,72921,128,0,73365:0:0:0:0:
64,192,73365,1,0,0:0:0:0:
192,192,73587,1,0,0:0:0:0:
448,192,73809,128,0,74698:0:0:0:0:
320,192,73809,1,0,0:0:0:0:
64,192,73809,1,0,0:0:0:0:
192,192,74698,128,0,75143:0:0:0:0:
64,192,74698,1,0,0:0:0:0:
320,192,75143,1,0,0:0:0:0:
448,192,75365,1,0,0:0:0:0:
64,192,75587,128,0,76032:0:0:0:0:
192,192,75587,1,0,0:0:0:0:
320,192,75587,1,0,0:0:0:0:
320,192,76032,128,0,76476:0:0:0:0:
192,192,76476,128,0,76921:0:0:0:0:
64,192,76476,1,0,0:0:0:0:
448,192,76921,1,0,0:0:0:0:
320,192,77143,1,0,0:0:0:0:
64,192,77365,128,0,77809:0:0:0:0:
192,192,77365,1,0,0:0:0:0:
448,192,77365,1,0,0:0:0:0:
320,192,77809,128,0,78254:0:0:0:0:
448,192,78254,128,0,78698:0:0:0:0:
64,192,78254,1,0,0:0:0:0:
192,192,78698,1,0,0:0:0:0:
64,192,78921,1,0,0:0:0:0:
320,192,79143,1,0,0:0:0:0:
192,192,79143,1,0,0:0:0:0:
448,192,79143,1,0,0:0:0:0:
448,192,79365,1,0,0:0:0:0:
320,192,79587,1,0,0:0:0:0:
192,192,79809,1,0,0:0:0:0:
64,192,80032,128,0,80476:0:0:0:0:
448,192,80032,1,0,0:0:0:0:
192,192,80476,1,0,0:0:0:0:
320,192,80698,1,0,0:0:0:0:
192,192,80921,128,0,81809:0:0:0:0:
448,192,80921,1,0,0:0:0:0:
64,192,80921,1,0,0:0:0:0:
448,192,81809,128,0,82254:0:0:0:0:
320,192,81809,1,0,0:0:0:0:
64,192,82254,1,0,0:0:0:0:
320,192,82476,1,0,0:0:0:0:
192,192,82698,128,0,83143:0:0:0:0:
448,192,82698,1,0,0:0:0:0:
64,192,82698,1,0,0:0:0:0:
64,192,83143,128,0,83587:0:0:0:0:
320,192,83587,1,0,0:0:0:0:
448,192,83587,128,0,84032:0:0:0:0:
64,192,84254,1,0,0:0:0:0:
192,192,84254,1,0,0:0:0:0:
64,192,84476,1,0,0:0:0:0:
320,192,84476,1,0,0:0:0:0:
192,192,84921,1,0,0:0:0:0:
320,192,84921,1,0,0:0:0:0:
192,192,85143,1,0,0:0:0:0:
448,192,85143,1,0,0:0:0:0:
320,192,85587,1,0,0:0:0:0:
448,192,85587,1,0,0:0:0:0:
320,192,85809,1,0,0:0:0:0:
64,192,85809,1,0,0:0:0:0:
64,192,86254,1,0,0:0:0:0:
448,192,86254,1,0,0:0:0:0:
448,192,86698,1,0,0:0:0:0:
192,192,86698,1,0,0:0:0:0:
320,192,87143,1,0,0:0:0:0:
448,192,87143,1,0,0:0:0:0:
64,192,87143,128,0,87587:0:0:0:0:
320,192,87587,1,0,0:0:0:0:
320,192,87809,1,0,0:0:0:0:
192,192,88032,128,0,88921:0:0:0:0:
448,192,88032,1,0,0:0:0:0:
64,192,88032,1,0,0:0:0:0:
448,192,88921,128,0,89365:0:0:0:0:
320,192,88921,1,0,0:0:0:0:
64,192,89365,1,0,0:0:0:0:
64,192,89587,1,0,0:0:0:0:
320,192,89809,128,0,90254:0:0:0:0:
192,192,89809,1,0,0:0:0:0:
448,192,89809,1,0,0:0:0:0:
64,192,90254,128,0,90698:0:0:0:0:
448,192,90698,128,0,91143:0:0:0:0:
320,192,90698,1,0,0:0:0:0:
192,192,91143,1,0,0:0:0:0:
192,192,91365,1,0,0:0:0:0:
64,192,91587,128,0,92032:0:0:0:0:
320,192,91587,1,0,0:0:0:0:
448,192,91587,1,0,0:0:0:0:
192,192,92032,128,0,92476:0:0:0:0:
320,192,92476,128,0,92921:0:0:0:0:
64,192,92476,1,0,0:0:0:0:
64,192,92921,1,0,0:0:0:0:
448,192,93143,1,0,0:0:0:0:
320,192,93365,1,0,0:0:0:0:
192,192,93365,1,0,0:0:0:0:
64,192,93365,1,0,0:0:0:0:
448,192,93587,1,0,0:0:0:0:
320,192,93809,1,0,0:0:0:0:
64,192,94032,1,0,0:0:0:0:
320,192,94254,128,0,94698:0:0:0:0:
448,192,94254,1,0,0:0:0:0:
192,192,94698,1,0,0:0:0:0:
192,192,94921,1,0,0:0:0:0:
64,192,95143,128,0,96032:0:0:0:0:
320,192,95143,1,0,0:0:0:0:
448,192,95143,1,0,0:0:0:0:
448,192,96032,128,0,96476:0:0:0:0:
192,192,96032,1,0,0:0:0:0:
320,192,96476,1,0,0:0:0:0:
320,192,96698,1,0,0:0:0:0:
192,192,96921,128,0,97365:0:0:0:0:
64,192,96921,1,0,0:0:0:0:
448,192,96921,1,0,0:0:0:0:
448,192,97365,128,0,97809:0:0:0:0:
64,192,97809,128,0,98254:0:0:0:0:
192,192,97809,1,0,0:0:0:0:
320,192,97809,1,0,0:0:0:0:
192,192,98476,1,0,0:0:0:0:
448,192,98476,1,0,0:0:0:0:
320,192,98698,1,0,0:0:0:0:
448,192,98698,1,0,0:0:0:0:
320,192,99143,1,0,0:0:0:0:
64,192,99143,1,0,0:0:0:0:
64,192,99365,1,0,0:0:0:0:
192,192,99365,1,0,0:0:0:0:
192,192,99809,1,0,0:0:0:0:
320,192,99809,1,0,0:0:0:0:
320,192,100032,1,0,0:0:0:0:
448,192,100032,1,0,0:0:0:0:
448,192,100476,1,0,0:0:0:0:
64,192,100476,1,0,0:0:0:0:
192,192,100476,1,0,0:0:0:0:
64,192,100921,1,0,0:0:0:0:
320,192,100921,1,0,0:0:0:0:
448,192,100921,1,0,0:0:0:0:
64,192,101365,1,0,0:0:0:0:
192,192,101365,1,0,0:0:0:0:
320,192,101365,1,0,0:0:0:0:
448,192,101587,1,0,0:0:0:0:
448,192,101809,1,0,0:0:0:0:
64,192,102032,1,0,0:0:0:0:
320,192,102032,1,0,0:0:0:0:
192,192,102254,1,0,0:0:0:0:
448,192,102254,1,0,0:0:0:0:
64,192,102254,1,0,0:0:0:0:
192,192,102476,1,0,0:0:0:0:
448,192,102698,1,0,0:0:0:0:
320,192,102698,1,0,0:0:0:0:
64,192,102809,1,0,0:0:0:0:
192,192,102865,1,0,0:0:0:0:
448,192,102921,1,0,0:0:0:0:
320,192,102976,1,0,0:0:0:0:
64,192,103032,1,0,0:0:0:0:
192,192,103087,1,0,0:0:0:0:
448,192,103143,1,0,0:0:0:0:
320,192,103143,1,0,0:0:0:0:
64,192,103365,1,0,0:0:0:0:
192,192,103587,1,0,0:0:0:0:
448,192,103587,1,0,0:0:0:0:
320,192,103809,1,0,0:0:0:0:
192,192,104032,1,0,0:0:0:0:
64,192,104032,1,0,0:0:0:0:
448,192,104032,1,0,0:0:0:0:
64,192,104254,1,0,0:0:0:0:
448,192,104476,1,0,0:0:0:0:
320,192,104532,1,0,0:0:0:0:
192,192,104587,1,0,0:0:0:0:
64,192,104643,1,0,0:0:0:0:
448,192,104698,1,0,0:0:0:0:
320,192,104754,1,0,0:0:0:0:
192,192,104809,1,0,0:0:0:0:
64,192,104865,1,0,0:0:0:0:
320,192,104921,1,0,0:0:0:0:
448,192,104921,1,0,0:0:0:0:
192,192,105143,1,0,0:0:0:0:
192,192,105365,1,0,0:0:0:0:
448,192,105587,128,0,105809:0:0:0:0:
320,192,105809,1,0,0:0:0:0:
192,192,105809,1,0,0:0:0:0:
64,192,105809,1,0,0:0:0:0:
320,192,106032,1,0,0:0:0:0:
192,192,106254,1,0,0:0:0:0:
64,192,106254,1,0,0:0:0:0:
448,192,106365,1,0,0:0:0:0:
320,192,106421,1,0,0:0:0:0:
192,192,106476,1,0,0:0:0:0:
64,192,106532,1,0,0:0:0:0:
448,192,106587,1,0,0:0:0:0:
320,192,106643,1,0,0:0:0:0:
192,192,106698,1,0,0:0:0:0:
64,192,106698,1,0,0:0:0:0:
448,192,106921,1,0,0:0:0:0:
192,192,107143,1,0,0:0:0:0:
320,192,107143,1,0,0:0:0:0:
64,192,107365,1,0,0:0:0:0:
192,192,107587,1,0,0:0:0:0:
320,192,107587,1,0,0:0:0:0:
448,192,107587,1,0,0:0:0:0:
64,192,107809,1,0,0:0:0:0:
192,192,108032,1,0,0:0:0:0:
448,192,108032,1,0,0:0:0:0:
320,192,108143,1,0,0:0:0:0:
64,192,108198,1,0,0:0:0:0:
192,192,108254,1,0,0:0:0:0:
448,192,108309,1,0,0:0:0:0:
320,192,108365,1,0,0:0:0:0:
64,192,108421,1,0,0:0:0:0:
192,192,108476,1,0,0:0:0:0:
448,192,108476,1,0,0:0:0:0:
320,192,108698,1,0,0:0:0:0:
320,192,108921,1,0,0:0:0:0:
64,192,109143,1,0,0:0:0:0:
192,192,109143,1,0,0:0:0:0:
64,192,109365,1,0,0:0:0:0:
320,192,109365,1,0,0:0:0:0:
448,192,109365,1,0,0:0:0:0:
192,192,109587,1,0,0:0:0:0:
64,192,109809,1,0,0:0:0:0:
448,192,109809,1,0,0:0:0:0:
320,192,109865,1,0,0:0:0:0:
192,192,109921,1,0,0:0:0:0:
64,192,109976,1,0,0:0:0:0:
448,192,110032,1,0,0:0:0:0:
320,192,110087,1,0,0:0:0:0:
192,192,110143,1,0,0:0:0:0:
64,192,110198,1,0,0:0:0:0:
320,192,110254,1,0,0:0:0:0:
448,192,110254,1,0,0:0:0:0:
192,192,110476,1,0,0:0:0:0:
64,192,110698,1,0,0:0:0:0:
320,192,110698,1,0,0:0:0:0:
448,192,110921,1,0,0:0:0:0:
192,192,111143,1,0,0:0:0:0:
320,192,111143,1,0,0:0:0:0:
64,192,111143,1,0,0:0:0:0:
448,192,111365,1,0,0:0:0:0:
192,192,111587,1,0,0:0:0:0:
320,192,111698,1,0,0:0:0:0:
448,192,111754,1,0,0:0:0:0:
64,192,111809,1,0,0:0:0:0:
192,192,111865,1,0,0:0:0:0:
320,192,111921,1,0,0:0:0:0:
448,192,111976,1,0,0:0:0:0:
64,192,112032,1,0,0:0:0:0:
192,192,112032,1,0,0:0:0:0:
448,192,112698,1,0,0:0:0:0:
64,192,112698,1,0,0:0:0:0:
64,192,112921,1,0,0:0:0:0:
320,192,112921,1,0,0:0:0:0:
320,192,113365,1,0,0:0:0:0:
192,192,113365,1,0,0:0:0:0:
192,192,113587,1,0,0:0:0:0:
448,192,113587,1,0,0:0:0:0:
320,192,114032,1,0,0:0:0:0:
448,192,114032,1,0,0:0:0:0:
320,192,114254,1,0,0:0:0:0:
192,192,114254,1,0,0:0:0:0:
192,192,114698,1,0,0:0:0:0:
448,192,114698,1,0,0:0:0:0:
448,192,115143,1,0,0:0:0:0:
64,192,115143,1,0,0:0:0:0:
64,192,115587,1,0,0:0:0:0:
320,192,115587,1,0,0:0:0:0:
192,192,116032,1,0,0:0:0:0:
448,192,116476,1,0,0:0:0:0:
64,192,116921,1,0,0:0:0:0:
192,192,117365,1,0,0:0:0:0:
448,192,117809,1,0,0:0:0:0:
320,192,118254,1,0,0:0:0:0:
64,192,118698,1,0,0:0:0:0:
448,192,119143,1,0,0:0:0:0:
192,192,119587,1,0,0:0:0:0:
320,192,120032,1,0,0:0:0:0:
64,192,120476,1,0,0:0:0:0:
448,192,120921,1,0,0:0:0:0:
320,192,121365,1,0,0:0:0:0:
64,192,121365,128,0,121476:0:0:0:0:
192,192,121809,1,0,0:0:0:0:
448,192,122254,128,0,122365:0:0:0:0:
64,192,122254,1,0,0:0:0:0:
192,192,122698,1,0,0:0:0:0:
320,192,123143,128,0,123254:0:0:0:0:
448,192,123143,1,0,0:0:0:0:
64,192,123587,1,0,0:0:0:0:
192,192,124032,128,0,124143:0:0:0:0:
320,192,124032,1,0,0:0:0:0:
448,192,124476,1,0,0:0:0:0:
64,192,124921,128,0,125032:0:0:0:0:
192,192,124921,1,0,0:0:0:0:
320,192,125365,1,0,0:0:0:0:
448,192,125809,128,0,125921:0:0:0:0:
64,192,125809,1,0,0:0:0:0:
64,192,126254,1,0,0:0:0:0:
320,192,126254,1,0,0:0:0:0:
192,192,126254,128,0,128032:0:0:0:0:
320,192,129254,1,0,0:0:0:0:
448,192,129254,1,0,0:0:0:0:
64,192,129587,1,0,0:0:0:0:
192,192,129587,1,0,0:0:0:0:
448,192,129809,5,0,0:0:0:0:
320,192,129809,1,0,0:0:0:0:
192,192,129809,1,0,0:0:0:0:
64,192,130254,1,0,0:0:0:0:
448,192,130254,1,0,0:0:0:0:
320,192,130476,1,0,0:0:0:0:
448,192,130698,1,0,0:0:0:0:
64,192,130698,1,0,0:0:0:0:
192,192,131143,1,0,0:0:0:0:
64,192,131143,1,0,0:0:0:0:
320,192,131365,1,0,0:0:0:0:
448,192,131365,1,0,0:0:0:0:
64,192,131587,1,0,0:0:0:0:
320,192,131587,1,0,0:0:0:0:
192,192,131809,1,0,0:0:0:0:
320,192,132032,1,0,0:0:0:0:
64,192,132032,1,0,0:0:0:0:
320,192,132476,1,0,0:0:0:0:
64,192,132476,1,0,0:0:0:0:
448,192,132921,1,0,0:0:0:0:
64,192,132921,1,0,0:0:0:0:
192,192,133143,1,0,0:0:0:0:
320,192,133143,1,0,0:0:0:0:
448,192,133365,1,0,0:0:0:0:
320,192,133365,1,0,0:0:0:0:
448,192,133809,1,0,0:0:0:0:
320,192,133809,1,0,0:0:0:0:
192,192,134032,1,0,0:0:0:0:
448,192,134254,1,0,0:0:0:0:
320,192,134254,1,0,0:0:0:0:
64,192,134698,1,0,0:0:0:0:
320,192,134698,1,0,0:0:0:0:
192,192,134921,1,0,0:0:0:0:
448,192,134921,1,0,0:0:0:0:
320,192,135143,1,0,0:0:0:0:
192,192,135143,1,0,0:0:0:0:
64,192,135365,1,0,0:0:0:0:
320,192,135587,1,0,0:0:0:0:
192,192,135587,1,0,0:0:0:0:
320,192,136032,1,0,0:0:0:0:
192,192,136032,1,0,0:0:0:0:
448,192,136476,1,0,0:0:0:0:
320,192,136476,1,0,0:0:0:0:
192,192,136698,1,0,0:0:0:0:
64,192,136698,1,0,0:0:0:0:
320,192,136921,1,0,0:0:0:0:
64,192,136921,1,0,0:0:0:0:
448,192,137032,1,0,0:0:0:0:
320,192,137143,1,0,0:0:0:0:
192,192,137254,1,0,0:0:0:0:
320,192,137365,1,0,0:0:0:0:
64,192,137365,1,0,0:0:0:0:
192,192,137476,1,0,0:0:0:0:
448,192,137587,1,0,0:0:0:0:
192,192,137698,1,0,0:0:0:0:
320,192,137809,1,0,0:0:0:0:
64,192,137809,1,0,0:0:0:0:
192,192,137921,1,0,0:0:0:0:
320,192,138032,1,0,0:0:0:0:
448,192,138143,1,0,0:0:0:0:
320,192,138254,1,0,0:0:0:0:
192,192,138254,1,0,0:0:0:0:
448,192,138476,1,0,0:0:0:0:
64,192,138476,1,0,0:0:0:0:
192,192,138698,1,0,0:0:0:0:
64,192,138698,1,0,0:0:0:0:
320,192,138809,1,0,0:0:0:0:
448,192,138921,1,0,0:0:0:0:
320,192,139032,1,0,0:0:0:0:
192,192,139143,1,0,0:0:0:0:
64,192,139143,1,0,0:0:0:0:
448,192,139254,1,0,0:0:0:0:
320,192,139365,1,0,0:0:0:0:
448,192,139476,1,0,0:0:0:0:
192,192,139587,1,0,0:0:0:0:
64,192,139587,1,0,0:0:0:0:
320,192,139698,1,0,0:0:0:0:
192,192,139809,1,0,0:0:0:0:
64,192,139921,1,0,0:0:0:0:
448,192,140032,1,0,0:0:0:0:
192,192,140032,1,0,0:0:0:0:
320,192,140254,1,0,0:0:0:0:
64,192,140254,1,0,0:0:0:0:
448,192,140476,1,0,0:0:0:0:
192,192,140476,1,0,0:0:0:0:
320,192,140587,1,0,0:0:0:0:
448,192,140698,1,0,0:0:0:0:
192,192,140809,1,0,0:0:0:0:
64,192,140921,1,0,0:0:0:0:
320,192,140921,1,0,0:0:0:0:
448,192,141032,1,0,0:0:0:0:
64,192,141143,1,0,0:0:0:0:
320,192,141254,1,0,0:0:0:0:
448,192,141365,1,0,0:0:0:0:
192,192,141365,1,0,0:0:0:0:
64,192,141476,1,0,0:0:0:0:
320,192,141587,1,0,0:0:0:0:
448,192,141698,1,0,0:0:0:0:
192,192,141809,1,0,0:0:0:0:
64,192,141809,1,0,0:0:0:0:
320,192,142032,1,0,0:0:0:0:
448,192,142032,1,0,0:0:0:0:
64,192,142254,1,0,0:0:0:0:
448,192,142476,1,0,0:0:0:0:
320,192,142698,1,0,0:0:0:0:
192,192,142698,1,0,0:0:0:0:
64,192,142698,1,0,0:0:0:0:
448,192,142921,1,0,0:0:0:0:
320,192,142921,1,0,0:0:0:0:
64,192,142921,1,0,0:0:0:0:
448,192,143143,1,0,0:0:0:0:
320,192,143143,1,0,0:0:0:0:
192,192,143143,1,0,0:0:0:0:
64,192,143365,1,0,0:0:0:0:
448,192,143476,1,0,0:0:0:0:
320,192,143587,1,0,0:0:0:0:
192,192,143587,1,0,0:0:0:0:
64,192,143809,1,0,0:0:0:0:
448,192,143809,1,0,0:0:0:0:
64,192,144032,1,0,0:0:0:0:
320,192,144032,1,0,0:0:0:0:
192,192,144032,128,0,144476:0:0:0:0:
448,192,144476,1,0,0:0:0:0:
320,192,144698,1,0,0:0:0:0:
64,192,144921,128,0,145809:0:0:0:0:
192,192,144921,1,0,0:0:0:0:
448,192,144921,1,0,0:0:0:0:
320,192,145809,128,0,146254:0:0:0:0:
448,192,145809,1,0,0:0:0:0:
192,192,146254,1,0,0:0:0:0:
64,192,146476,1,0,0:0:0:0:
448,192,146698,128,0,147143:0:0:0:0:
320,192,146698,1,0,0:0:0:0:
192,192,146698,1,0,0:0:0:0:
192,192,147143,128,0,147587:0:0:0:0:
320,192,147587,128,0,148032:0:0:0:0:
448,192,147587,1,0,0:0:0:0:
64,192,148032,1,0,0:0:0:0:
192,192,148254,1,0,0:0:0:0:
448,192,148476,128,0,148921:0:0:0:0:
320,192,148476,1,0,0:0:0:0:
64,192,148476,1,0,0:0:0:0:
192,192,148921,128,0,149365:0:0:0:0:
64,192,149365,128,0,149809:0:0:0:0:
448,192,149365,1,0,0:0:0:0:
320,192,149809,1,0,0:0:0:0:
448,192,150032,1,0,0:0:0:0:
192,192,150254,1,0,0:0:0:0:
320,192,150254,1,0,0:0:0:0:
64,192,150254,1,0,0:0:0:0:
64,192,150476,1,0,0:0:0:0:
192,192,150698,1,0,0:0:0:0:
320,192,150921,1,0,0:0:0:0:
448,192,151143,128,0,151587:0:0:0:0:
64,192,151143,1,0,0:0:0:0:
320,192,151587,1,0,0:0:0:0:
192,192,151809,1,0,0:0:0:0:
320,192,152032,128,0,152921:0:0:0:0:
64,192,152032,1,0,0:0:0:0:
448,192,152032,1,0,0:0:0:0:
64,192,152921,128,0,153365:0:0:0:0:
192,192,152921,1,0,0:0:0:0:
448,192,153365,1,0,0:0:0:0:
192,192,153587,1,0,0:0:0:0:
320,192,153809,128,0,154254:0:0:0:0:
64,192,153809,1,0,0:0:0:0:
448,192,153809,1,0,0:0:0:0:
448,192,154254,128,0,154698:0:0:0:0:
192,192,154698,1,0,0:0:0:0:
64,192,154698,128,0,155143:0:0:0:0:
448,192,155365,1,0,0:0:0:0:
320,192,155365,1,0,0:0:0:0:
448,192,155587,1,0,0:0:0:0:
192,192,155587,1,0,0:0:0:0:
320,192,156032,1,0,0:0:0:0:
192,192,156032,1,0,0:0:0:0:
320,192,156254,1,0,0:0:0:0:
64,192,156254,1,0,0:0:0:0:
192,192,156698,1,0,0:0:0:0:
64,192,156698,1,0,0:0:0:0:
192,192,156921,1,0,0:0:0:0:
448,192,156921,1,0,0:0:0:0:
448,192,157365,1,0,0:0:0:0:
64,192,157365,1,0,0:0:0:0:
64,192,157809,1,0,0:0:0:0:
320,192,157809,1,0,0:0:0:0:
192,192,158254,1,0,0:0:0:0:
64,192,158254,1,0,0:0:0:0:
448,192,158254,128,0,158698:0:0:0:0:
192,192,158698,1,0,0:0:0:0:
192,192,158921,1,0,0:0:0:0:
320,192,159143,128,0,160032:0:0:0:0:
64,192,159143,1,0,0:0:0:0:
448,192,159143,1,0,0:0:0:0:
64,192,160032,128,0,160476:0:0:0:0:
192,192,160032,1,0,0:0:0:0:
448,192,160476,1,0,0:0:0:0:
448,192,160698,1,0,0:0:0:0:
192,192,160921,128,0,161365:0:0:0:0:
320,192,160921,1,0,0:0:0:0:
64,192,160921,1,0,0:0:0:0:
448,192,161365,128,0,161809:0:0:0:0:
64,192,161809,128,0,162254:0:0:0:0:
192,192,161809,1,0,0:0:0:0:
320,192,162254,1,0,0:0:0:0:
320,192,162476,1,0,0:0:0:0:
448,192,162698,128,0,163143:0:0:0:0:
192,192,162698,1,0,0:0:0:0:
64,192,162698,1,0,0:0:0:0:
320,192,163143,128,0,163587:0:0:0:0:
192,192,163587,128,0,164032:0:0:0:0:
448,192,163587,1,0,0:0:0:0:
448,192,164032,1,0,0:0:0:0:
64,192,164254,1,0,0:0:0:0:
192,192,164476,1,0,0:0:0:0:
320,192,164476,1,0,0:0:0:0:
448,192,164476,1,0,0:0:0:0:
64,192,164698,1,0,0:0:0:0:
192,192,164921,1,0,0:0:0:0:
448,192,165143,1,0,0:0:0:0:
192,192,165365,128,0,165809:0:0:0:0:
64,192,165365,1,0,0:0:0:0:
320,192,165809,1,0,0:0:0:0:
320,192,166032,1,0,0:0:0:0:
448,192,166254,128,0,167143:0:0:0:0:
192,192,166254,1,0,0:0:0:0:
64,192,166254,1,0,0:0:0:0:
64,192,167143,128,0,167587:0:0:0:0:
320,192,167143,1,0,0:0:0:0:
192,192,167587,1,0,0:0:0:0:
192,192,167809,1,0,0:0:0:0:
320,192,168032,128,0,168476:0:0:0:0:
448,192,168032,1,0,0:0:0:0:
64,192,168032,1,0,0:0:0:0:
64,192,168476,128,0,168921:0:0:0:0:
448,192,168921,128,0,169365:0:0:0:0:
320,192,168921,1,0,0:0:0:0:
192,192,168921,1,0,0:0:0:0:
64,192,169587,1,0,0:0:0:0:
320,192,169587,1,0,0:0:0:0:
320,192,169809,1,0,0:0:0:0:
192,192,169809,1,0,0:0:0:0:
64,192,170254,1,0,0:0:0:0:
192,192,170254,1,0,0:0:0:0:
64,192,170476,1,0,0:0:0:0:
448,192,170476,1,0,0:0:0:0:
448,192,170921,1,0,0:0:0:0:
320,192,170921,1,0,0:0:0:0:
320,192,171143,1,0,0:0:0:0:
64,192,171143,1,0,0:0:0:0:
64,192,171587,1,0,0:0:0:0:
192,192,171587,1,0,0:0:0:0:
192,192,172032,1,0,0:0:0:0:
448,192,172032,1,0,0:0:0:0:
448,192,172476,1,0,0:0:0:0:
320,192,172476,128,0,174254:0:0:0:0:
