osu file format v14

[General]
AudioFilename: Noisestorm - Breakdown VIP.mp3
AudioLeadIn: 0
PreviewTime: 82786
Countdown: 0
SampleSet: Soft
StackLeniency: 0.7
Mode: 0
LetterboxInBreaks: 0
WidescreenStoryboard: 1

[Editor]
Bookmarks: 11144,33209,44165,44243,52523,54247,55282,77351,96579
DistanceSpacing: 0.7
BeatDivisor: 1
GridSize: 8
TimelineZoom: 2.3

[Metadata]
Title:Breakdown VIP
TitleUnicode:Breakdown VIP
Artist:Noisestorm
ArtistUnicode:Noisestorm
Creator:[ESKA]
Version:Easy
Source:Monstercat Release
Tags:dnb drum and bass drumstep monstercat etc zanzaiko pidoras
BeatmapID:904313
BeatmapSetID:416321

[Difficulty]
HPDrainRate:2
CircleSize:2
OverallDifficulty:2
ApproachRate:3
SliderMultiplier:1
SliderTickRate:1

[Events]
//Background and Video events
0,0,"BG.jpg",0,0
//Break Periods
2,33412,42807
//Storyboard Layer 0 (Background)
//Storyboard Layer 1 (Fail)
//Storyboard Layer 2 (Pass)
//Storyboard Layer 3 (Foreground)
//Storyboard Sound Samples

[TimingPoints]
110,344.827586206897,4,2,0,90,1,0
11144,-100,4,2,0,90,0,0
44161,-100,4,2,0,90,0,0
55278,-100,4,2,0,90,0,0
71657,-100,4,2,0,90,0,0
77351,-100,4,2,0,90,0,1
96316,-100,4,2,0,90,0,0

[Colours]
Combo1 : 0,64,64
Combo2 : 64,128,128
Combo3 : 192,192,192
Combo4 : 128,128,128

[HitObjects]
392,140,11144,6,0,B|328:168|276:76|192:120,1,200
64,152,12523,2,0,B|16:240|80:344,1,200
200,304,13903,2,0,P|316:260|376:328,1,200
496,248,15282,6,0,P|356:140|316:152,1,200
224,192,16661,2,0,P|190:106|269:59,1,200
408,64,18041,6,0,B|453:170|340:228,1,200
224,304,19420,5,0,0:0:0:0:
264,168,20110,2,0,B|290:56|426:88,1,200
464,216,21489,2,0,P|388:277|293:261,1,200
168,200,22868,1,0,0:0:0:0:
256,88,23558,6,0,P|346:49|441:74,1,200
360,192,24937,2,0,P|263:211|202:287,2,200
360,328,27006,5,0,0:0:0:0:
440,208,27696,1,0,0:0:0:0:
328,128,28385,2,0,B|276:100|276:100|204:100|204:100|140:64,1,200
104,200,29765,6,0,P|176:248|304:264,1,200
384,160,31144,2,0,P|412:204|388:372,1,200
264,352,32523,2,0,P|188:296|264:196,1,200
228,272,44247,5,0,0:0:0:0:
280,128,44937,1,0,0:0:0:0:
412,204,45627,1,0,0:0:0:0:
320,328,46316,1,0,0:0:0:0:
320,172,47006,6,0,P|304:124|152:112,1,200
104,216,48385,6,0,P|141:304|240:296,1,200
328,192,49765,5,0,0:0:0:0:
212,100,50454,2,0,L|116:296,2,200
256,192,52523,12,0,54247,0:0:0:0:
160,316,55282,6,0,P|304:272|312:200,1,200
176,184,56661,2,0,P|228:64|320:72,1,200
252,244,58041,6,0,P|376:204|408:104,2,200
128,256,60110,6,0,P|232:332|328:328,1,200
388,228,61489,1,0,0:0:0:0:
312,112,62178,2,0,P|239:176|144:244,1,200
256,192,63558,12,0,65972,0:0:0:0:
40,292,67006,6,0,B|184:308|184:308|284:288,1,200
228,156,68385,2,0,P|350:202|356:296,2,200
92,184,70454,2,0,P|127:308|212:312,1,200
192,180,71834,6,0,P|236:151|396:136,1,200
424,264,73213,1,0,0:0:0:0:
288,300,73903,1,0,0:0:0:0:
256,192,74592,12,0,76316,0:0:0:0:
156,136,77351,6,0,P|216:104|360:160,1,200
256,248,78730,1,0,0:0:0:0:
338,135,79420,1,0,0:0:0:0:
208,80,80110,6,0,P|140:68|52:192,1,200
120,272,81489,1,0,0:0:0:0:
224,184,82178,2,0,B|272:232|392:184|392:184|392:248,1,200
336,336,83558,5,0,0:0:0:0:
200,296,84247,2,0,P|124:296|48:184,1,200
184,184,85627,6,0,B|180:160|292:232|372:162,1,200
200,80,87006,2,0,P|299:53|416:80,1,200
328,192,88385,5,0,0:0:0:0:
236,296,89075,2,0,P|216:204|100:148,1,200
100,288,90454,2,0,B|-3:235|24:112,1,200
160,100,91834,6,0,B|216:204|312:248,1,200
324,104,93213,2,0,P|384:124|428:276,1,200
304,284,94592,1,0,0:0:0:0:
220,172,95282,2,0,L|128:56,2,100
256,192,96661,12,0,99420,0:0:0:0:
