osu file format v14

[General]
AudioFilename: audio.mp3
AudioLeadIn: 0
PreviewTime: 44667
Countdown: 0
SampleSet: Normal
StackLeniency: 0.7
Mode: 1
LetterboxInBreaks: 0
WidescreenStoryboard: 0

[Editor]
DistanceSpacing: 1.4
BeatDivisor: 8
GridSize: 32
TimelineZoom: 2.1

[Metadata]
Title:Barracuda
TitleUnicode:Barracuda
Artist:Noisestorm
ArtistUnicode:Noisestorm
Creator:jmagine
Version:Predator
Source:
Tags:monstercat mc022 mcs335 contact electronic instrumental breakbeat bass dance drum & bass dnb drumstep dubstep edm electro island just shapes and beats jsab h_o_n_e_y honey fiscia
BeatmapID:2875289
BeatmapSetID:1392694

[Difficulty]
HPDrainRate:6
CircleSize:5
OverallDifficulty:6
ApproachRate:5
SliderMultiplier:1.4
SliderTickRate:1

[Events]
//Background and Video events
0,0,"barracuda-bg.jpg",0,0
//Break Periods
//Storyboard Layer 0 (Background)
//Storyboard Layer 1 (Fail)
//Storyboard Layer 2 (Pass)
//Storyboard Layer 3 (Foreground)
//Storyboard Layer 4 (Overlay)
//Storyboard Sound Samples

[TimingPoints]
475,461.538461538462,4,1,0,70,1,0
475,-86.9565217391304,4,1,0,70,0,0
931,-86.9565217391304,4,1,0,70,0,0
1162,-88.8888888888889,4,1,0,70,0,0
1393,-90.9090909090909,4,1,0,70,0,0
1623,-93.0232558139535,4,1,0,70,0,0
1854,-95.2380952380952,4,1,0,70,0,0
2316,-100,4,1,0,70,0,0
2777,-105.263157894737,4,1,0,70,0,0
3008,-108.108108108108,4,1,0,70,0,0
3239,-111.111111111111,4,1,0,70,0,0
3470,-114.285714285714,4,1,0,70,0,0
3700,-117.647058823529,4,1,0,70,0,0
6008,-117.647058823529,4,1,0,70,0,0
6123,-113.237074271065,4,1,0,70,0,0
6239,-109.145640668539,4,1,0,70,0,0
6354,-105.339667758688,4,1,0,70,0,0
6470,-101.790080353089,4,1,0,70,0,0
6700,-95.3633390901002,4,1,0,70,0,0
6816,-92.4450229448547,4,1,0,70,0,0
6931,-89.699935774846,4,1,0,70,0,0
7046,-87.1132498381871,4,1,0,70,0,0
7162,-84.6715674569911,4,1,0,70,0,0
7393,-80.176966600681,4,1,0,70,0,0
7854,-80,4,1,0,75,0,0
11546,-79.3650793650794,4,1,0,76,0,0
11662,-78.7401574803149,4,1,0,77,0,0
11777,-78.125,4,1,0,78,0,0
11893,-77.5193798449612,4,1,0,79,0,0
12008,-76.9230769230769,4,1,0,80,0,0
12239,-76.3358778625954,4,1,0,80,0,0
12354,-75.7575757575758,4,1,0,80,0,0
12470,-75.187969924812,4,1,0,80,0,0
12585,-74.6268656716418,4,1,0,80,0,0
12700,-74.0740740740741,4,1,0,80,0,0
14085,-77.5193798449612,4,1,0,84,0,0
14200,-78.4313725490196,4,1,0,85,0,0
14316,-79.3650793650794,4,1,0,86,0,0
14431,-80.3212851405623,4,1,0,87,0,0
14546,-81.3008130081301,4,1,0,88,0,0
14777,-83.3333333333333,4,1,0,90,0,0
15239,-58.8235294117647,4,1,0,100,0,0
15700,-74.0740740740741,4,1,0,100,0,0
17085,-58.8235294117647,4,1,0,100,0,0
17546,-74.0740740740741,4,1,0,100,0,0
18931,-58.8235294117647,4,1,0,100,0,0
19393,-74.0740740740741,4,1,0,100,0,0
20777,-58.8235294117647,4,1,0,100,0,0
21239,-74.0740740740741,4,1,0,100,0,0
22623,-58.8235294117647,4,1,0,100,0,0
23085,-74.0740740740741,4,1,0,100,0,0
24470,-58.8235294117647,4,1,0,100,0,0
24931,-74.0740740740741,4,1,0,100,0,0
26316,-58.8235294117647,4,1,0,100,0,0
26777,-74.0740740740741,4,1,0,100,0,0
28162,-58.8235294117647,4,1,0,100,0,0
28623,-74.0740740740741,4,1,0,90,0,0
28854,-75.7575757575758,4,1,0,90,0,0
29085,-77.5193798449612,4,1,0,90,0,0
29316,-79.3650793650794,4,1,0,90,0,0
29546,-81.3008130081301,4,1,0,90,0,0
30008,-71.4285714285714,4,1,0,80,0,0
31393,-67.1140939597315,4,1,0,80,0,0
31470,-68.4931506849315,4,1,0,80,0,0
31546,-69.9300699300699,4,1,0,80,0,0
31623,-71.4285714285714,4,1,0,80,0,0
33239,-67.1140939597315,4,1,0,80,0,0
33316,-68.4931506849315,4,1,0,80,0,0
33393,-69.9300699300699,4,1,0,80,0,0
33470,-71.4285714285714,4,1,0,80,0,0
33700,-70.9219858156028,4,1,0,81,0,0
33816,-70.4225352112676,4,1,0,82,0,0
33931,-69.9300699300699,4,1,0,83,0,0
34046,-69.4444444444444,4,1,0,84,0,0
34162,-68.9655172413793,4,1,0,85,0,0
34277,-68.4931506849315,4,1,0,85,0,0
34393,-68.0272108843537,4,1,0,85,0,0
34508,-67.5675675675676,4,1,0,85,0,0
35085,-63.6942675159236,4,1,0,85,0,0
35162,-64.9350649350649,4,1,0,85,0,0
35239,-66.2251655629139,4,1,0,85,0,0
35316,-67.5675675675676,4,1,0,85,0,0
36931,-63.6942675159236,4,1,0,85,0,0
37008,-64.9350649350649,4,1,0,85,0,0
37085,-66.2251655629139,4,1,0,85,0,0
37162,-67.5675675675676,4,1,0,85,0,0
37624,-66.6666666666667,4,1,0,85,0,0
37740,-64.5586127645289,4,1,0,85,0,0
37855,-62.5798283935946,4,1,0,85,0,0
37971,-60.718702999929,4,1,0,86,0,0
38086,-58.965115058629,4,1,0,86,0,0
38317,-66.6666666666667,4,1,0,86,0,0
38432,-65.2174054820447,4,1,0,86,0,0
38547,-63.8297736532396,4,1,0,87,0,0
38605,-63.1579080332438,4,1,0,87,0,0
38663,-62.5,4,1,0,87,0,0
38778,-61.2245022907148,4,1,0,87,0,0
38894,-59.9999880000024,4,1,0,88,0,0
39009,-58.8235294117647,4,1,0,88,0,0
39240,-66.6666666666667,4,1,0,88,0,0
39355,-65.2174054820447,4,1,0,88,0,0
39471,-63.8297736532396,4,1,0,89,0,0
39528,-63.1579080332438,4,1,0,89,0,0
39586,-62.5,4,1,0,89,0,0
39701,-61.2245022907148,4,1,0,89,0,0
39817,-59.9999880000024,4,1,0,90,0,0
39932,-58.8235294117647,4,1,0,90,0,0
40163,-66.6666666666667,4,1,0,90,0,0
40278,-65.2174054820447,4,1,0,90,0,0
40394,-63.8297736532396,4,1,0,91,0,0
40451,-63.1579080332438,4,1,0,91,0,0
40509,-62.5,4,1,0,91,0,0
40624,-61.2245022907148,4,1,0,91,0,0
40740,-59.9999880000024,4,1,0,92,0,0
40855,-58.8235294117647,4,1,0,92,0,0
41086,-66.6666666666667,4,1,0,92,0,0
41201,-65.7942351091197,4,1,0,92,0,0
41259,-65.3665691833232,4,1,0,92,0,0
41317,-64.9443848760114,4,1,0,93,0,0
41432,-64.1161682382608,4,1,0,93,0,0
41547,-63.3088496908629,4,1,0,93,0,0
41663,-62.5215699416299,4,1,0,93,0,0
41721,-62.1352659886466,4,1,0,94,0,0
41778,-61.7536683222825,4,1,0,94,0,0
41894,-61.0043636421313,4,1,0,94,0,0
42009,-60.2730610758982,4,1,0,94,0,0
42124,-59.5590486275808,4,1,0,95,0,0
42182,-59.2083839071613,4,1,0,95,0,0
42240,-58.8617895749885,4,1,0,95,0,0
42355,-58.180633412556,4,1,0,95,0,0
42471,-57.5150948366399,4,1,0,96,0,0
42586,-56.8645781444406,4,1,0,96,0,0
42644,-56.5448389263718,4,1,0,96,0,0
42701,-56.2286436582805,4,1,0,96,0,0
42817,-55.6067446532725,4,1,0,97,0,0
42932,-56.9620108956934,4,1,0,97,0,0
43047,-58.4415622364651,4,1,0,97,0,0
43105,-59.2105224203604,4,1,0,97,0,0
43163,-59.9999880000024,4,1,0,98,0,0
43278,-61.6438440608006,4,1,0,98,0,0
43394,-63.3802727633419,4,1,0,99,0,0
43451,-64.2856959183726,4,1,0,99,0,0
43509,-65.2174054820447,4,1,0,99,0,0
43567,-66.1764754541526,4,1,0,99,0,0
43624,-67.1641740922258,4,1,0,100,0,0
43740,-69.2307905325509,4,1,0,100,0,0
43855,-71.4285714285714,4,1,0,100,0,0
44085,-74.0740740740741,4,1,0,100,0,0
44316,-76.9230769230769,4,1,0,100,0,0
44546,-80,4,1,0,100,0,0
44778,-76.9230769230769,4,1,0,100,0,0
44782,-76.9230769230769,4,1,0,100,0,1
44894,-72.3484300390681,4,1,0,100,0,1
45009,-68.2873531821907,4,1,0,100,0,1
45124,-64.6579593948015,4,1,0,100,0,1
45240,-61.3948919449902,4,1,0,100,0,1
45355,-58.4453535943892,4,1,0,100,0,1
45471,-55.7662279723399,4,1,0,100,0,1
48009,-55.5555555555556,4,1,0,100,0,1
48124,-58.8235294117647,4,1,0,100,0,1
48240,-62.5,4,1,0,100,0,1
48297,-64.5161290322581,4,1,0,100,0,1
48355,-66.6666666666667,4,1,0,100,0,1
48471,-66.6666666666667,4,1,0,100,0,1
48586,-64.5161290322581,4,1,0,100,0,1
48701,-62.5,4,1,0,100,0,1
48817,-60.6060606060606,4,1,0,100,0,1
48932,-58.8235294117647,4,1,0,100,0,1
49047,-57.1428571428571,4,1,0,100,0,1
49163,-55.5555555555556,4,1,0,100,0,1
51701,-55.5555555555556,4,1,0,100,0,1
51817,-57.9710144927536,4,1,0,100,0,1
51932,-60.4924082027706,4,1,0,100,0,1
52009,-62.3402531014276,4,1,0,100,0,1
52086,-64.3045463314256,4,1,0,100,0,1
52163,-66.3966536086581,4,1,0,100,0,1
52278,-64.5161290322581,4,1,0,100,0,1
52393,-62.5,4,1,0,100,0,1
52509,-60.6060606060606,4,1,0,100,0,1
52624,-58.8235294117647,4,1,0,100,0,1
52739,-57.1428571428571,4,1,0,100,0,1
52855,-55.5555555555556,4,1,0,100,0,1
55855,-55.5555555555556,4,1,0,100,0,1
55971,-57.1102227298686,4,1,0,100,0,1
56086,-58.7544065804935,4,1,0,100,0,1
56201,-60.4924082027706,4,1,0,100,0,1
56317,-62.3402531014276,4,1,0,100,0,1
56547,-58.8235294117647,4,1,0,100,0,1
56663,-60.8457560085184,4,1,0,100,0,1
56894,-65.3338560041814,4,1,0,100,0,1
57009,-67.8380028491961,4,1,0,100,0,1
57123,-70.9219858156028,4,1,0,100,0,1
57240,-73.4645900675874,4,1,0,100,0,1
57355,-76.645972254158,4,1,0,100,0,1
57471,-52.6315789473684,4,1,0,100,0,1
57527,-53.763440860215,4,1,0,100,0,1
57585,-54.9450549450549,4,1,0,100,0,1
57643,-56.1797752808989,4,1,0,100,0,1
57700,-57.4712643678161,4,1,0,100,0,1
57817,-58.8235294117647,4,1,0,100,0,1
57932,-61.8543947547473,4,1,0,100,0,1
58047,-65.2188091045457,4,1,0,100,0,1
58163,-68.9655172413793,4,1,0,100,0,1
58394,-77.9241019247253,4,1,0,100,0,1
58509,-83.3333333333333,4,1,0,100,0,1
58740,-71.4285714285714,4,1,0,100,0,1
58855,-75.0000187500047,4,1,0,100,0,1
58971,-78.9473476454348,4,1,0,100,0,1
59086,-83.3333333333333,4,1,0,100,0,1
59317,-55.5555555555556,4,1,0,100,0,1
59394,-58.8235294117647,4,1,0,100,0,1
59471,-62.5,4,1,0,100,0,1
59547,-66.6666666666667,4,1,0,100,0,1
59662,-64.5161290322581,4,1,0,100,0,1
59777,-62.5,4,1,0,100,0,1
59893,-60.6060606060606,4,1,0,100,0,1
60008,-58.8235294117647,4,1,0,100,0,1
60123,-57.1428571428571,4,1,0,100,0,1
60239,-55.5555555555556,4,1,0,100,0,1
62778,-55.5555555555556,4,1,0,100,0,1
62893,-58.8235294117647,4,1,0,100,0,1
63009,-62.5,4,1,0,100,0,1
63066,-64.5161290322581,4,1,0,100,0,1
63124,-66.6666666666667,4,1,0,100,0,1
63240,-66.6666666666667,4,1,0,100,0,1
63355,-64.5161290322581,4,1,0,100,0,1
63470,-62.5,4,1,0,100,0,1
63586,-60.6060606060606,4,1,0,100,0,1
63701,-58.8235294117647,4,1,0,100,0,1
63816,-57.1428571428571,4,1,0,100,0,1
63932,-55.5555555555556,4,1,0,100,0,1
66471,-55.5555555555556,4,1,0,100,0,1
66586,-57.9710144927536,4,1,0,100,0,1
66702,-60.4924082027706,4,1,0,100,0,1
66779,-62.3402531014276,4,1,0,100,0,1
66856,-64.5161290322581,4,1,0,100,0,1
66932,-66.6666666666667,4,1,0,100,0,1
67047,-64.5161290322581,4,1,0,100,0,1
67162,-62.5,4,1,0,100,0,1
67278,-60.6060606060606,4,1,0,100,0,1
67393,-58.8235294117647,4,1,0,100,0,1
67508,-57.1428571428571,4,1,0,100,0,1
67624,-55.5555555555556,4,1,0,100,0,1
70624,-55.5555555555556,4,1,0,100,0,1
70740,-57.1102227298686,4,1,0,100,0,1
70855,-58.7544065804935,4,1,0,100,0,1
70970,-60.4924082027706,4,1,0,100,0,1
71086,-62.3402531014276,4,1,0,100,0,1
71317,-58.8235294117647,4,1,0,100,0,1
71432,-60.8679773571124,4,1,0,100,0,1
71663,-65.4193379562999,4,1,0,100,0,1
71778,-67.9624847084409,4,1,0,100,0,1
71893,-70.9219858156028,4,1,0,100,0,1
72009,-73.6865374696043,4,1,0,100,0,1
72124,-76.9230769230769,4,1,0,100,0,1
72240,-52.6315789473684,4,1,0,100,0,1
72297,-53.1697406752238,4,1,0,100,0,1
72355,-53.7190215832285,4,1,0,100,0,1
72413,-54.2797404125695,4,1,0,100,0,1
72471,-54.8523183606617,4,1,0,100,0,1
72586,-56.0344948350204,4,1,0,100,0,1
72701,-57.2687174212584,4,1,0,100,0,1
72817,-58.5585691096521,4,1,0,100,0,1
72932,-59.9078258191946,4,1,0,100,0,1
73047,-61.3207633944477,4,1,0,100,0,1
73163,-62.801920231513,4,1,0,100,0,1
73278,-64.3564420154893,4,1,0,100,0,1
73394,-65.989830967048,4,1,0,100,0,1
73509,-67.7083368598092,4,1,0,100,0,1
73624,-69.5186942720767,4,1,0,100,0,1
73740,-71.4285714285714,4,1,0,100,0,1
73855,-58.8235294117647,4,1,0,100,0,1
73913,-61.2245022907148,4,1,0,100,0,1
73971,-63.8297736532396,4,1,0,100,0,1
74028,-66.6666666666667,4,1,0,100,0,1
74086,-69.7674580854554,4,1,0,100,0,1
74201,-76.9230769230769,4,1,0,100,0,1
74317,-66.6666666666667,4,1,0,100,0,1
74321,-66.6666666666667,4,1,0,100,0,0
74778,-68.9655172413793,4,1,0,100,0,0
76163,-55.5555555555556,4,1,0,100,0,0
76624,-68.9655172413793,4,1,0,100,0,0
78009,-55.5555555555556,4,1,0,100,0,0
78471,-68.9655172413793,4,1,0,100,0,0
79855,-68.4931506849315,4,1,0,100,0,0
79971,-68.0272108843537,4,1,0,100,0,0
80086,-67.5675675675676,4,1,0,100,0,0
80201,-67.1140939597315,4,1,0,100,0,0
80317,-66.6666666666667,4,1,0,100,0,0
80547,-66.2251655629139,4,1,0,100,0,0
80663,-65.7894736842105,4,1,0,100,0,0
80778,-65.359477124183,4,1,0,100,0,0
80894,-64.9350649350649,4,1,0,100,0,0
81009,-64.5161290322581,4,1,0,100,0,0
81471,-55.5555555555556,4,1,0,100,0,0
82163,-68.9655172413793,4,1,0,100,0,0
83547,-55.5555555555556,4,1,0,100,0,0
84009,-68.9655172413793,4,1,0,100,0,0
85394,-55.5555555555556,4,1,0,100,0,0
85624,-68.9655172413793,4,1,0,100,0,0
86086,-68.0272108843537,4,1,0,100,0,0
86201,-67.1140939597315,4,1,0,100,0,0
86317,-66.2251655629139,4,1,0,100,0,0
86432,-65.359477124183,4,1,0,100,0,0
86547,-64.5161290322581,4,1,0,100,0,0
88855,-51.2820512820513,4,1,0,100,0,0
88932,-52.6315789473684,4,1,0,100,0,0
89009,-54.054054054054,4,1,0,100,0,0
89086,-55.5555555555556,4,1,0,100,0,0
89547,-68.9655172413793,4,1,0,100,0,0
90932,-55.5555555555556,4,1,0,100,0,0
91394,-68.9655172413793,4,1,0,100,0,0
92778,-55.5555555555556,4,1,0,100,0,0
93240,-68.9655172413793,4,1,0,100,0,0
94624,-68.4931506849315,4,1,0,100,0,0
94740,-68.0272108843537,4,1,0,100,0,0
94855,-67.5675675675676,4,1,0,100,0,0
94971,-67.1140939597315,4,1,0,100,0,0
95086,-66.6666666666667,4,1,0,100,0,0
95317,-66.2251655629139,4,1,0,100,0,0
95432,-65.7894736842105,4,1,0,100,0,0
95547,-65.359477124183,4,1,0,100,0,0
95663,-64.9350649350649,4,1,0,100,0,0
95778,-64.5161290322581,4,1,0,100,0,0
96471,-52.6315789473684,4,1,0,100,0,0
96932,-68.9655172413793,4,1,0,100,0,0
98317,-55.5555555555556,4,1,0,100,0,0
98778,-68.9655172413793,4,1,0,100,0,0
100163,-68.0272108843537,4,1,0,100,0,0
100278,-67.1140939597315,4,1,0,100,0,0
100394,-66.2251655629139,4,1,0,100,0,0
100509,-65.359477124183,4,1,0,100,0,0
100624,-64.5161290322581,4,1,0,100,0,0
102355,-62.8930817610063,4,1,0,100,0,0
102701,-61.3496932515337,4,1,0,100,0,0
103047,-59.8802395209581,4,1,0,100,0,0
103394,-57.1428571428571,4,1,0,100,0,0
103855,-41.6666666666667,4,1,0,100,0,0
104086,-25,4,1,0,100,0,0
104317,-50,4,1,0,80,0,0
104778,-55.5555555555556,4,1,0,60,0,0
105240,-62.5,4,1,0,40,0,0

[HitObjects]
256,192,475,5,4,0:0:0:0:
256,192,936,1,8,0:0:0:0:
256,192,1167,1,8,0:0:0:0:
256,192,1398,1,8,0:0:0:0:
256,192,1628,1,0,0:0:0:0:
256,192,1859,1,0,0:0:0:0:
256,192,2321,1,0,0:0:0:0:
256,192,2782,1,8,0:0:0:0:
256,192,3013,1,8,0:0:0:0:
256,192,3244,1,8,0:0:0:0:
256,192,3475,1,0,0:0:0:0:
256,192,3705,1,8,0:0:0:0:
256,192,4167,1,0,0:0:0:0:
256,192,4628,1,8,0:0:0:0:
256,192,4859,1,8,0:0:0:0:
256,192,5090,1,8,0:0:0:0:
256,192,5321,1,0,0:0:0:0:
256,192,5551,1,0,0:0:0:0:
256,192,6013,1,0,0:0:0:0:
256,192,6128,1,0,0:0:0:0:
256,192,6244,1,0,0:0:0:0:
256,192,6359,1,0,0:0:0:0:
256,192,6475,1,8,0:0:0:0:
256,192,6705,1,0,0:0:0:0:
256,192,6821,1,8,0:0:0:0:
256,192,6936,1,8,0:0:0:0:
256,192,7051,1,0,0:0:0:0:
256,192,7167,1,8,0:0:0:0:
256,192,7398,1,8,0:0:0:0:
256,192,7859,1,4,0:0:0:0:
256,192,8321,1,8,0:0:0:0:
256,192,8551,1,8,0:0:0:0:
256,192,8782,1,8,0:0:0:0:
256,192,9013,1,0,0:0:0:0:
256,192,9244,1,0,0:0:0:0:
256,192,9705,1,0,0:0:0:0:
256,192,10167,1,8,0:0:0:0:
256,192,10398,1,8,0:0:0:0:
256,192,10628,1,8,0:0:0:0:
256,192,10859,1,0,0:0:0:0:
256,192,11090,1,8,0:0:0:0:
256,192,11551,1,0,0:0:0:0:
256,192,11667,1,0,0:0:0:0:
256,192,11782,1,0,0:0:0:0:
256,192,11898,1,0,0:0:0:0:
256,192,12013,1,8,0:0:0:0:
256,192,12244,1,0,0:0:0:0:
256,192,12359,1,0,0:0:0:0:
256,192,12475,1,8,0:0:0:0:
256,192,12590,1,0,0:0:0:0:
256,192,12705,1,0,0:0:0:0:
256,192,12936,1,8,0:0:0:0:
256,192,13051,1,8,0:0:0:0:
256,192,13167,1,0,0:0:0:0:
256,192,13225,1,0,0:0:0:0:
256,192,13282,1,0,0:0:0:0:
256,192,13340,1,0,0:0:0:0:
256,192,13398,1,8,0:0:0:0:
256,192,13513,1,8,0:0:0:0:
256,192,13628,1,0,0:0:0:0:
256,192,13744,1,0,0:0:0:0:
256,192,13859,1,8,0:0:0:0:
256,192,14090,1,0,0:0:0:0:
256,192,14205,1,8,0:0:0:0:
256,192,14321,1,8,0:0:0:0:
256,192,14436,1,0,0:0:0:0:
256,192,14551,1,8,0:0:0:0:
256,192,14782,1,0,0:0:0:0:
256,192,15244,1,4,0:0:0:0:
256,192,15705,1,8,0:0:0:0:
256,192,15936,1,0,0:0:0:0:
256,192,16167,1,0,0:0:0:0:
256,192,16398,1,0,0:0:0:0:
256,192,16628,1,8,0:0:0:0:
256,192,17090,1,4,0:0:0:0:
256,192,17551,1,8,0:0:0:0:
256,192,17782,1,0,0:0:0:0:
256,192,18013,1,8,0:0:0:0:
256,192,18244,1,0,0:0:0:0:
256,192,18475,1,8,0:0:0:0:
256,192,18590,1,0,0:0:0:0:
256,192,18936,1,4,0:0:0:0:
256,192,19398,1,8,0:0:0:0:
256,192,19628,1,0,0:0:0:0:
256,192,19859,1,0,0:0:0:0:
256,192,20090,1,0,0:0:0:0:
256,192,20321,1,8,0:0:0:0:
256,192,20782,1,4,0:0:0:0:
256,192,21244,1,8,0:0:0:0:
256,192,21475,1,0,0:0:0:0:
256,192,21590,1,8,0:0:0:0:
256,192,21705,1,0,0:0:0:0:
256,192,21821,1,8,0:0:0:0:
256,192,21936,1,0,0:0:0:0:
256,192,22167,1,8,0:0:0:0:
256,192,22282,1,0,0:0:0:0:
256,192,22628,1,4,0:0:0:0:
256,192,23090,1,8,0:0:0:0:
256,192,23321,1,0,0:0:0:0:
256,192,23551,1,0,0:0:0:0:
256,192,23782,1,0,0:0:0:0:
256,192,24013,1,8,0:0:0:0:
256,192,24475,1,4,0:0:0:0:
256,192,24936,1,8,0:0:0:0:
256,192,25167,1,0,0:0:0:0:
256,192,25398,1,8,0:0:0:0:
256,192,25628,1,0,0:0:0:0:
256,192,25859,1,8,0:0:0:0:
256,192,25975,1,0,0:0:0:0:
256,192,26321,1,4,0:0:0:0:
256,192,26782,1,8,0:0:0:0:
256,192,27013,1,0,0:0:0:0:
256,192,27244,1,0,0:0:0:0:
256,192,27475,1,0,0:0:0:0:
256,192,27705,1,8,0:0:0:0:
256,192,28167,1,4,0:0:0:0:
256,192,28628,1,0,0:0:0:0:
256,192,28859,1,8,0:0:0:0:
256,192,29090,1,8,0:0:0:0:
256,192,29321,1,8,0:0:0:0:
256,192,29551,1,0,0:0:0:0:
256,192,30013,1,0,0:0:0:0:
256,192,30128,1,0,0:0:0:0:
256,192,30244,1,0,0:0:0:0:
256,192,30359,1,8,0:0:0:0:
256,192,30475,1,8,0:0:0:0:
256,192,30590,1,8,0:0:0:0:
256,192,30705,1,0,0:0:0:0:
256,192,30821,1,0,0:0:0:0:
256,192,30936,1,8,0:0:0:0:
256,192,31167,1,8,0:0:0:0:
256,192,31398,1,8,0:0:0:0:
256,192,31475,1,8,0:0:0:0:
256,192,31551,1,8,0:0:0:0:
256,192,31628,1,0,0:0:0:0:
256,192,31744,1,0,0:0:0:0:
256,192,31859,1,8,0:0:0:0:
256,192,31975,1,0,0:0:0:0:
256,192,32090,1,0,0:0:0:0:
256,192,32205,1,8,0:0:0:0:
256,192,32321,1,8,0:0:0:0:
256,192,32436,1,8,0:0:0:0:
256,192,32551,1,0,0:0:0:0:
256,192,32667,1,0,0:0:0:0:
256,192,32782,1,8,0:0:0:0:
256,192,33013,1,8,0:0:0:0:
256,192,33244,1,8,0:0:0:0:
256,192,33321,1,8,0:0:0:0:
256,192,33398,1,8,0:0:0:0:
256,192,33475,1,0,0:0:0:0:
256,192,33590,1,0,0:0:0:0:
256,192,33705,1,8,0:0:0:0:
256,192,33821,1,0,0:0:0:0:
256,192,33936,1,0,0:0:0:0:
256,192,34051,1,8,0:0:0:0:
256,192,34167,1,8,0:0:0:0:
256,192,34282,1,0,0:0:0:0:
256,192,34398,1,8,0:0:0:0:
256,192,34513,1,0,0:0:0:0:
256,192,34628,1,8,0:0:0:0:
256,192,34859,1,8,0:0:0:0:
256,192,35090,1,8,0:0:0:0:
256,192,35167,1,8,0:0:0:0:
256,192,35244,1,8,0:0:0:0:
256,192,35321,1,0,0:0:0:0:
256,192,35436,1,0,0:0:0:0:
256,192,35551,1,8,0:0:0:0:
256,192,35667,1,0,0:0:0:0:
256,192,35782,1,0,0:0:0:0:
256,192,35898,1,8,0:0:0:0:
256,192,36013,1,8,0:0:0:0:
256,192,36128,1,0,0:0:0:0:
256,192,36244,1,8,0:0:0:0:
256,192,36359,1,8,0:0:0:0:
256,192,36475,1,8,0:0:0:0:
256,192,36705,1,8,0:0:0:0:
256,192,36936,1,8,0:0:0:0:
256,192,37013,1,8,0:0:0:0:
256,192,37090,1,8,0:0:0:0:
256,192,37167,1,0,0:0:0:0:
256,192,37282,1,8,0:0:0:0:
256,192,37398,1,0,0:0:0:0:
256,192,37628,1,8,0:0:0:0:
256,192,37744,1,8,0:0:0:0:
256,192,37859,1,0,0:0:0:0:
256,192,37975,1,0,0:0:0:0:
256,192,38090,1,8,0:0:0:0:
256,192,38321,1,0,0:0:0:0:
256,192,38436,1,8,0:0:0:0:
256,192,38551,1,0,0:0:0:0:
256,192,38609,1,0,0:0:0:0:
256,192,38667,1,8,0:0:0:0:
256,192,38782,1,0,0:0:0:0:
256,192,38898,1,0,0:0:0:0:
256,192,39013,1,8,0:0:0:0:
256,192,39244,1,0,0:0:0:0:
256,192,39359,1,0,0:0:0:0:
256,192,39475,1,8,0:0:0:0:
256,192,39532,1,0,0:0:0:0:
256,192,39590,1,8,0:0:0:0:
256,192,39705,1,0,0:0:0:0:
256,192,39821,1,0,0:0:0:0:
256,192,39936,1,8,0:0:0:0:
256,192,40167,1,0,0:0:0:0:
256,192,40282,1,0,0:0:0:0:
256,192,40398,1,8,0:0:0:0:
256,192,40455,1,8,0:0:0:0:
256,192,40513,1,8,0:0:0:0:
256,192,40628,1,0,0:0:0:0:
256,192,40744,1,0,0:0:0:0:
256,192,40859,1,8,0:0:0:0:
256,192,41090,1,8,0:0:0:0:
256,192,41205,1,0,0:0:0:0:
256,192,41263,1,0,0:0:0:0:
256,192,41321,1,8,0:0:0:0:
256,192,41436,1,0,0:0:0:0:
256,192,41551,1,8,0:0:0:0:
256,192,41667,1,0,0:0:0:0:
256,192,41725,1,0,0:0:0:0:
256,192,41782,1,8,0:0:0:0:
256,192,41898,1,0,0:0:0:0:
256,192,42013,1,8,0:0:0:0:
256,192,42128,1,0,0:0:0:0:
256,192,42186,1,8,0:0:0:0:
256,192,42244,1,8,0:0:0:0:
256,192,42359,1,0,0:0:0:0:
256,192,42475,1,8,0:0:0:0:
256,192,42590,1,8,0:0:0:0:
256,192,42648,1,8,0:0:0:0:
256,192,42705,1,8,0:0:0:0:
256,192,42821,1,0,0:0:0:0:
256,192,42936,1,8,0:0:0:0:
256,192,43051,1,8,0:0:0:0:
256,192,43109,1,0,0:0:0:0:
256,192,43167,1,8,0:0:0:0:
256,192,43282,1,0,0:0:0:0:
256,192,43398,1,8,0:0:0:0:
256,192,43455,1,8,0:0:0:0:
256,192,43513,1,8,0:0:0:0:
256,192,43571,1,8,0:0:0:0:
256,192,43628,1,0,0:0:0:0:
256,192,43744,1,0,0:0:0:0:
256,192,43859,1,12,0:0:0:0:
256,192,44090,1,0,0:0:0:0:
256,192,44321,1,0,0:0:0:0:
256,192,44551,1,0,0:0:0:0:
256,192,44782,1,0,0:0:0:0:
256,192,44898,1,8,0:0:0:0:
256,192,45013,1,0,0:0:0:0:
256,192,45128,1,0,0:0:0:0:
256,192,45244,1,8,0:0:0:0:
256,192,45359,1,8,0:0:0:0:
256,192,45475,1,0,0:0:0:0:
256,192,45705,1,0,0:0:0:0:
256,192,45936,1,0,0:0:0:0:
256,192,46051,1,0,0:0:0:0:
256,192,46167,1,8,0:0:0:0:
256,192,46398,1,8,0:0:0:0:
256,192,46513,1,0,0:0:0:0:
256,192,46628,1,8,0:0:0:0:
256,192,46744,1,0,0:0:0:0:
256,192,46859,1,8,0:0:0:0:
256,192,47090,1,8,0:0:0:0:
256,192,47321,1,0,0:0:0:0:
256,192,47436,1,8,0:0:0:0:
256,192,47551,1,0,0:0:0:0:
256,192,47667,1,8,0:0:0:0:
256,192,47782,1,0,0:0:0:0:
256,192,48013,1,8,0:0:0:0:
256,192,48128,1,0,0:0:0:0:
256,192,48244,1,8,0:0:0:0:
256,192,48301,1,0,0:0:0:0:
256,192,48359,1,0,0:0:0:0:
256,192,48475,1,8,0:0:0:0:
256,192,48590,1,0,0:0:0:0:
256,192,48705,1,8,0:0:0:0:
256,192,48821,1,0,0:0:0:0:
256,192,48936,1,8,0:0:0:0:
256,192,49051,1,8,0:0:0:0:
256,192,49167,1,0,0:0:0:0:
256,192,49398,1,0,0:0:0:0:
256,192,49628,1,0,0:0:0:0:
256,192,49744,1,0,0:0:0:0:
256,192,49859,1,8,0:0:0:0:
256,192,50090,1,8,0:0:0:0:
256,192,50205,1,8,0:0:0:0:
256,192,50321,1,0,0:0:0:0:
256,192,50436,1,8,0:0:0:0:
256,192,50551,1,8,0:0:0:0:
256,192,50667,1,0,0:0:0:0:
256,192,50725,1,0,0:0:0:0:
256,192,50782,1,8,0:0:0:0:
256,192,50898,1,8,0:0:0:0:
256,192,51013,1,0,0:0:0:0:
256,192,51128,1,8,0:0:0:0:
256,192,51244,1,0,0:0:0:0:
256,192,51359,1,8,0:0:0:0:
256,192,51475,1,0,0:0:0:0:
256,192,51590,1,0,0:0:0:0:
256,192,51705,1,8,0:0:0:0:
256,192,51821,1,0,0:0:0:0:
256,192,51936,1,8,0:0:0:0:
256,192,52013,1,8,0:0:0:0:
256,192,52090,1,8,0:0:0:0:
256,192,52167,1,0,0:0:0:0:
256,192,52282,1,8,0:0:0:0:
256,192,52398,1,0,0:0:0:0:
256,192,52513,1,0,0:0:0:0:
256,192,52628,1,8,0:0:0:0:
256,192,52744,1,8,0:0:0:0:
256,192,52859,1,0,0:0:0:0:
256,192,53090,1,8,0:0:0:0:
256,192,53321,1,8,0:0:0:0:
256,192,53436,1,0,0:0:0:0:
256,192,53551,1,8,0:0:0:0:
256,192,53782,1,8,0:0:0:0:
256,192,53898,1,0,0:0:0:0:
256,192,54013,1,8,0:0:0:0:
256,192,54128,1,0,0:0:0:0:
256,192,54244,1,8,0:0:0:0:
256,192,54475,1,8,0:0:0:0:
256,192,54705,1,0,0:0:0:0:
256,192,54821,1,8,0:0:0:0:
256,192,54936,1,0,0:0:0:0:
256,192,55051,1,8,0:0:0:0:
256,192,55167,1,0,0:0:0:0:
256,192,55398,1,8,0:0:0:0:
256,192,55513,1,0,0:0:0:0:
256,192,55628,1,8,0:0:0:0:
256,192,55686,1,0,0:0:0:0:
256,192,55744,1,0,0:0:0:0:
256,192,55859,1,8,0:0:0:0:
256,192,55975,1,0,0:0:0:0:
256,192,56090,1,0,0:0:0:0:
256,192,56205,1,0,0:0:0:0:
256,192,56321,1,8,0:0:0:0:
256,192,56551,1,8,0:0:0:0:
256,192,56667,1,8,0:0:0:0:
256,192,56898,1,8,0:0:0:0:
256,192,57013,1,0,0:0:0:0:
256,192,57128,1,0,0:0:0:0:
256,192,57244,1,8,0:0:0:0:
256,192,57359,1,0,0:0:0:0:
256,192,57475,1,8,0:0:0:0:
256,192,57532,1,8,0:0:0:0:
256,192,57590,1,8,0:0:0:0:
256,192,57648,1,8,0:0:0:0:
256,192,57705,1,0,0:0:0:0:
256,192,57821,1,8,0:0:0:0:
256,192,57936,1,0,0:0:0:0:
256,192,58051,1,0,0:0:0:0:
256,192,58167,1,8,0:0:0:0:
256,192,58398,1,8,0:0:0:0:
256,192,58513,1,0,0:0:0:0:
256,192,58744,1,0,0:0:0:0:
256,192,58859,1,8,0:0:0:0:
256,192,58975,1,0,0:0:0:0:
256,192,59090,1,8,0:0:0:0:
256,192,59321,1,8,0:0:0:0:
256,192,59398,1,8,0:0:0:0:
256,192,59475,1,8,0:0:0:0:
256,192,59551,1,0,0:0:0:0:
256,192,59667,1,0,0:0:0:0:
256,192,59782,1,8,0:0:0:0:
256,192,59898,1,0,0:0:0:0:
256,192,60013,1,8,0:0:0:0:
256,192,60128,1,8,0:0:0:0:
256,192,60244,1,0,0:0:0:0:
256,192,60475,1,0,0:0:0:0:
256,192,60705,1,8,0:0:0:0:
256,192,60821,1,0,0:0:0:0:
256,192,60936,1,8,0:0:0:0:
256,192,61167,1,8,0:0:0:0:
256,192,61282,1,0,0:0:0:0:
256,192,61398,1,8,0:0:0:0:
256,192,61513,1,0,0:0:0:0:
256,192,61628,1,8,0:0:0:0:
256,192,61859,1,8,0:0:0:0:
256,192,62090,1,0,0:0:0:0:
256,192,62205,1,8,0:0:0:0:
256,192,62321,1,0,0:0:0:0:
256,192,62436,1,8,0:0:0:0:
256,192,62551,1,0,0:0:0:0:
256,192,62782,1,8,0:0:0:0:
256,192,62898,1,0,0:0:0:0:
256,192,63013,1,8,0:0:0:0:
256,192,63071,1,0,0:0:0:0:
256,192,63128,1,0,0:0:0:0:
256,192,63244,1,8,0:0:0:0:
256,192,63359,1,0,0:0:0:0:
256,192,63475,1,8,0:0:0:0:
256,192,63590,1,0,0:0:0:0:
256,192,63705,1,8,0:0:0:0:
256,192,63821,1,8,0:0:0:0:
256,192,63936,1,0,0:0:0:0:
256,192,64167,1,0,0:0:0:0:
256,192,64398,1,8,0:0:0:0:
256,192,64513,1,0,0:0:0:0:
256,192,64628,1,8,0:0:0:0:
256,192,64859,1,8,0:0:0:0:
256,192,64975,1,8,0:0:0:0:
256,192,65090,1,0,0:0:0:0:
256,192,65205,1,8,0:0:0:0:
256,192,65321,1,8,0:0:0:0:
256,192,65436,1,0,0:0:0:0:
256,192,65494,1,0,0:0:0:0:
256,192,65551,1,8,0:0:0:0:
256,192,65667,1,8,0:0:0:0:
256,192,65782,1,0,0:0:0:0:
256,192,65898,1,8,0:0:0:0:
256,192,66013,1,0,0:0:0:0:
256,192,66128,1,8,0:0:0:0:
256,192,66244,1,0,0:0:0:0:
256,192,66359,1,0,0:0:0:0:
256,192,66475,1,8,0:0:0:0:
256,192,66590,1,0,0:0:0:0:
256,192,66705,1,8,0:0:0:0:
256,192,66782,1,8,0:0:0:0:
256,192,66859,1,8,0:0:0:0:
256,192,66936,1,0,0:0:0:0:
256,192,67051,1,0,0:0:0:0:
256,192,67167,1,8,0:0:0:0:
256,192,67282,1,0,0:0:0:0:
256,192,67398,1,8,0:0:0:0:
256,192,67513,1,8,0:0:0:0:
256,192,67628,1,0,0:0:0:0:
256,192,67859,1,0,0:0:0:0:
256,192,68090,1,8,0:0:0:0:
256,192,68205,1,0,0:0:0:0:
256,192,68321,1,8,0:0:0:0:
256,192,68551,1,8,0:0:0:0:
256,192,68667,1,0,0:0:0:0:
256,192,68782,1,8,0:0:0:0:
256,192,68898,1,0,0:0:0:0:
256,192,69013,1,8,0:0:0:0:
256,192,69244,1,8,0:0:0:0:
256,192,69475,1,0,0:0:0:0:
256,192,69590,1,8,0:0:0:0:
256,192,69705,1,0,0:0:0:0:
256,192,69821,1,8,0:0:0:0:
256,192,69936,1,0,0:0:0:0:
256,192,70167,1,8,0:0:0:0:
256,192,70282,1,0,0:0:0:0:
256,192,70398,1,8,0:0:0:0:
256,192,70455,1,0,0:0:0:0:
256,192,70513,1,0,0:0:0:0:
256,192,70628,1,8,0:0:0:0:
256,192,70744,1,0,0:0:0:0:
256,192,70859,1,0,0:0:0:0:
256,192,70975,1,0,0:0:0:0:
256,192,71090,1,8,0:0:0:0:
256,192,71321,1,8,0:0:0:0:
256,192,71436,1,8,0:0:0:0:
256,192,71667,1,8,0:0:0:0:
256,192,71782,1,0,0:0:0:0:
256,192,71898,1,0,0:0:0:0:
256,192,72013,1,8,0:0:0:0:
256,192,72128,1,8,0:0:0:0:
256,192,72244,1,0,0:0:0:0:
256,192,72301,1,0,0:0:0:0:
256,192,72359,1,0,0:0:0:0:
256,192,72417,1,0,0:0:0:0:
256,192,72475,1,8,0:0:0:0:
256,192,72590,1,8,0:0:0:0:
256,192,72705,1,0,0:0:0:0:
256,192,72821,1,8,0:0:0:0:
256,192,72936,1,8,0:0:0:0:
256,192,73051,1,8,0:0:0:0:
256,192,73167,1,0,0:0:0:0:
256,192,73282,1,0,0:0:0:0:
256,192,73398,1,8,0:0:0:0:
256,192,73513,1,0,0:0:0:0:
256,192,73628,1,8,0:0:0:0:
256,192,73744,1,0,0:0:0:0:
256,192,73859,1,8,0:0:0:0:
256,192,73917,1,8,0:0:0:0:
256,192,73975,1,8,0:0:0:0:
256,192,74032,1,8,0:0:0:0:
256,192,74090,1,0,0:0:0:0:
256,192,74205,1,0,0:0:0:0:
256,192,74321,1,12,0:0:0:0:
256,192,74782,1,8,0:0:0:0:
256,192,75013,1,8,0:0:0:0:
256,192,75128,1,8,0:0:0:0:
256,192,75244,1,0,0:0:0:0:
256,192,75359,1,0,0:0:0:0:
256,192,75475,1,0,0:0:0:0:
256,192,75705,1,8,0:0:0:0:
256,192,76167,1,4,0:0:0:0:
256,192,76628,1,8,0:0:0:0:
256,192,76859,1,0,0:0:0:0:
256,192,76975,1,0,0:0:0:0:
256,192,77090,1,8,0:0:0:0:
256,192,77205,1,0,0:0:0:0:
256,192,77321,1,8,0:0:0:0:
256,192,77551,1,8,0:0:0:0:
256,192,77667,1,0,0:0:0:0:
256,192,78013,1,4,0:0:0:0:
256,192,78475,1,8,0:0:0:0:
256,192,78705,1,8,0:0:0:0:
256,192,78821,1,8,0:0:0:0:
256,192,78936,1,0,0:0:0:0:
256,192,79051,1,0,0:0:0:0:
256,192,79167,1,8,0:0:0:0:
256,192,79398,1,8,0:0:0:0:
256,192,79628,1,8,0:0:0:0:
256,192,79744,1,8,0:0:0:0:
256,192,79859,1,0,0:0:0:0:
256,192,79975,1,8,0:0:0:0:
256,192,80090,1,0,0:0:0:0:
256,192,80205,1,0,0:0:0:0:
256,192,80321,1,8,0:0:0:0:
256,192,80551,1,0,0:0:0:0:
256,192,80667,1,8,0:0:0:0:
256,192,80782,1,0,0:0:0:0:
256,192,80898,1,8,0:0:0:0:
256,192,81013,1,0,0:0:0:0:
256,192,81128,1,0,0:0:0:0:
256,192,81244,1,8,0:0:0:0:
256,192,81475,1,8,0:0:0:0:
256,192,81590,1,8,0:0:0:0:
256,192,81705,1,4,0:0:0:0:
256,192,82167,1,8,0:0:0:0:
256,192,82398,1,8,0:0:0:0:
256,192,82513,1,8,0:0:0:0:
256,192,82628,1,0,0:0:0:0:
256,192,82744,1,0,0:0:0:0:
256,192,82859,1,0,0:0:0:0:
256,192,83090,1,8,0:0:0:0:
256,192,83551,1,4,0:0:0:0:
256,192,84013,1,8,0:0:0:0:
256,192,84244,1,0,0:0:0:0:
256,192,84359,1,0,0:0:0:0:
256,192,84475,1,8,0:0:0:0:
256,192,84590,1,0,0:0:0:0:
256,192,84705,1,8,0:0:0:0:
256,192,84936,1,8,0:0:0:0:
256,192,85051,1,0,0:0:0:0:
256,192,85398,1,8,0:0:0:0:
256,192,85628,1,0,0:0:0:0:
256,192,85744,1,0,0:0:0:0:
256,192,85859,1,8,0:0:0:0:
256,192,86090,1,0,0:0:0:0:
256,192,86205,1,0,0:0:0:0:
256,192,86321,1,0,0:0:0:0:
256,192,86436,1,0,0:0:0:0:
256,192,86551,1,8,0:0:0:0:
256,192,86782,1,8,0:0:0:0:
256,192,86898,1,8,0:0:0:0:
256,192,87013,1,0,0:0:0:0:
256,192,87071,1,0,0:0:0:0:
256,192,87128,1,0,0:0:0:0:
256,192,87186,1,0,0:0:0:0:
256,192,87244,1,8,0:0:0:0:
256,192,87359,1,8,0:0:0:0:
256,192,87590,1,0,0:0:0:0:
256,192,87705,1,8,0:0:0:0:
256,192,87936,1,0,0:0:0:0:
256,192,88051,1,8,0:0:0:0:
256,192,88282,1,8,0:0:0:0:
256,192,88398,1,0,0:0:0:0:
256,192,88628,1,8,0:0:0:0:
256,192,88859,1,8,0:0:0:0:
256,192,88936,1,8,0:0:0:0:
256,192,89013,1,8,0:0:0:0:
256,192,89090,1,4,0:0:0:0:
256,192,89551,1,8,0:0:0:0:
256,192,89782,1,8,0:0:0:0:
256,192,89898,1,8,0:0:0:0:
256,192,90013,1,0,0:0:0:0:
256,192,90128,1,0,0:0:0:0:
256,192,90244,1,0,0:0:0:0:
256,192,90475,1,8,0:0:0:0:
256,192,90936,1,4,0:0:0:0:
256,192,91398,1,8,0:0:0:0:
256,192,91628,1,0,0:0:0:0:
256,192,91744,1,0,0:0:0:0:
256,192,91859,1,8,0:0:0:0:
256,192,91975,1,0,0:0:0:0:
256,192,92090,1,8,0:0:0:0:
256,192,92321,1,8,0:0:0:0:
256,192,92436,1,0,0:0:0:0:
256,192,92782,1,4,0:0:0:0:
256,192,93244,1,8,0:0:0:0:
256,192,93475,1,0,0:0:0:0:
256,192,93590,1,0,0:0:0:0:
256,192,93705,1,8,0:0:0:0:
256,192,93821,1,8,0:0:0:0:
256,192,93936,1,0,0:0:0:0:
256,192,94167,1,8,0:0:0:0:
256,192,94628,1,0,0:0:0:0:
256,192,94744,1,8,0:0:0:0:
256,192,94859,1,0,0:0:0:0:
256,192,94975,1,0,0:0:0:0:
256,192,95090,1,8,0:0:0:0:
256,192,95321,1,0,0:0:0:0:
256,192,95436,1,8,0:0:0:0:
256,192,95551,1,0,0:0:0:0:
256,192,95667,1,8,0:0:0:0:
256,192,95782,1,0,0:0:0:0:
256,192,95898,1,0,0:0:0:0:
256,192,96013,1,8,0:0:0:0:
256,192,96244,1,0,0:0:0:0:
256,192,96475,1,4,0:0:0:0:
256,192,96936,1,8,0:0:0:0:
256,192,97167,1,8,0:0:0:0:
256,192,97282,1,0,0:0:0:0:
256,192,97398,1,8,0:0:0:0:
256,192,97513,1,0,0:0:0:0:
256,192,97628,1,0,0:0:0:0:
256,192,97859,1,8,0:0:0:0:
256,192,98321,1,4,0:0:0:0:
256,192,98782,1,8,0:0:0:0:
256,192,99013,1,0,0:0:0:0:
256,192,99128,1,0,0:0:0:0:
256,192,99244,1,8,0:0:0:0:
256,192,99359,1,0,0:0:0:0:
256,192,99475,1,8,0:0:0:0:
256,192,99705,1,8,0:0:0:0:
256,192,99821,1,0,0:0:0:0:
256,192,100167,1,0,0:0:0:0:
256,192,100282,1,0,0:0:0:0:
256,192,100398,1,0,0:0:0:0:
256,192,100513,1,0,0:0:0:0:
256,192,100628,1,8,0:0:0:0:
256,192,100859,1,0,0:0:0:0:
256,192,100975,1,8,0:0:0:0:
256,192,101205,1,8,0:0:0:0:
256,192,101321,1,0,0:0:0:0:
256,192,101436,1,0,0:0:0:0:
256,192,101551,1,8,0:0:0:0:
256,192,101782,1,0,0:0:0:0:
256,192,101840,1,0,0:0:0:0:
256,192,101898,1,0,0:0:0:0:
256,192,101955,1,0,0:0:0:0:
256,192,102013,1,8,0:0:0:0:
256,192,102128,1,8,0:0:0:0:
256,192,102359,1,0,0:0:0:0:
256,192,102475,1,8,0:0:0:0:
256,192,102705,1,8,0:0:0:0:
256,192,102821,1,8,0:0:0:0:
256,192,103051,1,0,0:0:0:0:
256,192,103167,1,0,0:0:0:0:
256,192,103398,1,8,0:0:0:0:
256,192,103859,1,12,0:0:0:0:
256,192,104090,12,8,105705,0:0:0:0:
